<?xml version="1.0" standalone="no"?>
<!DOCTYPE svg PUBLIC "-//W3C//DTD SVG 1.1//EN" "http://www.w3.org/Graphics/SVG/1.1/DTD/svg11.dtd" >
<svg xmlns="http://www.w3.org/2000/svg" xmlns:xlink="http://www.w3.org/1999/xlink" version="1.1">
<metadata>
Created by FontForge 20220308 at Thu Sep 27 16:55:44 2018
 By romain pradier
Copyright (c) 2018 Commercial Type, Inc.. All rights reserved.
</metadata>
<defs>
<font id="BurberryStyrene-Bold" horiz-adv-x="600" >
  <font-face 
    font-family="Burberry Styrene Bold"
    font-weight="700"
    font-stretch="normal"
    units-per-em="1000"
    panose-1="0 0 0 0 0 0 0 0 0 0"
    ascent="786"
    descent="-214"
    x-height="518"
    cap-height="710"
    bbox="-76 -320 1386 1214"
    underline-thickness="76"
    underline-position="-152"
    unicode-range="U+0020-F6D4"
  />
<missing-glyph horiz-adv-x="500" 
d="M50 -214v950h400v-950h-400zM100 -164h300v850h-300v-850z" />
    <glyph glyph-name=".notdef" horiz-adv-x="500" 
d="M50 -214v950h400v-950h-400zM100 -164h300v850h-300v-850z" />
    <glyph glyph-name=".null" horiz-adv-x="0" 
 />
    <glyph glyph-name="nonmarkingreturn" horiz-adv-x="333" 
 />
    <glyph glyph-name="space" unicode=" " horiz-adv-x="252" 
 />
    <glyph glyph-name="exclam" unicode="!" horiz-adv-x="347" 
d="M93 238v472h161v-472h-161zM80 0v176h187v-176h-187z" />
    <glyph glyph-name="quotedbl" unicode="&#x22;" horiz-adv-x="526" 
d="M220 401h-140v309h140v-309zM445 401h-139v309h139v-309z" />
    <glyph glyph-name="numbersign" unicode="#" horiz-adv-x="754" 
d="M87 0l43 167h-107v120h138l38 147h-106v120h137l40 156h136l-40 -156h122l40 156h137l-40 -156h106v-120h-138l-38 -147h106v-120h-137l-43 -167h-136l43 167h-123l-43 -167h-135zM296 287h123l38 147h-123z" />
    <glyph glyph-name="dollar" unicode="$" horiz-adv-x="614" 
d="M237 -123v127q-83 17 -129.5 70.5t-51.5 131.5l158 15q1 -37 23 -63.5t70 -26.5q42 0 65 18.5t23 50.5q0 55 -69 75q-11 3 -42.5 12t-46.5 13q-87 26 -129.5 76.5t-42.5 136.5q0 76 46 127.5t126 68.5v120h141v-121q75 -17 115 -65t46 -115l-154 -19q-3 29 -22.5 51.5
t-57.5 22.5q-37 0 -58.5 -17.5t-21.5 -47.5q0 -52 70 -73q11 -3 42.5 -12t46.5 -13q87 -25 130 -76.5t43 -138.5q0 -77 -47 -130.5t-132 -70.5v-127h-141z" />
    <glyph glyph-name="percent" unicode="%" horiz-adv-x="993" 
d="M239 340q-83 0 -139 55t-56 136t56 136t139 55q82 0 138 -55t56 -136t-56 -136t-138 -55zM166 0l520 710h142l-521 -710h-141zM239 456q31 0 51.5 21.5t20.5 53.5t-20.5 53.5t-51.5 21.5q-32 0 -52.5 -21.5t-20.5 -53.5t20.5 -53.5t52.5 -21.5zM755 -14q-82 0 -138.5 55
t-56.5 136t56.5 136t138.5 55t138 -55t56 -136t-56 -136t-138 -55zM755 102q31 0 51.5 21.5t20.5 53.5t-20.5 53.5t-51.5 21.5q-32 0 -52.5 -21.5t-20.5 -53.5t20.5 -53.5t52.5 -21.5z" />
    <glyph glyph-name="ampersand" unicode="&#x26;" horiz-adv-x="743" 
d="M609 -8l-101 97q-50 -49 -102 -75t-122 -26q-110 0 -176 53.5t-66 141.5q0 72 40 120t109 91q-76 78 -76 155q0 74 58 123.5t152 49.5q105 0 163 -48t58 -126q0 -32 -12 -59.5t-33.5 -49.5t-42 -37t-48.5 -31l92 -89l107 111l98 -90l-108 -117l106 -104zM320 460l8 -8
q34 23 52 43.5t18 46.5q0 29 -19 46t-49 17q-28 0 -46.5 -16.5t-18.5 -41.5q0 -15 8.5 -31t18 -26.5t28.5 -29.5zM205 205q0 -33 23 -54.5t62 -21.5q56 0 117 56l-126 121q-39 -27 -57.5 -48.5t-18.5 -52.5z" />
    <glyph glyph-name="quotesingle" unicode="'" horiz-adv-x="304" 
d="M223 401h-143v309h143v-309z" />
    <glyph glyph-name="parenleft" unicode="(" horiz-adv-x="372" 
d="M215 350q0 -81 11.5 -155t34.5 -137t38 -97.5t41 -84.5h-146q-24 47 -40.5 84.5t-38.5 100t-33.5 136t-11.5 153.5t11.5 153t33.5 135.5t38 99t41 84.5h146q-26 -51 -41 -84t-38 -96.5t-34.5 -137t-11.5 -154.5z" />
    <glyph glyph-name="parenright" unicode=")" horiz-adv-x="372" 
d="M157 350q0 81 -11.5 154.5t-34.5 137t-38 96.5t-41 84h147q33 -65 55 -116t45 -151.5t23 -204.5t-23 -205t-45 -153t-55 -116h-147q26 50 41 84.5t38 97.5t34.5 137t11.5 155z" />
    <glyph glyph-name="asterisk" unicode="*" horiz-adv-x="489" 
d="M187 739h115l-1 -137l125 45l38 -103l-133 -46l94 -112l-90 -69l-90 110l-90 -111l-91 69l95 112l-134 47l38 103l125 -45z" />
    <glyph glyph-name="plus" unicode="+" horiz-adv-x="705" 
d="M276 49v208h-200v144h200v207h152v-207h201v-144h-201v-208h-152z" />
    <glyph glyph-name="comma" unicode="," horiz-adv-x="332" 
d="M179 -224l-92 33q68 104 75 191h-89v196h187v-173q0 -138 -81 -247z" />
    <glyph glyph-name="hyphen" unicode="-" horiz-adv-x="490" 
d="M76 226v150h338v-150h-338z" />
    <glyph glyph-name="period" unicode="." horiz-adv-x="332" 
d="M73 0v196h187v-196h-187z" />
    <glyph glyph-name="slash" unicode="/" horiz-adv-x="429" 
d="M19 -70l243 830h144l-246 -830h-141z" />
    <glyph glyph-name="zero" unicode="0" horiz-adv-x="699" 
d="M349 723q127 0 200 -71t73 -194v-206q0 -124 -73 -194.5t-200 -70.5t-200 70.5t-73 194.5v206q0 123 73 194t200 71zM349 137q52 0 79.5 32.5t27.5 87.5v196q0 55 -27.5 87.5t-79.5 32.5t-79.5 -33t-27.5 -87v-196q0 -54 27.5 -87t79.5 -33z" />
    <glyph glyph-name="one" unicode="1" horiz-adv-x="472" 
d="M378 0h-166v527l-173 -97v155l215 128h124v-713z" />
    <glyph glyph-name="two" unicode="2" horiz-adv-x="641" 
d="M608 145v-145h-550v110l264 239q44 41 63 71t19 66q0 39 -24 63.5t-67 24.5q-45 0 -67.5 -29t-25.5 -72l-161 22q5 96 71 161.5t183 65.5q123 0 191.5 -62.5t68.5 -167.5q0 -75 -37 -130t-116 -124l-102 -93h290z" />
    <glyph glyph-name="three" unicode="3" horiz-adv-x="652" 
d="M320 134q52 0 81 22t29 60q0 76 -87 76h-86v143h76q77 0 77 68q0 36 -26 56t-71 20q-49 0 -72 -23.5t-28 -48.5l-160 37q5 28 21 56.5t45 57t79.5 46.5t113.5 18q126 0 195.5 -54t69.5 -150q0 -54 -27.5 -90t-64.5 -51q46 -14 80 -56.5t34 -115.5q0 -99 -74.5 -158
t-204.5 -59q-57 0 -103.5 13.5t-75.5 33.5t-51 46t-31.5 46.5t-14.5 39.5l159 45q29 -78 117 -78z" />
    <glyph glyph-name="four" unicode="4" horiz-adv-x="720" 
d="M687 191h-137v-191h-162v191h-353v109l324 410h191v-379h137v-140zM209 331h179v231z" />
    <glyph glyph-name="five" unicode="5" horiz-adv-x="660" 
d="M232 302h-148v408h494v-136h-338v-137q47 53 137 53q98 0 163 -65.5t65 -175.5v-4q0 -113 -74.5 -185t-202.5 -72q-70 0 -123.5 19.5t-83.5 51t-46 61t-23 60.5l163 41q29 -86 113 -86q48 0 79 31t31 77v3q0 49 -30 78.5t-80 29.5q-66 0 -96 -52z" />
    <glyph glyph-name="six" unicode="6" horiz-adv-x="666" 
d="M614 246q0 -113 -76.5 -185.5t-204.5 -72.5t-204.5 72t-76.5 185q0 78 28 137.5t90 138.5l148 189h184l-203 -258q40 27 97 27q98 0 158 -64.5t60 -168.5zM448 246q0 50 -31 81.5t-84 31.5q-51 0 -83 -32t-32 -82q0 -48 31.5 -79.5t83.5 -31.5q53 0 84 31.5t31 80.5z" />
    <glyph glyph-name="seven" unicode="7" horiz-adv-x="625" 
d="M270 0h-186l301 563h-341v147h540v-107z" />
    <glyph glyph-name="eight" unicode="8" horiz-adv-x="673" 
d="M351 722q121 0 188 -54t67 -143q0 -66 -32.5 -106t-74.5 -55q46 -15 82.5 -58t36.5 -113q0 -93 -71 -149t-196 -56h-30q-124 0 -194.5 56t-70.5 149q0 70 36 113t83 59q-42 14 -74.5 54t-32.5 106q0 89 67 143t188 54h28zM233 509q0 -39 26.5 -61.5t69.5 -22.5h15
q43 0 69.5 22.5t26.5 61.5t-26.5 61t-69.5 22h-15q-43 0 -69.5 -22t-26.5 -61zM225 208q0 -41 28.5 -65.5t73.5 -24.5h19q45 0 73.5 24.5t28.5 65.5t-28.5 65.5t-73.5 24.5h-19q-45 0 -73.5 -24.5t-28.5 -65.5z" />
    <glyph glyph-name="nine" unicode="9" horiz-adv-x="666" 
d="M52 464q0 113 76.5 185.5t204.5 72.5t204.5 -72t76.5 -185q0 -78 -28 -137.5t-89 -138.5l-149 -189h-184l203 258q-40 -27 -97 -27q-98 0 -158 64.5t-60 168.5zM218 464q0 -50 31 -81.5t84 -31.5q51 0 83 32t32 82q0 48 -31.5 79.5t-83.5 31.5q-53 0 -84 -31.5t-31 -80.5
z" />
    <glyph glyph-name="colon" unicode=":" horiz-adv-x="342" 
d="M78 319v196h187v-196h-187zM78 0v196h187v-196h-187z" />
    <glyph glyph-name="semicolon" unicode=";" horiz-adv-x="342" 
d="M78 319v196h187v-196h-187zM184 -224l-92 33q68 104 75 191h-89v196h187v-173q0 -138 -81 -247z" />
    <glyph glyph-name="less" unicode="&#x3c;" horiz-adv-x="636" 
d="M550 205v-155l-474 206v135l474 205v-156l-284 -118z" />
    <glyph glyph-name="equal" unicode="=" horiz-adv-x="699" 
d="M617 371h-536v143h536v-143zM617 137h-536v143h536v-143z" />
    <glyph glyph-name="greater" unicode="&#x3e;" horiz-adv-x="636" 
d="M560 256l-474 -206v156l284 119l-284 116v155l474 -205v-135z" />
    <glyph glyph-name="question" unicode="?" horiz-adv-x="543" 
d="M347 238h-160v26q0 44 14 69t61 72l41 40q41 41 41 77q0 32 -19.5 49.5t-54.5 17.5q-70 0 -77 -78l-157 24q6 85 66.5 136t167.5 51q113 0 175 -52.5t62 -146.5q0 -59 -22.5 -97t-81.5 -93l-31 -29q-25 -22 -25 -59v-7zM174 0v176h187v-176h-187z" />
    <glyph glyph-name="at" unicode="@" horiz-adv-x="1014" 
d="M757 506l-48 -287q-10 -59 38 -59q46 0 79.5 52t33.5 146q0 134 -86.5 211t-244.5 77t-259.5 -101.5t-101.5 -266.5q0 -157 102.5 -255.5t270.5 -98.5q62 0 118.5 12t95 30.5t58.5 31t32 22.5l92 -54q-15 -18 -44 -40t-77 -47t-120.5 -41.5t-154.5 -16.5
q-115 0 -209 35.5t-155.5 98t-94.5 146t-33 179.5q0 203 135.5 335.5t344.5 132.5q211 0 326.5 -111t115.5 -279q0 -133 -64.5 -216.5t-171.5 -83.5q-104 0 -133 64q-47 -64 -132 -64t-139.5 58t-54.5 159q0 104 58 171.5t151 67.5q43 0 74 -19t45 -49l11 60h142zM508 386
q-37 0 -60.5 -31.5t-23.5 -80.5q0 -39 19 -62.5t53 -23.5q37 0 60 31.5t23 79.5q0 40 -18.5 63.5t-52.5 23.5z" />
    <glyph glyph-name="A" unicode="A" horiz-adv-x="766" 
d="M569 0l-46 123h-290l-46 -123h-169l272 711h185l274 -711h-180zM286 265h184l-92 247z" />
    <glyph glyph-name="B" unicode="B" horiz-adv-x="764" 
d="M86 0v710h380q109 0 168.5 -51.5t59.5 -138.5q0 -56 -33 -94t-78 -51q55 -15 92 -59t37 -113q0 -94 -64 -148.5t-185 -54.5h-377zM438 573h-185v-140h185q83 0 83 70t-83 70zM433 296h-180v-159h180q106 0 106 81q0 78 -106 78z" />
    <glyph glyph-name="C" unicode="C" horiz-adv-x="717" 
d="M381 -12q-147 0 -237.5 100.5t-90.5 266.5q0 164 90.5 265.5t237.5 101.5q58 0 106.5 -14t79 -34.5t54 -48t34.5 -49.5t17 -43l-156 -54q-43 90 -135 90q-72 0 -112.5 -60t-40.5 -154t40.5 -154t112.5 -60q89 0 137 88l152 -51q-6 -19 -16 -40t-33 -49t-53.5 -49.5
t-79.5 -36.5t-107 -15z" />
    <glyph glyph-name="D" unicode="D" horiz-adv-x="772" 
d="M86 0v710h259q173 0 273.5 -91t100.5 -264q0 -170 -101 -262.5t-273 -92.5h-259zM342 564h-86v-418h86q97 0 150.5 55t53.5 154q0 102 -53 155.5t-151 53.5z" />
    <glyph glyph-name="E" unicode="E" horiz-adv-x="711" 
d="M86 0v710h552v-140h-382v-128h314v-143h-314v-152h416v-147h-586z" />
    <glyph glyph-name="F" unicode="F" horiz-adv-x="705" 
d="M86 0v710h583v-141h-413v-138h344v-141h-344v-290h-170z" />
    <glyph glyph-name="G" unicode="G" horiz-adv-x="777" 
d="M706 72q-37 -32 -109.5 -58.5t-173.5 -26.5q-169 0 -269.5 101t-100.5 271q0 162 96 264t250 102q58 0 106.5 -12.5t79 -29.5t54 -40t34 -40.5t16.5 -33.5l-155 -55q-50 66 -134 66q-79 0 -126 -60.5t-47 -160.5q0 -105 51.5 -167t144.5 -62q77 0 120 24v128h-134v136
h297v-346z" />
    <glyph glyph-name="H" unicode="H" horiz-adv-x="810" 
d="M86 0v710h170v-279h298v279h170v-710h-170v281h-298v-281h-170z" />
    <glyph glyph-name="I" unicode="I" horiz-adv-x="346" 
d="M88 0v710h170v-710h-170z" />
    <glyph glyph-name="J" unicode="J" horiz-adv-x="658" 
d="M575 224q0 -110 -69 -174t-191 -64t-186.5 63.5t-64.5 174.5v108h162v-94q0 -46 22.5 -73.5t66.5 -27.5q43 0 66 27.5t23 73.5v472h171v-486z" />
    <glyph glyph-name="K" unicode="K" horiz-adv-x="756" 
d="M86 0v710h170v-301l270 301h210l-305 -338l322 -372h-224l-273 312v-312h-170z" />
    <glyph glyph-name="L" unicode="L" horiz-adv-x="639" 
d="M86 0v710h170v-556h348v-154h-518z" />
    <glyph glyph-name="M" unicode="M" horiz-adv-x="964" 
d="M86 0v710h254l147 -433l146 433h244v-710h-164v529l-179 -530h-113l-178 525v-524h-157z" />
    <glyph glyph-name="N" unicode="N" horiz-adv-x="812" 
d="M725 710v-714h-139l-334 477v-473h-166v710h192l285 -418v418h162z" />
    <glyph glyph-name="O" unicode="O" horiz-adv-x="783" 
d="M392 -12q-149 0 -244 100t-95 267q0 168 95 267.5t244 99.5q148 0 243 -99.5t95 -267.5q0 -167 -95.5 -267t-242.5 -100zM392 140q78 0 122 60t44 155q0 94 -44.5 154.5t-121.5 60.5t-121.5 -60.5t-44.5 -154.5q0 -95 44 -155t122 -60z" />
    <glyph glyph-name="P" unicode="P" horiz-adv-x="746" 
d="M86 0v710h360q122 0 188.5 -58t66.5 -169q0 -110 -67 -169.5t-188 -59.5h-191v-254h-169zM429 562h-174v-160h174q48 0 73 21t25 59q0 80 -98 80z" />
    <glyph glyph-name="Q" unicode="Q" horiz-adv-x="783" 
d="M392 -5q-149 0 -244 98t-95 262q0 168 95.5 267.5t243.5 99.5q147 0 242.5 -99.5t95.5 -267.5q0 -108 -44 -189.5t-120 -125.5l154 -192h-204l-120 147h-4zM392 140q78 0 122 60t44 155q0 94 -44.5 154.5t-121.5 60.5t-121.5 -60.5t-44.5 -154.5q0 -95 44 -155t122 -60z
" />
    <glyph glyph-name="R" unicode="R" horiz-adv-x="773" 
d="M86 0v710h364q119 0 184.5 -56.5t65.5 -164.5q0 -146 -126 -196l167 -293h-182l-155 272h-149v-272h-169zM433 564h-178v-150h178q93 0 93 75t-93 75z" />
    <glyph glyph-name="S" unicode="S" horiz-adv-x="709" 
d="M338 587q-52 0 -80.5 -18t-28.5 -49q0 -54 95 -67q10 -1 22.5 -3t23.5 -3.5t24 -3.5q131 -16 197.5 -66.5t66.5 -159.5q0 -103 -79 -166.5t-217 -63.5q-75 0 -136 18.5t-97.5 48t-56.5 54.5t-31 49l159 59q61 -89 163 -89q54 0 87.5 20.5t33.5 56.5q0 35 -25 52.5
t-75 24.5q-29 4 -71 10q-127 17 -192.5 69t-65.5 151q0 98 78 155t205 57q73 0 129.5 -15.5t89.5 -41t50 -46.5t28 -45l-154 -53q-53 65 -143 65z" />
    <glyph glyph-name="T" unicode="T" horiz-adv-x="725" 
d="M278 0v562h-243v148h655v-148h-243v-562h-169z" />
    <glyph glyph-name="U" unicode="U" horiz-adv-x="795" 
d="M544 295v415h169v-426q0 -131 -83 -215t-232 -84q-152 0 -234 83.5t-82 215.5v426h170v-415q0 -71 38 -113t108 -42q69 0 107.5 42.5t38.5 112.5z" />
    <glyph glyph-name="V" unicode="V" horiz-adv-x="756" 
d="M294 -1l-273 711h193l173 -489l172 489h176l-260 -711h-181z" />
    <glyph glyph-name="W" unicode="W" horiz-adv-x="1036" 
d="M603 711l128 -451l120 450h161l-200 -711h-161l-134 454l-134 -454h-152l-208 711h179l121 -446l126 447h154z" />
    <glyph glyph-name="X" unicode="X" horiz-adv-x="792" 
d="M212 0h-201l281 362l-268 348h221l156 -207l161 207h203l-264 -339l280 -371h-211l-178 231z" />
    <glyph glyph-name="Y" unicode="Y" horiz-adv-x="723" 
d="M277 289l-275 421h212l159 -250l159 250h189l-265 -425v-285h-179v289z" />
    <glyph glyph-name="Z" unicode="Z" horiz-adv-x="726" 
d="M47 0v97l357 467h-347v146h596v-95l-358 -468h395v-147h-643z" />
    <glyph glyph-name="bracketleft" unicode="[" horiz-adv-x="390" 
d="M80 -124v946h289v-125h-147v-696h147v-125h-289z" />
    <glyph glyph-name="backslash" unicode="\" horiz-adv-x="429" 
d="M411 -70h-142l-245 830h143z" />
    <glyph glyph-name="bracketright" unicode="]" horiz-adv-x="390" 
d="M310 -124h-290v125h148v696h-148v125h290v-946z" />
    <glyph glyph-name="asciicircum" unicode="^" horiz-adv-x="584" 
d="M402 263l-112 261l-112 -261h-158l195 453h152l198 -453h-163z" />
    <glyph glyph-name="underscore" unicode="_" horiz-adv-x="611" 
d="M25 -155v109h560v-109h-560z" />
    <glyph glyph-name="grave" unicode="`" 
d="M432 582h-156l-108 190h163z" />
    <glyph glyph-name="a" unicode="a" horiz-adv-x="595" 
d="M532 164q0 -39 33 -42v-124h-76q-82 0 -105 62q-49 -72 -152 -72q-87 0 -141.5 49t-54.5 126t51.5 118.5t143.5 41.5h143v5q0 35 -23 57t-64 22q-61 0 -85 -47l-149 36q6 18 19.5 38t39 43.5t70.5 38.5t102 15q123 0 185.5 -56t62.5 -155v-156zM280 102q40 0 67 22t27 56
v41h-109q-31 0 -49.5 -14t-18.5 -40q0 -29 22.5 -47t60.5 -18z" />
    <glyph glyph-name="b" unicode="b" horiz-adv-x="639" 
d="M229 73v-73h-159v736h161v-293q6 13 20 30t50 36.5t80 19.5q94 0 154 -72t60 -198t-60 -198t-154 -72q-45 0 -81.5 19t-49.5 34.5t-21 30.5zM229 259q0 -60 27 -96t74 -36q46 0 73.5 36t27.5 96t-27.5 96t-73.5 36q-47 0 -74 -36t-27 -96z" />
    <glyph glyph-name="c" unicode="c" horiz-adv-x="559" 
d="M377 336q-26 55 -81 55q-41 0 -65.5 -36.5t-24.5 -95.5t24.5 -96t66.5 -37q53 0 81 57l145 -43q-5 -19 -18 -41.5t-38.5 -49.5t-71 -44.5t-102.5 -17.5q-109 0 -179.5 75t-70.5 197t70 197t178 75q57 0 101.5 -15.5t70 -41t39.5 -48.5t21 -47z" />
    <glyph glyph-name="d" unicode="d" horiz-adv-x="639" 
d="M410 69q-7 -14 -20.5 -30t-48 -33t-78.5 -17q-94 0 -156 73t-62 197t62 197t156 73q43 0 77.5 -17t47.5 -31.5t20 -27.5v283h161v-736h-159v69zM410 259q0 59 -27 95.5t-74 36.5t-74 -36.5t-27 -95.5t27 -95.5t74 -36.5t74 36.5t27 95.5z" />
    <glyph glyph-name="e" unicode="e" horiz-adv-x="592" 
d="M298 531q118 0 186.5 -73.5t68.5 -198.5v-28h-351q3 -52 31.5 -83.5t75.5 -31.5q60 0 89 49l147 -34q-6 -21 -20 -43t-40.5 -46t-72 -39.5t-103.5 -15.5q-123 0 -194.5 75t-71.5 197t70 197t185 75zM298 414q-39 0 -63.5 -23.5t-30.5 -63.5h187q-7 41 -31 64t-62 23z" />
    <glyph glyph-name="f" unicode="f" horiz-adv-x="457" 
d="M26 385v133h106v70q0 70 41 109t120 39h179v-122h-112q-36 0 -51 -15t-15 -49v-32h137v-133h-137v-385h-162v385h-106z" />
    <glyph glyph-name="g" unicode="g" horiz-adv-x="633" 
d="M404 80q-7 -14 -20 -29.5t-47.5 -35t-76.5 -19.5q-92 0 -153.5 72.5t-61.5 193.5t61 193.5t154 72.5q42 0 76 -19t46 -34t20 -29v72h161v-500q0 -105 -65.5 -167t-193.5 -62q-57 0 -103 13.5t-73.5 35.5t-43.5 41.5t-23 37.5l163 33q23 -35 80 -35q48 0 74 26.5t26 75.5
v63zM404 262q0 58 -26.5 93t-70.5 35q-45 0 -72 -35t-27 -93t27 -93.5t72 -35.5q43 0 70 35.5t27 93.5z" />
    <glyph glyph-name="h" unicode="h" horiz-adv-x="637" 
d="M70 0v736h161v-286q17 30 55.5 54.5t92.5 24.5q87 0 139.5 -58.5t52.5 -154.5v-316h-162v286q0 47 -23.5 74t-64.5 27q-42 0 -66 -27t-24 -74v-286h-161z" />
    <glyph glyph-name="i" unicode="i" horiz-adv-x="303" 
d="M67 585v160h169v-160h-169zM70 0v518h163v-518h-163z" />
    <glyph glyph-name="j" unicode="j" horiz-adv-x="304" 
d="M68 585v160h169v-160h-169zM234 -30q0 -89 -40 -129.5t-122 -40.5h-148v125h78q38 0 53.5 15.5t15.5 51.5v526h163v-548z" />
    <glyph glyph-name="k" unicode="k" horiz-adv-x="609" 
d="M70 0v736h162v-422l171 204h194l-202 -239l223 -279h-203l-183 228v-228h-162z" />
    <glyph glyph-name="l" unicode="l" horiz-adv-x="307" 
d="M72 0v736h163v-736h-163z" />
    <glyph glyph-name="m" unicode="m" horiz-adv-x="967" 
d="M70 0v518h161v-64q16 28 53.5 51.5t91.5 23.5q112 0 161 -91q54 91 169 91q90 0 142.5 -57.5t52.5 -150.5v-321h-162v291q0 44 -22.5 70t-63.5 26t-64 -26t-23 -70v-291h-162v291q0 44 -22.5 70t-63.5 26t-64 -26t-23 -70v-291h-161z" />
    <glyph glyph-name="n" unicode="n" horiz-adv-x="637" 
d="M70 0v518h161v-67q17 30 55.5 54t92.5 24q87 0 139.5 -57.5t52.5 -153.5v-318h-162v288q0 46 -23.5 72.5t-64.5 26.5q-42 0 -66 -26.5t-24 -72.5v-288h-161z" />
    <glyph glyph-name="o" unicode="o" horiz-adv-x="612" 
d="M306 531q117 0 190.5 -74.5t73.5 -197.5q0 -122 -74 -197t-190 -75t-189.5 75t-73.5 197q0 123 73.5 197.5t189.5 74.5zM306 124q49 0 75 37.5t26 97.5q0 59 -26 96.5t-75 37.5q-48 0 -74.5 -37.5t-26.5 -96.5q0 -60 26 -97.5t75 -37.5z" />
    <glyph glyph-name="p" unicode="p" horiz-adv-x="639" 
d="M231 70v-270h-161v718h161v-75q6 13 20 30t50 36.5t80 19.5q94 0 154 -72t60 -198t-60 -198t-154 -72q-44 0 -80 18.5t-49 33.5t-21 29zM229 259q0 -60 27.5 -96t73.5 -36q47 0 74 36t27 96t-27 96t-74 36q-46 0 -73.5 -36t-27.5 -96z" />
    <glyph glyph-name="q" unicode="q" horiz-adv-x="640" 
d="M408 65q-7 -13 -20.5 -28t-47.5 -31.5t-77 -16.5q-94 0 -156 73t-62 197t62 197t156 73q43 0 77.5 -17t47.5 -31.5t20 -27.5v65h162v-718h-162v265zM410 259q0 59 -27 95.5t-74 36.5t-74 -36.5t-27 -95.5t27 -95.5t74 -36.5t74 36.5t27 95.5z" />
    <glyph glyph-name="r" unicode="r" horiz-adv-x="475" 
d="M231 256v-256h-161v518h161v-76q37 77 150 77h65v-160h-95q-63 0 -91.5 -25t-28.5 -78z" />
    <glyph glyph-name="s" unicode="s" horiz-adv-x="561" 
d="M305 193q-8 1 -30.5 3.5t-28.5 2.5q-203 21 -203 168q0 77 61.5 121t164.5 44q106 0 160.5 -35.5t71.5 -79.5l-143 -39q-28 40 -87 40q-69 0 -69 -43q0 -37 57 -41q3 0 24.5 -2t28.5 -3q109 -8 159.5 -49t50.5 -121q0 -79 -62.5 -126t-174.5 -47q-60 0 -107.5 13.5
t-75.5 35t-43 40t-23 38.5l146 40q33 -50 104 -50q35 0 54.5 12.5t19.5 32.5t-12.5 31t-42.5 14z" />
    <glyph glyph-name="t" unicode="t" horiz-adv-x="495" 
d="M132 164v219h-106v135h106v192h162v-192h157v-135h-157v-163q0 -41 16.5 -59t60.5 -18h80v-143h-145q-174 0 -174 164z" />
    <glyph glyph-name="u" unicode="u" horiz-adv-x="628" 
d="M315 -11q-121 0 -185 63t-64 169v297h162v-289q0 -41 22 -65.5t63 -24.5q42 0 64.5 24.5t22.5 65.5v289h161v-297q0 -104 -63.5 -168t-182.5 -64z" />
    <glyph glyph-name="v" unicode="v" horiz-adv-x="573" 
d="M568 518l-191 -521h-168l-204 521h183l108 -308l107 308h165z" />
    <glyph glyph-name="w" unicode="w" horiz-adv-x="845" 
d="M514 -1l-89 313l-89 -313h-156l-171 519h174l86 -304l88 305h152l87 -303l86 302h154l-160 -519h-162z" />
    <glyph glyph-name="x" unicode="x" horiz-adv-x="611" 
d="M187 0h-183l206 256l-204 262h207l101 -133l107 133h184l-202 -250l203 -268h-197l-109 140z" />
    <glyph glyph-name="y" unicode="y" horiz-adv-x="576" 
d="M141 -200l77 202l-213 516h182l111 -300l110 300h163l-267 -718h-163z" />
    <glyph glyph-name="z" unicode="z" horiz-adv-x="579" 
d="M43 0v88l239 299h-235v131h470v-87l-243 -299h277v-132h-508z" />
    <glyph glyph-name="braceleft" unicode="{" horiz-adv-x="397" 
d="M377 1v-125h-134q-87 0 -125 46t-22 136l30 176q9 52 -46 52h-49v126h49q54 0 46 52l-30 175q-16 90 22 136.5t125 46.5h134v-125h-89q-64 0 -55 -57l29 -163q10 -56 -13.5 -87.5t-67.5 -40.5q44 -9 67.5 -40.5t13.5 -87.5l-29 -157q-6 -31 9 -47t46 -16h89z" />
    <glyph glyph-name="bar" unicode="|" horiz-adv-x="330" 
d="M93 -116v938h144v-938h-144z" />
    <glyph glyph-name="braceright" unicode="}" horiz-adv-x="398" 
d="M301 58q16 -90 -22 -136t-125 -46h-134v125h89q31 0 46 16t9 47l-29 157q-10 56 13.5 87.5t67.5 40.5q-44 9 -67.5 40.5t-13.5 87.5l29 163q9 57 -55 57h-89v125h134q87 0 125 -46.5t22 -136.5l-30 -175q-8 -52 46 -52h49v-126h-49q-55 0 -46 -52z" />
    <glyph glyph-name="asciitilde" unicode="~" horiz-adv-x="717" 
d="M434 425q23 -27 33 -31q4 -1 9 -1q24 0 24 35v171h156v-202q0 -85 -40.5 -134.5t-115.5 -49.5q-52 0 -87.5 23.5t-76.5 74.5l-53 70q-14 19 -22 26t-20 7q-24 0 -24 -36v-170h-155v201q-1 85 39.5 134.5t115.5 49.5q52 0 87.5 -23.5t76.5 -74.5z" />
    <glyph glyph-name="uni00A0" unicode="&#xa0;" horiz-adv-x="252" 
 />
    <glyph glyph-name="exclamdown" unicode="&#xa1;" horiz-adv-x="347" 
d="M80 518h187v-176h-187v176zM93 279h161v-471h-161v471z" />
    <glyph glyph-name="cent" unicode="&#xa2;" horiz-adv-x="591" 
d="M241 -122v117q-86 21 -137.5 90.5t-51.5 173.5q0 103 52 173.5t137 91.5v114h140v-115q71 -17 110 -59t51 -86l-146 -45q-26 58 -86 58q-43 0 -69 -36t-26 -96t26 -96.5t70 -36.5q60 0 86 60l145 -45q-9 -38 -49 -82.5t-112 -62.5v-118h-140z" />
    <glyph glyph-name="sterling" unicode="&#xa3;" horiz-adv-x="663" 
d="M54 0v141h93v120h-93v141h93v103q0 101 58 159t170 58q113 0 169.5 -55.5t60.5 -153.5l-155 -17q-3 87 -75 87q-35 0 -54 -21.5t-19 -61.5v-98h181v-141h-181v-120h325v-141h-573z" />
    <glyph glyph-name="yen" unicode="&#xa5;" horiz-adv-x="704" 
d="M96 123v109h175v60h-175v109h163l-241 309h211l134 -184l134 184h189l-228 -309h162v-109h-174v-60h174v-109h-174v-123h-175v123h-175z" />
    <glyph glyph-name="brokenbar" unicode="&#xa6;" horiz-adv-x="330" 
d="M93 406v416h144v-416h-144zM93 -116v429h144v-429h-144z" />
    <glyph glyph-name="section" unicode="&#xa7;" horiz-adv-x="682" 
d="M568 -17v-21q0 -91 -60 -144.5t-166 -53.5q-113 0 -166 51.5t-55 139.5l156 15q2 -72 65 -72q30 0 47 18t17 49v6q0 58 -52 70l-153 34q-82 18 -123 62t-41 120q0 53 32.5 90.5t89.5 50.5q-42 46 -42 135v17q0 92 61 145.5t165 53.5q106 0 162 -51t58 -139l-157 -15
q-2 73 -63 73q-30 0 -47 -18t-17 -49v-8q0 -58 52 -70l150 -34q83 -19 123.5 -62t40.5 -119q0 -53 -30 -90t-87 -51q40 -44 40 -133zM283 328q-38 8 -62 -6.5t-24 -44.5q0 -45 54 -58l146 -33q39 -8 63 7t24 45q0 46 -55 57z" />
    <glyph glyph-name="dieresis" unicode="&#xa8;" 
d="M107 585v158h159v-158h-159zM334 585v158h159v-158h-159z" />
    <glyph glyph-name="copyright" unicode="&#xa9;" horiz-adv-x="850" 
d="M425 -12q-159 0 -264.5 105t-105.5 262q0 156 106 261.5t264 105.5t264 -105.5t106 -261.5t-106 -261.5t-264 -105.5zM425 80q122 0 196 78t74 197t-74 197t-196 78q-121 0 -195 -78t-74 -197t74 -197t195 -78zM357 357q0 -37 20 -62t52 -25q47 0 66 40l106 -37
q-4 -14 -13 -29.5t-28 -37t-53 -35t-78 -13.5q-83 0 -138.5 57.5t-55.5 141.5t55.5 141.5t138.5 57.5q41 0 75 -13.5t53 -33.5t29.5 -36.5t13.5 -28.5l-108 -38q-18 38 -63 38q-33 0 -52.5 -24.5t-19.5 -62.5z" />
    <glyph glyph-name="ordfeminine" unicode="&#xaa;" horiz-adv-x="567" 
d="M349 321q-37 -64 -119 -64q-81 0 -132 62.5t-51 169.5q0 106 51.5 168t132.5 62q35 0 62.5 -13.5t38 -25t15.5 -21.5v51h152v-444h-150v55zM348 489q0 49 -19 76t-54 27t-55 -27.5t-20 -75.5q0 -50 20 -77t55 -27t54 27t19 77z" />
    <glyph glyph-name="guillemotleft" unicode="&#xab;" horiz-adv-x="604" 
d="M156 492h149l-104 -188l104 -191h-150l-100 190zM399 492h149l-106 -188l106 -191h-150l-102 190z" />
    <glyph glyph-name="registered" unicode="&#xae;" horiz-adv-x="609" 
d="M304 206q-113 0 -187.5 74t-74.5 185q0 110 75 185t187 75t187.5 -75t75.5 -185t-75.5 -184.5t-187.5 -74.5zM304 276q84 0 135 53t51 136t-51 136t-135 53t-134.5 -53t-50.5 -136t50.5 -136t134.5 -53zM191 343v254h136q49 0 76 -23t27 -65q0 -53 -41 -73l46 -93h-86
l-37 81h-39v-81h-82zM320 528h-47v-39h47q27 0 27 20q0 19 -27 19z" />
    <glyph glyph-name="macron" unicode="&#xaf;" horiz-adv-x="500" 
d="M414 606h-328v123h328v-123z" />
    <glyph glyph-name="degree" unicode="&#xb0;" horiz-adv-x="527" 
d="M264 332q-84 0 -140 56t-56 139t56 139t140 56q83 0 139 -56t56 -139t-56 -139t-139 -56zM264 437q38 0 62 26t24 64t-24 64t-62 26t-62.5 -26t-24.5 -64q0 -39 24 -64.5t63 -25.5z" />
    <glyph glyph-name="acute" unicode="&#xb4;" 
d="M168 582l101 190h163l-108 -190h-156z" />
    <glyph glyph-name="paragraph" unicode="&#xb6;" horiz-adv-x="716" 
d="M290 0v296h-26q-103 0 -166 56.5t-63 150.5q0 96 63 151.5t166 55.5h366v-710h-119v599h-102v-599h-119z" />
    <glyph glyph-name="periodcentered" unicode="&#xb7;" horiz-adv-x="332" 
d="M73 251v196h187v-196h-187z" />
    <glyph glyph-name="cedilla" unicode="&#xb8;" 
d="M304 -157q0 26 -32 26h-78v131h115v-43q57 -1 88 -32t31 -86q0 -59 -33.5 -92.5t-98.5 -33.5h-124v103h100q32 0 32 27z" />
    <glyph glyph-name="ordmasculine" unicode="&#xba;" horiz-adv-x="578" 
d="M289 722q102 0 166 -63.5t64 -170.5q0 -106 -64.5 -170t-165.5 -64t-165.5 64t-64.5 170q0 107 64 170.5t166 63.5zM289 382q38 0 58.5 29.5t20.5 76.5q0 48 -20.5 77.5t-58.5 29.5t-58.5 -29.5t-20.5 -77.5q0 -47 20.5 -76.5t58.5 -29.5z" />
    <glyph glyph-name="guillemotright" unicode="&#xbb;" horiz-adv-x="604" 
d="M448 113h-149l104 189l-103 190h150l99 -189zM206 113h-149l105 189l-105 190h149l102 -189z" />
    <glyph glyph-name="onequarter" unicode="&#xbc;" horiz-adv-x="1025" 
d="M283 267h-134v307l-113 -59v115l146 82h101v-445zM171 0l463 710h133l-462 -710h-134zM995 106h-85v-106h-130v106h-232v90l201 247h161v-233h85v-104zM673 210h107v135z" />
    <glyph glyph-name="onehalf" unicode="&#xbd;" horiz-adv-x="1015" 
d="M283 267h-134v307l-113 -59v115l146 82h101v-445zM169 0l463 710h133l-462 -710h-134zM981 108v-108h-374v84l175 148q23 20 32.5 34t9.5 31q0 19 -12.5 31t-34.5 12q-26 0 -38 -16t-12 -38l-126 16q6 65 50.5 107t125.5 42q84 0 132.5 -40.5t48.5 -106.5
q0 -47 -24 -80.5t-75 -74.5l-50 -41h172z" />
    <glyph glyph-name="threequarters" unicode="&#xbe;" horiz-adv-x="1123" 
d="M229 365q60 0 60 40q0 35 -45 35h-63v105h54q40 0 40 31q0 38 -52 38q-41 0 -53 -35l-128 28q10 41 53.5 76t127.5 35q90 0 138 -33.5t48 -97.5q0 -32 -17.5 -53t-42.5 -30q75 -24 75 -106q0 -64 -51.5 -101.5t-143.5 -37.5q-48 0 -85.5 12.5t-58.5 32.5t-32 37.5
t-16 33.5l130 28q13 -38 62 -38zM268 0l463 710h133l-462 -710h-134zM1093 106h-85v-106h-130v106h-232v90l201 247h161v-233h85v-104zM771 210h107v135z" />
    <glyph glyph-name="questiondown" unicode="&#xbf;" horiz-adv-x="543" 
d="M369 518v-176h-187v176h187zM196 280h160v-26q0 -44 -14 -69t-61 -72l-41 -40q-41 -41 -41 -77q0 -32 19.5 -49.5t54.5 -17.5q71 0 77 78l157 -24q-6 -85 -66.5 -136t-167.5 -51q-113 0 -175 52.5t-62 146.5q0 59 22.5 97t81.5 93l31 29q25 23 25 59v7z" />
    <glyph glyph-name="Agrave" unicode="&#xc0;" horiz-adv-x="766" 
d="M463 769h-167l-111 162h175zM569 0l-46 123h-290l-46 -123h-169l272 711h185l274 -711h-180zM286 265h184l-92 247z" />
    <glyph glyph-name="Aacute" unicode="&#xc1;" horiz-adv-x="766" 
d="M297 769l103 162h175l-111 -162h-167zM569 0l-46 123h-290l-46 -123h-169l272 711h185l274 -711h-180zM286 265h184l-92 247z" />
    <glyph glyph-name="Acircumflex" unicode="&#xc2;" horiz-adv-x="766" 
d="M439 768l-61 75l-61 -75h-149l133 166h154l130 -166h-146zM569 0l-46 123h-290l-46 -123h-169l272 711h185l274 -711h-180zM286 265h184l-92 247z" />
    <glyph glyph-name="Atilde" unicode="&#xc3;" horiz-adv-x="766" 
d="M383 799l-34 17q-20 10 -28 10q-14 0 -14 -20v-40h-113v87q0 45 23.5 71t66.5 26q33 0 89 -29l33 -17q19 -10 29 -10q14 0 14 20v41h113v-88q0 -44 -23.5 -70t-66.5 -26q-36 0 -89 28zM569 0l-46 123h-290l-46 -123h-169l272 711h185l274 -711h-180zM286 265h184l-92 247
z" />
    <glyph glyph-name="Adieresis" unicode="&#xc4;" horiz-adv-x="766" 
d="M182 769v158h160v-158h-160zM414 769v158h160v-158h-160zM569 0l-46 123h-290l-46 -123h-169l272 711h185l274 -711h-180zM286 265h184l-92 247z" />
    <glyph glyph-name="Aring" unicode="&#xc5;" horiz-adv-x="766" 
d="M378 759q-61 0 -100.5 39t-39.5 98t39.5 98t100.5 39t101 -39t40 -98t-40 -98t-101 -39zM378 839q24 0 39.5 16t15.5 41t-15 40.5t-40 15.5t-40 -15.5t-15 -40.5t15.5 -41t39.5 -16zM569 0l-46 123h-290l-46 -123h-169l272 711h185l274 -711h-180zM286 265h184l-92 247z
" />
    <glyph glyph-name="AE" unicode="&#xc6;" horiz-adv-x="1063" 
d="M-7 0l385 710h612v-140h-339v-128h270v-143h-270v-152h373v-147h-542v147h-227l-78 -147h-184zM330 289h152v285z" />
    <glyph glyph-name="Ccedilla" unicode="&#xc7;" horiz-adv-x="718" 
d="M409 -157q0 26 -32 26h-78v128q-113 26 -179.5 121.5t-66.5 236.5q0 164 90.5 265.5t237.5 101.5q58 0 106.5 -14t79 -34.5t54 -48t34.5 -49.5t17 -43l-156 -54q-43 90 -135 90q-72 0 -112.5 -60t-40.5 -154t40.5 -154t112.5 -60q89 0 137 88l152 -51q-5 -18 -14.5 -37.5
t-30 -46t-47.5 -47.5t-70 -37.5t-94 -20.5v-32q57 -1 88 -32t31 -86q0 -59 -33.5 -92.5t-98.5 -33.5h-124v103h100q32 0 32 27z" />
    <glyph glyph-name="Egrave" unicode="&#xc8;" horiz-adv-x="711" 
d="M469 769h-167l-111 162h175zM86 0v710h552v-140h-382v-128h314v-143h-314v-152h416v-147h-586z" />
    <glyph glyph-name="Eacute" unicode="&#xc9;" horiz-adv-x="711" 
d="M279 769l103 162h175l-111 -162h-167zM86 0v710h552v-140h-382v-128h314v-143h-314v-152h416v-147h-586z" />
    <glyph glyph-name="Ecircumflex" unicode="&#xca;" horiz-adv-x="711" 
d="M426 768l-61 75l-61 -75h-149l133 166h154l130 -166h-146zM86 0v710h552v-140h-382v-128h314v-143h-314v-152h416v-147h-586z" />
    <glyph glyph-name="Edieresis" unicode="&#xcb;" horiz-adv-x="711" 
d="M170 769v158h160v-158h-160zM402 769v158h160v-158h-160zM86 0v710h552v-140h-382v-128h314v-143h-314v-152h416v-147h-586z" />
    <glyph glyph-name="Igrave" unicode="&#xcc;" horiz-adv-x="346" 
d="M257 769h-167l-111 162h175zM88 0v710h170v-710h-170z" />
    <glyph glyph-name="Iacute" unicode="&#xcd;" horiz-adv-x="346" 
d="M90 769l103 162h175l-111 -162h-167zM88 0v710h170v-710h-170z" />
    <glyph glyph-name="Icircumflex" unicode="&#xce;" horiz-adv-x="346" 
d="M233 768l-61 75l-61 -75h-149l133 166h154l130 -166h-146zM88 0v710h170v-710h-170z" />
    <glyph glyph-name="Idieresis" unicode="&#xcf;" horiz-adv-x="346" 
d="M-24 769v158h160v-158h-160zM208 769v158h160v-158h-160zM88 0v710h170v-710h-170z" />
    <glyph glyph-name="Eth" unicode="&#xd0;" horiz-adv-x="794" 
d="M108 0v286h-95v143h95v281h259q173 0 273.5 -91t100.5 -264q0 -170 -101 -262.5t-273 -92.5h-259zM364 564h-86v-135h160v-143h-160v-140h86q97 0 150.5 55t53.5 154q0 102 -53 155.5t-151 53.5z" />
    <glyph glyph-name="Ntilde" unicode="&#xd1;" horiz-adv-x="812" 
d="M421 799l-34 17q-20 10 -28 10q-14 0 -14 -20v-40h-113v87q0 45 23.5 71t66.5 26q33 0 89 -29l33 -17q19 -10 29 -10q14 0 14 20v41h113v-88q0 -44 -23.5 -70t-66.5 -26q-36 0 -89 28zM725 710v-714h-139l-334 477v-473h-166v710h192l285 -418v418h162z" />
    <glyph glyph-name="Ograve" unicode="&#xd2;" horiz-adv-x="783" 
d="M477 769h-167l-111 162h175zM392 -12q-149 0 -244 100t-95 267q0 168 95 267.5t244 99.5q148 0 243 -99.5t95 -267.5q0 -167 -95.5 -267t-242.5 -100zM392 140q78 0 122 60t44 155q0 94 -44.5 154.5t-121.5 60.5t-121.5 -60.5t-44.5 -154.5q0 -95 44 -155t122 -60z" />
    <glyph glyph-name="Oacute" unicode="&#xd3;" horiz-adv-x="783" 
d="M306 769l103 162h175l-111 -162h-167zM392 -12q-149 0 -244 100t-95 267q0 168 95 267.5t244 99.5q148 0 243 -99.5t95 -267.5q0 -167 -95.5 -267t-242.5 -100zM392 140q78 0 122 60t44 155q0 94 -44.5 154.5t-121.5 60.5t-121.5 -60.5t-44.5 -154.5q0 -95 44 -155
t122 -60z" />
    <glyph glyph-name="Ocircumflex" unicode="&#xd4;" horiz-adv-x="783" 
d="M453 768l-61 75l-61 -75h-149l133 166h154l130 -166h-146zM392 -12q-149 0 -244 100t-95 267q0 168 95 267.5t244 99.5q148 0 243 -99.5t95 -267.5q0 -167 -95.5 -267t-242.5 -100zM392 140q78 0 122 60t44 155q0 94 -44.5 154.5t-121.5 60.5t-121.5 -60.5t-44.5 -154.5
q0 -95 44 -155t122 -60z" />
    <glyph glyph-name="Otilde" unicode="&#xd5;" horiz-adv-x="783" 
d="M397 799l-34 17q-20 10 -28 10q-14 0 -14 -20v-40h-113v87q0 45 23.5 71t66.5 26q33 0 89 -29l33 -17q19 -10 29 -10q14 0 14 20v41h113v-88q0 -44 -23.5 -70t-66.5 -26q-36 0 -89 28zM392 -12q-149 0 -244 100t-95 267q0 168 95 267.5t244 99.5q148 0 243 -99.5
t95 -267.5q0 -167 -95.5 -267t-242.5 -100zM392 140q78 0 122 60t44 155q0 94 -44.5 154.5t-121.5 60.5t-121.5 -60.5t-44.5 -154.5q0 -95 44 -155t122 -60z" />
    <glyph glyph-name="Odieresis" unicode="&#xd6;" horiz-adv-x="783" 
d="M196 769v158h160v-158h-160zM428 769v158h160v-158h-160zM392 -12q-149 0 -244 100t-95 267q0 168 95 267.5t244 99.5q148 0 243 -99.5t95 -267.5q0 -167 -95.5 -267t-242.5 -100zM392 140q78 0 122 60t44 155q0 94 -44.5 154.5t-121.5 60.5t-121.5 -60.5t-44.5 -154.5
q0 -95 44 -155t122 -60z" />
    <glyph glyph-name="multiply" unicode="&#xd7;" horiz-adv-x="678" 
d="M73 155l162 164l-162 163l107 106l160 -162l160 162l105 -102l-162 -164l162 -165l-106 -103l-161 162l-160 -162z" />
    <glyph glyph-name="Oslash" unicode="&#xd8;" horiz-adv-x="783" 
d="M26 0l97 122q-70 95 -70 233q0 168 95 267.5t244 99.5q95 0 174 -47l27 35h164l-97 -121q70 -95 70 -234q0 -167 -95.5 -267t-242.5 -100q-95 0 -176 48l-28 -36h-162zM218 355q0 -58 12 -100l241 304q-33 15 -79 15q-81 0 -127.5 -61.5t-46.5 -157.5zM392 136
q81 0 127 61t46 158q0 59 -12 101l-242 -304q33 -16 81 -16z" />
    <glyph glyph-name="Ugrave" unicode="&#xd9;" horiz-adv-x="795" 
d="M493 769h-167l-111 162h175zM544 295v415h169v-426q0 -131 -83 -215t-232 -84q-152 0 -234 83.5t-82 215.5v426h170v-415q0 -71 38 -113t108 -42q69 0 107.5 42.5t38.5 112.5z" />
    <glyph glyph-name="Uacute" unicode="&#xda;" horiz-adv-x="795" 
d="M310 769l103 162h175l-111 -162h-167zM544 295v415h169v-426q0 -131 -83 -215t-232 -84q-152 0 -234 83.5t-82 215.5v426h170v-415q0 -71 38 -113t108 -42q69 0 107.5 42.5t38.5 112.5z" />
    <glyph glyph-name="Ucircumflex" unicode="&#xdb;" horiz-adv-x="795" 
d="M459 768l-61 75l-61 -75h-149l133 166h154l130 -166h-146zM544 295v415h169v-426q0 -131 -83 -215t-232 -84q-152 0 -234 83.5t-82 215.5v426h170v-415q0 -71 38 -113t108 -42q69 0 107.5 42.5t38.5 112.5z" />
    <glyph glyph-name="Udieresis" unicode="&#xdc;" horiz-adv-x="795" 
d="M202 769v158h160v-158h-160zM434 769v158h160v-158h-160zM544 295v415h169v-426q0 -131 -83 -215t-232 -84q-152 0 -234 83.5t-82 215.5v426h170v-415q0 -71 38 -113t108 -42q69 0 107.5 42.5t38.5 112.5z" />
    <glyph glyph-name="Yacute" unicode="&#xdd;" horiz-adv-x="723" 
d="M283 769l103 162h175l-111 -162h-167zM277 289l-275 421h212l159 -250l159 250h189l-265 -425v-285h-179v289z" />
    <glyph glyph-name="Thorn" unicode="&#xde;" horiz-adv-x="746" 
d="M86 0v710h169v-125h196q120 0 185 -57t65 -165q0 -106 -65.5 -164.5t-184.5 -58.5h-196v-140h-169zM435 437h-180v-149h180q45 0 68 20t23 55q0 74 -91 74z" />
    <glyph glyph-name="germandbls" unicode="&#xdf;" horiz-adv-x="629" 
d="M313 748q112 0 175.5 -52.5t63.5 -144.5q0 -57 -28.5 -94.5t-66.5 -50.5q54 -13 94 -61t40 -129q0 -100 -62.5 -158t-176.5 -58h-50v143h27q48 0 73.5 22t25.5 61q0 40 -25.5 62t-73.5 22h-27v142h2q41 0 64 19.5t23 57.5q0 37 -21.5 57.5t-56.5 20.5q-36 0 -57 -25
t-21 -71v-511h-163v514q0 112 62 173t179 61z" />
    <glyph glyph-name="agrave" unicode="&#xe0;" horiz-adv-x="595" 
d="M366 582h-156l-108 190h163zM532 164q0 -39 33 -42v-124h-76q-82 0 -105 62q-49 -72 -152 -72q-87 0 -141.5 49t-54.5 126t51.5 118.5t143.5 41.5h143v5q0 35 -23 57t-64 22q-61 0 -85 -47l-149 36q6 18 19.5 38t39 43.5t70.5 38.5t102 15q123 0 185.5 -56t62.5 -155
v-156zM280 102q40 0 67 22t27 56v41h-109q-31 0 -49.5 -14t-18.5 -40q0 -29 22.5 -47t60.5 -18z" />
    <glyph glyph-name="aacute" unicode="&#xe1;" horiz-adv-x="595" 
d="M209 582l101 190h163l-108 -190h-156zM532 164q0 -39 33 -42v-124h-76q-82 0 -105 62q-49 -72 -152 -72q-87 0 -141.5 49t-54.5 126t51.5 118.5t143.5 41.5h143v5q0 35 -23 57t-64 22q-61 0 -85 -47l-149 36q6 18 19.5 38t39 43.5t70.5 38.5t102 15q123 0 185.5 -56
t62.5 -155v-156zM280 102q40 0 67 22t27 56v41h-109q-31 0 -49.5 -14t-18.5 -40q0 -29 22.5 -47t60.5 -18z" />
    <glyph glyph-name="acircumflex" unicode="&#xe2;" horiz-adv-x="595" 
d="M343 581l-56 93l-57 -93h-141l125 198h146l121 -198h-138zM532 164q0 -39 33 -42v-124h-76q-82 0 -105 62q-49 -72 -152 -72q-87 0 -141.5 49t-54.5 126t51.5 118.5t143.5 41.5h143v5q0 35 -23 57t-64 22q-61 0 -85 -47l-149 36q6 18 19.5 38t39 43.5t70.5 38.5t102 15
q123 0 185.5 -56t62.5 -155v-156zM280 102q40 0 67 22t27 56v41h-109q-31 0 -49.5 -14t-18.5 -40q0 -29 22.5 -47t60.5 -18z" />
    <glyph glyph-name="atilde" unicode="&#xe3;" horiz-adv-x="595" 
d="M221 578h-108v90q0 45 22.5 71t64.5 26q33 0 83 -31l27 -17q16 -11 26 -11q15 0 15 21v43h109v-91q0 -44 -22.5 -70t-64.5 -26q-35 0 -83 30l-28 17q-18 11 -26 11q-15 0 -15 -21v-42zM532 164q0 -39 33 -42v-124h-76q-82 0 -105 62q-49 -72 -152 -72q-87 0 -141.5 49
t-54.5 126t51.5 118.5t143.5 41.5h143v5q0 35 -23 57t-64 22q-61 0 -85 -47l-149 36q6 18 19.5 38t39 43.5t70.5 38.5t102 15q123 0 185.5 -56t62.5 -155v-156zM280 102q40 0 67 22t27 56v41h-109q-31 0 -49.5 -14t-18.5 -40q0 -29 22.5 -47t60.5 -18z" />
    <glyph glyph-name="adieresis" unicode="&#xe4;" horiz-adv-x="595" 
d="M94 585v158h159v-158h-159zM321 585v158h159v-158h-159zM532 164q0 -39 33 -42v-124h-76q-82 0 -105 62q-49 -72 -152 -72q-87 0 -141.5 49t-54.5 126t51.5 118.5t143.5 41.5h143v5q0 35 -23 57t-64 22q-61 0 -85 -47l-149 36q6 18 19.5 38t39 43.5t70.5 38.5t102 15
q123 0 185.5 -56t62.5 -155v-156zM280 102q40 0 67 22t27 56v41h-109q-31 0 -49.5 -14t-18.5 -40q0 -29 22.5 -47t60.5 -18z" />
    <glyph glyph-name="aring" unicode="&#xe5;" horiz-adv-x="595" 
d="M286 572q-60 0 -99.5 39t-39.5 97q0 59 39 98t100 39t100.5 -39t39.5 -98q0 -58 -40 -97t-100 -39zM286 652q24 0 39.5 16t15.5 40q0 25 -15.5 40.5t-39.5 15.5t-39.5 -15.5t-15.5 -40.5q0 -24 15.5 -40t39.5 -16zM532 164q0 -39 33 -42v-124h-76q-82 0 -105 62
q-49 -72 -152 -72q-87 0 -141.5 49t-54.5 126t51.5 118.5t143.5 41.5h143v5q0 35 -23 57t-64 22q-61 0 -85 -47l-149 36q6 18 19.5 38t39 43.5t70.5 38.5t102 15q123 0 185.5 -56t62.5 -155v-156zM280 102q40 0 67 22t27 56v41h-109q-31 0 -49.5 -14t-18.5 -40
q0 -29 22.5 -47t60.5 -18z" />
    <glyph glyph-name="ae" unicode="&#xe6;" horiz-adv-x="915" 
d="M633 116q59 0 88 49l147 -34q-6 -21 -20 -43t-40.5 -46t-72 -39.5t-102.5 -15.5q-68 0 -122.5 26t-86.5 70q-53 -95 -184 -95q-93 0 -148.5 48.5t-55.5 126.5q0 77 52 119t144 42h138v4q0 35 -22 57t-62 22q-55 0 -84 -46l-149 37q7 19 20.5 38t39 42.5t70 38t100.5 14.5
q122 0 177 -70q54 70 163 70q116 0 184.5 -73.5t68.5 -198.5v-33h-346q4 -50 31.5 -80t71.5 -30zM623 414q-39 0 -63 -24t-29 -66h184q-6 42 -30 66t-62 24zM278 102q40 0 66 22.5t26 58.5v39h-103q-32 0 -51 -14.5t-19 -40.5q0 -29 22.5 -47t58.5 -18z" />
    <glyph glyph-name="ccedilla" unicode="&#xe7;" horiz-adv-x="564" 
d="M317 -157q0 26 -31 26h-78v132q-75 25 -120 93.5t-45 164.5q0 122 70 197t178 75q57 0 101.5 -15.5t70 -41t39.5 -48.5t21 -47l-146 -43q-26 55 -81 55q-41 0 -65.5 -36.5t-24.5 -95.5t24.5 -96t66.5 -37q53 0 81 57l145 -43q-4 -18 -16 -39t-34 -46t-61.5 -43.5
t-88.5 -23.5v-31q57 -1 87.5 -32t30.5 -86q0 -59 -33 -92.5t-98 -33.5h-124v103h100q31 0 31 27z" />
    <glyph glyph-name="egrave" unicode="&#xe8;" horiz-adv-x="592" 
d="M376 582h-156l-108 190h163zM298 531q118 0 186.5 -73.5t68.5 -198.5v-28h-351q3 -52 31.5 -83.5t75.5 -31.5q60 0 89 49l147 -34q-6 -21 -20 -43t-40.5 -46t-72 -39.5t-103.5 -15.5q-123 0 -194.5 75t-71.5 197t70 197t185 75zM298 414q-39 0 -63.5 -23.5t-30.5 -63.5
h187q-7 41 -31 64t-62 23z" />
    <glyph glyph-name="eacute" unicode="&#xe9;" horiz-adv-x="592" 
d="M221 582l101 190h163l-108 -190h-156zM298 531q118 0 186.5 -73.5t68.5 -198.5v-28h-351q3 -52 31.5 -83.5t75.5 -31.5q60 0 89 49l147 -34q-6 -21 -20 -43t-40.5 -46t-72 -39.5t-103.5 -15.5q-123 0 -194.5 75t-71.5 197t70 197t185 75zM298 414q-39 0 -63.5 -23.5
t-30.5 -63.5h187q-7 41 -31 64t-62 23z" />
    <glyph glyph-name="ecircumflex" unicode="&#xea;" horiz-adv-x="592" 
d="M354 581l-56 93l-57 -93h-141l125 198h146l121 -198h-138zM298 531q118 0 186.5 -73.5t68.5 -198.5v-28h-351q3 -52 31.5 -83.5t75.5 -31.5q60 0 89 49l147 -34q-6 -21 -20 -43t-40.5 -46t-72 -39.5t-103.5 -15.5q-123 0 -194.5 75t-71.5 197t70 197t185 75zM298 414
q-39 0 -63.5 -23.5t-30.5 -63.5h187q-7 41 -31 64t-62 23z" />
    <glyph glyph-name="edieresis" unicode="&#xeb;" horiz-adv-x="592" 
d="M105 585v158h159v-158h-159zM332 585v158h159v-158h-159zM298 531q118 0 186.5 -73.5t68.5 -198.5v-28h-351q3 -52 31.5 -83.5t75.5 -31.5q60 0 89 49l147 -34q-6 -21 -20 -43t-40.5 -46t-72 -39.5t-103.5 -15.5q-123 0 -194.5 75t-71.5 197t70 197t185 75zM298 414
q-39 0 -63.5 -23.5t-30.5 -63.5h187q-7 41 -31 64t-62 23z" />
    <glyph glyph-name="igrave" unicode="&#xec;" horiz-adv-x="303" 
d="M229 582h-156l-108 190h163zM70 0v518h163v-518h-163z" />
    <glyph glyph-name="iacute" unicode="&#xed;" horiz-adv-x="303" 
d="M74 582l101 190h163l-108 -190h-156zM70 0v518h163v-518h-163z" />
    <glyph glyph-name="icircumflex" unicode="&#xee;" horiz-adv-x="303" 
d="M206 581l-54 93l-55 -93h-141l121 198h149l118 -198h-138zM70 0v518h163v-518h-163z" />
    <glyph glyph-name="idieresis" unicode="&#xef;" horiz-adv-x="303" 
d="M-34 585v158h152v-158h-152zM185 585v158h152v-158h-152zM70 0v518h163v-518h-163z" />
    <glyph glyph-name="eth" unicode="&#xf0;" horiz-adv-x="612" 
d="M240 504q51 0 87 -25l-71 89l-143 -49l-32 88l113 39l-71 90h177l34 -43l119 41l32 -88l-90 -31l65 -83q57 -73 83.5 -134t26.5 -139q0 -121 -73 -196.5t-192 -75.5q-117 0 -189.5 76t-72.5 196q0 107 54 176t143 69zM306 124q49 0 75 37.5t26 97.5t-26 97t-75 37
q-48 0 -74.5 -37t-26.5 -97t26 -97.5t75 -37.5z" />
    <glyph glyph-name="ntilde" unicode="&#xf1;" horiz-adv-x="637" 
d="M252 578h-108v90q0 45 22.5 71t64.5 26q33 0 83 -31l27 -17q16 -11 26 -11q15 0 15 21v43h109v-91q0 -44 -22.5 -70t-64.5 -26q-35 0 -83 30l-28 17q-18 11 -26 11q-15 0 -15 -21v-42zM70 0v518h161v-67q17 30 55.5 54t92.5 24q87 0 139.5 -57.5t52.5 -153.5v-318h-162
v288q0 46 -23.5 72.5t-64.5 26.5q-42 0 -66 -26.5t-24 -72.5v-288h-161z" />
    <glyph glyph-name="ograve" unicode="&#xf2;" horiz-adv-x="612" 
d="M384 582h-156l-108 190h163zM306 531q117 0 190.5 -74.5t73.5 -197.5q0 -122 -74 -197t-190 -75t-189.5 75t-73.5 197q0 123 73.5 197.5t189.5 74.5zM306 124q49 0 75 37.5t26 97.5q0 59 -26 96.5t-75 37.5q-48 0 -74.5 -37.5t-26.5 -96.5q0 -60 26 -97.5t75 -37.5z" />
    <glyph glyph-name="oacute" unicode="&#xf3;" horiz-adv-x="612" 
d="M228 582l101 190h163l-108 -190h-156zM306 531q117 0 190.5 -74.5t73.5 -197.5q0 -122 -74 -197t-190 -75t-189.5 75t-73.5 197q0 123 73.5 197.5t189.5 74.5zM306 124q49 0 75 37.5t26 97.5q0 59 -26 96.5t-75 37.5q-48 0 -74.5 -37.5t-26.5 -96.5q0 -60 26 -97.5
t75 -37.5z" />
    <glyph glyph-name="ocircumflex" unicode="&#xf4;" horiz-adv-x="612" 
d="M362 581l-56 93l-57 -93h-141l125 198h146l121 -198h-138zM306 531q117 0 190.5 -74.5t73.5 -197.5q0 -122 -74 -197t-190 -75t-189.5 75t-73.5 197q0 123 73.5 197.5t189.5 74.5zM306 124q49 0 75 37.5t26 97.5q0 59 -26 96.5t-75 37.5q-48 0 -74.5 -37.5t-26.5 -96.5
q0 -60 26 -97.5t75 -37.5z" />
    <glyph glyph-name="otilde" unicode="&#xf5;" horiz-adv-x="612" 
d="M241 578h-108v90q0 45 22.5 71t64.5 26q33 0 83 -31l27 -17q16 -11 26 -11q15 0 15 21v43h109v-91q0 -44 -22.5 -70t-64.5 -26q-35 0 -83 30l-28 17q-18 11 -26 11q-15 0 -15 -21v-42zM306 531q117 0 190.5 -74.5t73.5 -197.5q0 -122 -74 -197t-190 -75t-189.5 75
t-73.5 197q0 123 73.5 197.5t189.5 74.5zM306 124q49 0 75 37.5t26 97.5q0 59 -26 96.5t-75 37.5q-48 0 -74.5 -37.5t-26.5 -96.5q0 -60 26 -97.5t75 -37.5z" />
    <glyph glyph-name="odieresis" unicode="&#xf6;" horiz-adv-x="612" 
d="M113 585v158h159v-158h-159zM340 585v158h159v-158h-159zM306 531q117 0 190.5 -74.5t73.5 -197.5q0 -122 -74 -197t-190 -75t-189.5 75t-73.5 197q0 123 73.5 197.5t189.5 74.5zM306 124q49 0 75 37.5t26 97.5q0 59 -26 96.5t-75 37.5q-48 0 -74.5 -37.5t-26.5 -96.5
q0 -60 26 -97.5t75 -37.5z" />
    <glyph glyph-name="divide" unicode="&#xf7;" horiz-adv-x="711" 
d="M265 468v174h179v-174h-179zM632 257h-556v144h556v-144zM265 10v174h179v-174h-179z" />
    <glyph glyph-name="oslash" unicode="&#xf8;" horiz-adv-x="612" 
d="M23 0l75 88q-55 71 -55 171q0 121 74 196.5t190 75.5q73 0 137 -38l20 25h126l-75 -88q55 -71 55 -171q0 -120 -74 -196t-189 -76q-76 0 -139 39l-21 -26h-124zM191 259q0 -28 5 -55l159 190q-24 7 -48 7q-54 0 -85 -41t-31 -101zM422 259q0 28 -5 55l-160 -190
q22 -8 50 -8q54 0 84.5 41t30.5 102z" />
    <glyph glyph-name="ugrave" unicode="&#xf9;" horiz-adv-x="628" 
d="M391 582h-156l-108 190h163zM315 -11q-121 0 -185 63t-64 169v297h162v-289q0 -41 22 -65.5t63 -24.5q42 0 64.5 24.5t22.5 65.5v289h161v-297q0 -104 -63.5 -168t-182.5 -64z" />
    <glyph glyph-name="uacute" unicode="&#xfa;" horiz-adv-x="628" 
d="M233 582l101 190h163l-108 -190h-156zM315 -11q-121 0 -185 63t-64 169v297h162v-289q0 -41 22 -65.5t63 -24.5q42 0 64.5 24.5t22.5 65.5v289h161v-297q0 -104 -63.5 -168t-182.5 -64z" />
    <glyph glyph-name="ucircumflex" unicode="&#xfb;" horiz-adv-x="628" 
d="M369 581l-56 93l-57 -93h-141l125 198h146l121 -198h-138zM315 -11q-121 0 -185 63t-64 169v297h162v-289q0 -41 22 -65.5t63 -24.5q42 0 64.5 24.5t22.5 65.5v289h161v-297q0 -104 -63.5 -168t-182.5 -64z" />
    <glyph glyph-name="udieresis" unicode="&#xfc;" horiz-adv-x="628" 
d="M120 585v158h159v-158h-159zM347 585v158h159v-158h-159zM315 -11q-121 0 -185 63t-64 169v297h162v-289q0 -41 22 -65.5t63 -24.5q42 0 64.5 24.5t22.5 65.5v289h161v-297q0 -104 -63.5 -168t-182.5 -64z" />
    <glyph glyph-name="yacute" unicode="&#xfd;" horiz-adv-x="576" 
d="M216 582l101 190h163l-108 -190h-156zM141 -200l77 202l-213 516h182l111 -300l110 300h163l-267 -718h-163z" />
    <glyph glyph-name="thorn" unicode="&#xfe;" horiz-adv-x="639" 
d="M229 73v-273h-159v936h161v-293q6 13 20 30t50 36.5t80 19.5q94 0 154 -72t60 -198t-60 -198t-154 -72q-45 0 -81.5 19t-49.5 34.5t-21 30.5zM229 259q0 -60 27 -96t74 -36q46 0 73.5 36t27.5 96t-27.5 96t-73.5 36q-47 0 -74 -36t-27 -96z" />
    <glyph glyph-name="ydieresis" unicode="&#xff;" horiz-adv-x="576" 
d="M105 585v158h159v-158h-159zM332 585v158h159v-158h-159zM141 -200l77 202l-213 516h182l111 -300l110 300h163l-267 -718h-163z" />
    <glyph glyph-name="Amacron" unicode="&#x100;" horiz-adv-x="766" 
d="M554 789h-352v122h352v-122zM569 0l-46 123h-290l-46 -123h-169l272 711h185l274 -711h-180zM286 265h184l-92 247z" />
    <glyph glyph-name="amacron" unicode="&#x101;" horiz-adv-x="595" 
d="M451 606h-328v123h328v-123zM532 164q0 -39 33 -42v-124h-76q-82 0 -105 62q-49 -72 -152 -72q-87 0 -141.5 49t-54.5 126t51.5 118.5t143.5 41.5h143v5q0 35 -23 57t-64 22q-61 0 -85 -47l-149 36q6 18 19.5 38t39 43.5t70.5 38.5t102 15q123 0 185.5 -56t62.5 -155
v-156zM280 102q40 0 67 22t27 56v41h-109q-31 0 -49.5 -14t-18.5 -40q0 -29 22.5 -47t60.5 -18z" />
    <glyph glyph-name="Abreve" unicode="&#x102;" horiz-adv-x="766" 
d="M378 873q25 0 37.5 15t12.5 36v10h123v-13q0 -70 -44 -114.5t-129 -44.5t-129 44.5t-44 114.5v13h123v-10q0 -22 12.5 -36.5t37.5 -14.5zM569 0l-46 123h-290l-46 -123h-169l272 711h185l274 -711h-180zM286 265h184l-92 247z" />
    <glyph glyph-name="abreve" unicode="&#x103;" horiz-adv-x="595" 
d="M287 687q23 0 34.5 14.5t11.5 36.5v16h122v-19q0 -70 -42.5 -114.5t-125.5 -44.5t-125.5 44.5t-42.5 114.5v19h122v-16q0 -51 46 -51zM532 164q0 -39 33 -42v-124h-76q-82 0 -105 62q-49 -72 -152 -72q-87 0 -141.5 49t-54.5 126t51.5 118.5t143.5 41.5h143v5
q0 35 -23 57t-64 22q-61 0 -85 -47l-149 36q6 18 19.5 38t39 43.5t70.5 38.5t102 15q123 0 185.5 -56t62.5 -155v-156zM280 102q40 0 67 22t27 56v41h-109q-31 0 -49.5 -14t-18.5 -40q0 -29 22.5 -47t60.5 -18z" />
    <glyph glyph-name="Aogonek" unicode="&#x104;" horiz-adv-x="766" 
d="M504 -111q0 23 11 45t22.5 34.5t31.5 31.5l-46 123h-290l-46 -123h-169l272 711h185l274 -711h-1q-4 -3 -12 -9.5t-11.5 -9.5t-10 -8t-9.5 -8l-7.5 -7.5t-6.5 -7.5t-4.5 -6.5t-3.5 -6.5t-1 -6q0 -22 28 -22h59v-109h-143q-56 0 -89 23t-33 66zM286 265h184l-92 247z" />
    <glyph glyph-name="aogonek" unicode="&#x105;" horiz-adv-x="597" 
d="M324 -111q0 37 29.5 65t83.5 55q-37 15 -51 51q-47 -72 -151 -72q-88 0 -142.5 49t-54.5 126q0 76 52 118t144 42h142v5q0 35 -23 57t-64 22q-58 0 -85 -47l-149 38q7 19 20.5 38t39.5 42.5t70.5 38t100.5 14.5q122 0 185.5 -56.5t63.5 -154.5v-156q0 -39 33 -42v-122
l-15 -12.5t-14 -11.5t-12 -10t-10.5 -10t-7.5 -8.5t-5.5 -8.5t-1.5 -8q0 -22 28 -22h59v-109h-143q-56 0 -89 23t-33 66zM283 102q40 0 66.5 22t26.5 56v41h-108q-31 0 -50 -14t-19 -40q0 -29 22.5 -47t61.5 -18z" />
    <glyph glyph-name="Cacute" unicode="&#x106;" horiz-adv-x="717" 
d="M299 769l103 162h175l-111 -162h-167zM381 -12q-147 0 -237.5 100.5t-90.5 266.5q0 164 90.5 265.5t237.5 101.5q58 0 106.5 -14t79 -34.5t54 -48t34.5 -49.5t17 -43l-156 -54q-43 90 -135 90q-72 0 -112.5 -60t-40.5 -154t40.5 -154t112.5 -60q89 0 137 88l152 -51
q-6 -19 -16 -40t-33 -49t-53.5 -49.5t-79.5 -36.5t-107 -15z" />
    <glyph glyph-name="cacute" unicode="&#x107;" horiz-adv-x="559" 
d="M213 582l101 190h163l-108 -190h-156zM377 336q-26 55 -81 55q-41 0 -65.5 -36.5t-24.5 -95.5t24.5 -96t66.5 -37q53 0 81 57l145 -43q-5 -19 -18 -41.5t-38.5 -49.5t-71 -44.5t-102.5 -17.5q-109 0 -179.5 75t-70.5 197t70 197t178 75q57 0 101.5 -15.5t70 -41
t39.5 -48.5t21 -47z" />
    <glyph glyph-name="Ccircumflex" unicode="&#x108;" horiz-adv-x="717" 
d="M442 768l-61 75l-61 -75h-149l133 166h154l130 -166h-146zM381 -12q-147 0 -237.5 100.5t-90.5 266.5q0 164 90.5 265.5t237.5 101.5q58 0 106.5 -14t79 -34.5t54 -48t34.5 -49.5t17 -43l-156 -54q-43 90 -135 90q-72 0 -112.5 -60t-40.5 -154t40.5 -154t112.5 -60
q89 0 137 88l152 -51q-6 -19 -16 -40t-33 -49t-53.5 -49.5t-79.5 -36.5t-107 -15z" />
    <glyph glyph-name="ccircumflex" unicode="&#x109;" horiz-adv-x="559" 
d="M347 581l-56 93l-57 -93h-141l125 198h146l121 -198h-138zM377 336q-26 55 -81 55q-41 0 -65.5 -36.5t-24.5 -95.5t24.5 -96t66.5 -37q53 0 81 57l145 -43q-5 -19 -18 -41.5t-38.5 -49.5t-71 -44.5t-102.5 -17.5q-109 0 -179.5 75t-70.5 197t70 197t178 75
q57 0 101.5 -15.5t70 -41t39.5 -48.5t21 -47z" />
    <glyph glyph-name="Cdotaccent" unicode="&#x10a;" horiz-adv-x="717" 
d="M296 769v159h170v-159h-170zM381 -12q-147 0 -237.5 100.5t-90.5 266.5q0 164 90.5 265.5t237.5 101.5q58 0 106.5 -14t79 -34.5t54 -48t34.5 -49.5t17 -43l-156 -54q-43 90 -135 90q-72 0 -112.5 -60t-40.5 -154t40.5 -154t112.5 -60q89 0 137 88l152 -51
q-6 -19 -16 -40t-33 -49t-53.5 -49.5t-79.5 -36.5t-107 -15z" />
    <glyph glyph-name="cdotaccent" unicode="&#x10b;" horiz-adv-x="559" 
d="M206 585v160h170v-160h-170zM377 336q-26 55 -81 55q-41 0 -65.5 -36.5t-24.5 -95.5t24.5 -96t66.5 -37q53 0 81 57l145 -43q-5 -19 -18 -41.5t-38.5 -49.5t-71 -44.5t-102.5 -17.5q-109 0 -179.5 75t-70.5 197t70 197t178 75q57 0 101.5 -15.5t70 -41t39.5 -48.5t21 -47
z" />
    <glyph glyph-name="Ccaron" unicode="&#x10c;" horiz-adv-x="717" 
d="M169 934h148l64 -77l64 77h149l-136 -166h-154zM381 -12q-147 0 -237.5 100.5t-90.5 266.5q0 164 90.5 265.5t237.5 101.5q58 0 106.5 -14t79 -34.5t54 -48t34.5 -49.5t17 -43l-156 -54q-43 90 -135 90q-72 0 -112.5 -60t-40.5 -154t40.5 -154t112.5 -60q89 0 137 88
l152 -51q-6 -19 -16 -40t-33 -49t-53.5 -49.5t-79.5 -36.5t-107 -15z" />
    <glyph glyph-name="ccaron" unicode="&#x10d;" horiz-adv-x="559" 
d="M347 780h138l-121 -198h-146l-125 198h141l57 -93zM377 336q-26 55 -81 55q-41 0 -65.5 -36.5t-24.5 -95.5t24.5 -96t66.5 -37q53 0 81 57l145 -43q-5 -19 -18 -41.5t-38.5 -49.5t-71 -44.5t-102.5 -17.5q-109 0 -179.5 75t-70.5 197t70 197t178 75q57 0 101.5 -15.5
t70 -41t39.5 -48.5t21 -47z" />
    <glyph glyph-name="Dcaron" unicode="&#x10e;" horiz-adv-x="772" 
d="M149 934h148l64 -77l64 77h149l-136 -166h-154zM86 0v710h259q173 0 273.5 -91t100.5 -264q0 -170 -101 -262.5t-273 -92.5h-259zM342 564h-86v-418h86q97 0 150.5 55t53.5 154q0 102 -53 155.5t-151 53.5z" />
    <glyph glyph-name="dcaron" unicode="&#x10f;" horiz-adv-x="639" 
d="M611 582l50 193h142l-58 -193h-134zM410 69q-7 -14 -20.5 -30t-48 -33t-78.5 -17q-94 0 -156 73t-62 197t62 197t156 73q43 0 77.5 -17t47.5 -31.5t20 -27.5v283h161v-736h-159v69zM410 259q0 59 -27 95.5t-74 36.5t-74 -36.5t-27 -95.5t27 -95.5t74 -36.5t74 36.5
t27 95.5z" />
    <glyph glyph-name="Dcroat" unicode="&#x110;" horiz-adv-x="794" 
d="M108 0v286h-95v143h95v281h259q173 0 273.5 -91t100.5 -264q0 -170 -101 -262.5t-273 -92.5h-259zM364 564h-86v-135h160v-143h-160v-140h86q97 0 150.5 55t53.5 154q0 102 -53 155.5t-151 53.5z" />
    <glyph glyph-name="dcroat" unicode="&#x111;" horiz-adv-x="639" 
d="M410 69q-7 -14 -20.5 -30t-48 -33t-78.5 -17q-94 0 -156 73t-62 197t62 197t156 73q43 0 77.5 -17t47.5 -31.5t20 -27.5v117h-161v106h161v60h161v-60h70v-106h-70v-570h-159v69zM410 259q0 59 -27 95.5t-74 36.5t-74 -36.5t-27 -95.5t27 -95.5t74 -36.5t74 36.5t27 95.5
z" />
    <glyph glyph-name="Emacron" unicode="&#x112;" horiz-adv-x="711" 
d="M541 789h-352v122h352v-122zM86 0v710h552v-140h-382v-128h314v-143h-314v-152h416v-147h-586z" />
    <glyph glyph-name="emacron" unicode="&#x113;" horiz-adv-x="592" 
d="M463 606h-328v123h328v-123zM298 531q118 0 186.5 -73.5t68.5 -198.5v-28h-351q3 -52 31.5 -83.5t75.5 -31.5q60 0 89 49l147 -34q-6 -21 -20 -43t-40.5 -46t-72 -39.5t-103.5 -15.5q-123 0 -194.5 75t-71.5 197t70 197t185 75zM298 414q-39 0 -63.5 -23.5t-30.5 -63.5
h187q-7 41 -31 64t-62 23z" />
    <glyph glyph-name="Ebreve" unicode="&#x114;" horiz-adv-x="711" 
d="M365 873q25 0 37.5 15t12.5 36v10h123v-13q0 -70 -44 -114.5t-129 -44.5t-129 44.5t-44 114.5v13h123v-10q0 -22 12.5 -36.5t37.5 -14.5zM86 0v710h552v-140h-382v-128h314v-143h-314v-152h416v-147h-586z" />
    <glyph glyph-name="ebreve" unicode="&#x115;" horiz-adv-x="592" 
d="M298 687q23 0 34.5 14.5t11.5 36.5v16h122v-19q0 -70 -42.5 -114.5t-125.5 -44.5t-125.5 44.5t-42.5 114.5v19h122v-16q0 -51 46 -51zM298 531q118 0 186.5 -73.5t68.5 -198.5v-28h-351q3 -52 31.5 -83.5t75.5 -31.5q60 0 89 49l147 -34q-6 -21 -20 -43t-40.5 -46
t-72 -39.5t-103.5 -15.5q-123 0 -194.5 75t-71.5 197t70 197t185 75zM298 414q-39 0 -63.5 -23.5t-30.5 -63.5h187q-7 41 -31 64t-62 23z" />
    <glyph glyph-name="Edotaccent" unicode="&#x116;" horiz-adv-x="711" 
d="M281 769v159h170v-159h-170zM86 0v710h552v-140h-382v-128h314v-143h-314v-152h416v-147h-586z" />
    <glyph glyph-name="edotaccent" unicode="&#x117;" horiz-adv-x="592" 
d="M213 585v160h170v-160h-170zM298 531q118 0 186.5 -73.5t68.5 -198.5v-28h-351q3 -52 31.5 -83.5t75.5 -31.5q60 0 89 49l147 -34q-6 -21 -20 -43t-40.5 -46t-72 -39.5t-103.5 -15.5q-123 0 -194.5 75t-71.5 197t70 197t185 75zM298 414q-39 0 -63.5 -23.5t-30.5 -63.5
h187q-7 41 -31 64t-62 23z" />
    <glyph glyph-name="Eogonek" unicode="&#x118;" horiz-adv-x="711" 
d="M86 0v710h552v-140h-382v-128h314v-143h-314v-152h416v-147h-99l-15 -12.5t-14 -11.5t-12 -10t-10.5 -10t-7.5 -8.5t-5.5 -8.5t-1.5 -8q0 -22 28 -22h59v-109h-143q-56 0 -89 23t-33 66q0 22 13.5 44t27.5 34.5t40 32.5h-324z" />
    <glyph glyph-name="eogonek" unicode="&#x119;" horiz-adv-x="592" 
d="M545 131q-13 -49 -77 -112l-7 -7q-38 -38 -50 -52.5t-12 -27.5q0 -23 29 -23h59v-109h-140q-56 0 -88.5 21.5t-32.5 62.5q0 57 92 103h-9q-123 0 -194.5 75t-71.5 197t70 197t185 75q118 0 186.5 -73.5t68.5 -198.5v-28h-351q3 -52 31.5 -83.5t75.5 -31.5q60 0 89 49z
M298 414q-39 0 -63.5 -23.5t-30.5 -63.5h187q-7 41 -31 64t-62 23z" />
    <glyph glyph-name="Ecaron" unicode="&#x11a;" horiz-adv-x="711" 
d="M153 934h148l64 -77l64 77h149l-136 -166h-154zM86 0v710h552v-140h-382v-128h314v-143h-314v-152h416v-147h-586z" />
    <glyph glyph-name="ecaron" unicode="&#x11b;" horiz-adv-x="592" 
d="M354 780h138l-121 -198h-146l-125 198h141l57 -93zM298 531q118 0 186.5 -73.5t68.5 -198.5v-28h-351q3 -52 31.5 -83.5t75.5 -31.5q60 0 89 49l147 -34q-6 -21 -20 -43t-40.5 -46t-72 -39.5t-103.5 -15.5q-123 0 -194.5 75t-71.5 197t70 197t185 75zM298 414
q-39 0 -63.5 -23.5t-30.5 -63.5h187q-7 41 -31 64t-62 23z" />
    <glyph glyph-name="Gcircumflex" unicode="&#x11c;" horiz-adv-x="777" 
d="M458 768l-61 75l-61 -75h-149l133 166h154l130 -166h-146zM706 72q-37 -32 -109.5 -58.5t-173.5 -26.5q-169 0 -269.5 101t-100.5 271q0 162 96 264t250 102q58 0 106.5 -12.5t79 -29.5t54 -40t34 -40.5t16.5 -33.5l-155 -55q-50 66 -134 66q-79 0 -126 -60.5t-47 -160.5
q0 -105 51.5 -167t144.5 -62q77 0 120 24v128h-134v136h297v-346z" />
    <glyph glyph-name="gcircumflex" unicode="&#x11d;" horiz-adv-x="633" 
d="M361 581l-56 93l-57 -93h-141l125 198h146l121 -198h-138zM404 80q-7 -14 -20 -29.5t-47.5 -35t-76.5 -19.5q-92 0 -153.5 72.5t-61.5 193.5t61 193.5t154 72.5q42 0 76 -19t46 -34t20 -29v72h161v-500q0 -105 -65.5 -167t-193.5 -62q-57 0 -103 13.5t-73.5 35.5
t-43.5 41.5t-23 37.5l163 33q23 -35 80 -35q48 0 74 26.5t26 75.5v63zM404 262q0 58 -26.5 93t-70.5 35q-45 0 -72 -35t-27 -93t27 -93.5t72 -35.5q43 0 70 35.5t27 93.5z" />
    <glyph glyph-name="Gbreve" unicode="&#x11e;" horiz-adv-x="777" 
d="M397 873q25 0 37.5 15t12.5 36v10h123v-13q0 -70 -44 -114.5t-129 -44.5t-129 44.5t-44 114.5v13h123v-10q0 -22 12.5 -36.5t37.5 -14.5zM706 72q-37 -32 -109.5 -58.5t-173.5 -26.5q-169 0 -269.5 101t-100.5 271q0 162 96 264t250 102q58 0 106.5 -12.5t79 -29.5
t54 -40t34 -40.5t16.5 -33.5l-155 -55q-50 66 -134 66q-79 0 -126 -60.5t-47 -160.5q0 -105 51.5 -167t144.5 -62q77 0 120 24v128h-134v136h297v-346z" />
    <glyph glyph-name="gbreve" unicode="&#x11f;" horiz-adv-x="633" 
d="M305 687q23 0 34.5 14.5t11.5 36.5v16h122v-19q0 -70 -42.5 -114.5t-125.5 -44.5t-125.5 44.5t-42.5 114.5v19h122v-16q0 -51 46 -51zM404 80q-7 -14 -20 -29.5t-47.5 -35t-76.5 -19.5q-92 0 -153.5 72.5t-61.5 193.5t61 193.5t154 72.5q42 0 76 -19t46 -34t20 -29v72
h161v-500q0 -105 -65.5 -167t-193.5 -62q-57 0 -103 13.5t-73.5 35.5t-43.5 41.5t-23 37.5l163 33q23 -35 80 -35q48 0 74 26.5t26 75.5v63zM404 262q0 58 -26.5 93t-70.5 35q-45 0 -72 -35t-27 -93t27 -93.5t72 -35.5q43 0 70 35.5t27 93.5z" />
    <glyph glyph-name="Gdotaccent" unicode="&#x120;" horiz-adv-x="777" 
d="M312 769v159h170v-159h-170zM706 72q-37 -32 -109.5 -58.5t-173.5 -26.5q-169 0 -269.5 101t-100.5 271q0 162 96 264t250 102q58 0 106.5 -12.5t79 -29.5t54 -40t34 -40.5t16.5 -33.5l-155 -55q-50 66 -134 66q-79 0 -126 -60.5t-47 -160.5q0 -105 51.5 -167t144.5 -62
q77 0 120 24v128h-134v136h297v-346z" />
    <glyph glyph-name="gdotaccent" unicode="&#x121;" horiz-adv-x="633" 
d="M220 585v160h170v-160h-170zM404 80q-7 -14 -20 -29.5t-47.5 -35t-76.5 -19.5q-92 0 -153.5 72.5t-61.5 193.5t61 193.5t154 72.5q42 0 76 -19t46 -34t20 -29v72h161v-500q0 -105 -65.5 -167t-193.5 -62q-57 0 -103 13.5t-73.5 35.5t-43.5 41.5t-23 37.5l163 33
q23 -35 80 -35q48 0 74 26.5t26 75.5v63zM404 262q0 58 -26.5 93t-70.5 35q-45 0 -72 -35t-27 -93t27 -93.5t72 -35.5q43 0 70 35.5t27 93.5z" />
    <glyph glyph-name="Gcommaaccent" unicode="&#x122;" horiz-adv-x="777" 
d="M706 72q-37 -32 -109.5 -58.5t-173.5 -26.5q-169 0 -269.5 101t-100.5 271q0 162 96 264t250 102q58 0 106.5 -12.5t79 -29.5t54 -40t34 -40.5t16.5 -33.5l-155 -55q-50 66 -134 66q-79 0 -126 -60.5t-47 -160.5q0 -105 51.5 -167t144.5 -62q77 0 120 24v128h-134v136
h297v-346zM478 -320h-105q35 63 45 113h-79v140h175v-104q0 -71 -36 -149z" />
    <glyph glyph-name="gcommaaccent" unicode="&#x123;" horiz-adv-x="633" 
d="M246 838h105q-35 -63 -45 -113h79v-140h-175v104q0 71 36 149zM404 80q-7 -14 -20 -29.5t-47.5 -35t-76.5 -19.5q-92 0 -153.5 72.5t-61.5 193.5t61 193.5t154 72.5q42 0 76 -19t46 -34t20 -29v72h161v-500q0 -105 -65.5 -167t-193.5 -62q-57 0 -103 13.5t-73.5 35.5
t-43.5 41.5t-23 37.5l163 33q23 -35 80 -35q48 0 74 26.5t26 75.5v63zM404 262q0 58 -26.5 93t-70.5 35q-45 0 -72 -35t-27 -93t27 -93.5t72 -35.5q43 0 70 35.5t27 93.5z" />
    <glyph glyph-name="Hcircumflex" unicode="&#x124;" horiz-adv-x="810" 
d="M466 768l-61 75l-61 -75h-149l133 166h154l130 -166h-146zM86 0v710h170v-279h298v279h170v-710h-170v281h-298v-281h-170z" />
    <glyph glyph-name="hcircumflex" unicode="&#x125;" horiz-adv-x="637" 
d="M381 794l-61 75l-61 -75h-149l133 166h154l130 -166h-146zM70 0v736h161v-286q17 30 55.5 54.5t92.5 24.5q87 0 139.5 -58.5t52.5 -154.5v-316h-162v286q0 47 -23.5 74t-64.5 27q-42 0 -66 -27t-24 -74v-286h-161z" />
    <glyph glyph-name="Hbar" unicode="&#x126;" horiz-adv-x="810" 
d="M86 0v515h-79v111h79v84h170v-84h298v84h170v-84h79v-111h-79v-515h-170v281h-298v-281h-170zM256 431h298v84h-298v-84z" />
    <glyph glyph-name="hbar" unicode="&#x127;" horiz-adv-x="637" 
d="M70 0v570h-70v106h70v60h161v-60h161v-106h-161v-120q17 30 55.5 54.5t92.5 24.5q87 0 139.5 -58.5t52.5 -154.5v-316h-162v286q0 47 -23.5 74t-64.5 27q-42 0 -66 -27t-24 -74v-286h-161z" />
    <glyph glyph-name="Itilde" unicode="&#x128;" horiz-adv-x="346" 
d="M177 799l-34 17q-20 10 -28 10q-14 0 -14 -20v-40h-113v87q0 45 23.5 71t66.5 26q33 0 89 -29l33 -17q19 -10 29 -10q14 0 14 20v41h113v-88q0 -44 -23.5 -70t-66.5 -26q-36 0 -89 28zM88 0v710h170v-710h-170z" />
    <glyph glyph-name="itilde" unicode="&#x129;" horiz-adv-x="303" 
d="M90 578h-107v90q0 45 22 71t64 26q35 0 80 -31l25 -17q18 -11 25 -11q14 0 14 21v43h108v-91q0 -45 -22 -70.5t-65 -25.5q-37 0 -80 30l-24 17q-17 11 -24 11q-16 0 -16 -21v-42zM70 0v518h163v-518h-163z" />
    <glyph glyph-name="Imacron" unicode="&#x12a;" horiz-adv-x="346" 
d="M348 789h-352v122h352v-122zM88 0v710h170v-710h-170z" />
    <glyph glyph-name="imacron" unicode="&#x12b;" horiz-adv-x="303" 
d="M306 606h-309v123h309v-123zM70 0v518h163v-518h-163z" />
    <glyph glyph-name="Ibreve" unicode="&#x12c;" horiz-adv-x="346" 
d="M172 873q25 0 37.5 15t12.5 36v10h123v-13q0 -70 -44 -114.5t-129 -44.5t-129 44.5t-44 114.5v13h123v-10q0 -22 12.5 -36.5t37.5 -14.5zM88 0v710h170v-710h-170z" />
    <glyph glyph-name="ibreve" unicode="&#x12d;" horiz-adv-x="303" 
d="M151 687q23 0 34.5 14.5t11.5 36.5v16h122v-19q0 -70 -42.5 -114.5t-125.5 -44.5t-125 44.5t-42 114.5v19h122v-16q0 -51 45 -51zM70 0v518h163v-518h-163z" />
    <glyph glyph-name="Iogonek" unicode="&#x12e;" horiz-adv-x="346" 
d="M88 0v710h170v-710q-4 -3 -12 -9.5t-11.5 -9.5t-10 -8t-9.5 -8l-7.5 -7.5t-6.5 -7.5t-4.5 -6.5t-3.5 -6.5t-1 -6q0 -22 28 -22h58v-109h-142q-56 0 -89 23t-33 66q0 32 19.5 57.5t54.5 53.5z" />
    <glyph glyph-name="iogonek" unicode="&#x12f;" horiz-adv-x="303" 
d="M67 585v160h169v-160h-169zM-11 -111q0 22 13.5 44t27.5 34.5t40 32.5v518h163v-518l-15 -12.5t-14 -11.5t-12 -10t-10.5 -10t-7.5 -8.5t-5.5 -8.5t-1.5 -8q0 -22 28 -22h59v-109h-143q-56 0 -89 23t-33 66z" />
    <glyph glyph-name="Idotaccent" unicode="&#x130;" horiz-adv-x="346" 
d="M87 769v159h170v-159h-170zM88 0v710h170v-710h-170z" />
    <glyph glyph-name="dotlessi" unicode="&#x131;" horiz-adv-x="303" 
d="M70 0v518h163v-518h-163z" />
    <glyph glyph-name="IJ" unicode="&#x132;" horiz-adv-x="1009" 
d="M88 0v710h170v-710h-170zM921 224q0 -110 -69 -174t-191 -64t-186.5 63.5t-64.5 174.5v108h162v-94q0 -46 22.5 -73.5t66.5 -27.5q43 0 66 27.5t23 73.5v472h171v-486z" />
    <glyph glyph-name="ij" unicode="&#x133;" horiz-adv-x="607" 
d="M67 585v160h169v-160h-169zM371 585v160h169v-160h-169zM70 0v518h163v-518h-163zM537 -30q0 -89 -40 -129.5t-122 -40.5h-148v125h78q38 0 53.5 15.5t15.5 51.5v526h163v-548z" />
    <glyph glyph-name="Jcircumflex" unicode="&#x134;" horiz-adv-x="658" 
d="M549 768l-61 75l-61 -75h-149l133 166h154l130 -166h-146zM575 224q0 -110 -69 -174t-191 -64t-186.5 63.5t-64.5 174.5v108h162v-94q0 -46 22.5 -73.5t66.5 -27.5q43 0 66 27.5t23 73.5v472h171v-486z" />
    <glyph glyph-name="jcircumflex" unicode="&#x135;" horiz-adv-x="304" 
d="M206 581l-54 93l-55 -93h-141l121 198h149l118 -198h-138zM234 -30q0 -89 -40 -129.5t-122 -40.5h-148v125h78q38 0 53.5 15.5t15.5 51.5v526h163v-548z" />
    <glyph glyph-name="Kcommaaccent" unicode="&#x136;" horiz-adv-x="756" 
d="M86 0v710h170v-301l270 301h210l-305 -338l322 -372h-224l-273 312v-312h-170zM440 -320h-105q35 63 45 113h-79v140h175v-104q0 -71 -36 -149z" />
    <glyph glyph-name="kcommaaccent" unicode="&#x137;" horiz-adv-x="609" 
d="M70 0v736h162v-422l171 204h194l-202 -239l223 -279h-203l-183 228v-228h-162zM375 -320h-105q35 63 45 113h-79v140h175v-104q0 -71 -36 -149z" />
    <glyph glyph-name="Lacute" unicode="&#x139;" horiz-adv-x="639" 
d="M90 769l103 162h175l-111 -162h-167zM86 0v710h170v-556h348v-154h-518z" />
    <glyph glyph-name="lacute" unicode="&#x13a;" horiz-adv-x="307" 
d="M71 795l103 162h175l-111 -162h-167zM72 0v736h163v-736h-163z" />
    <glyph glyph-name="Lcommaaccent" unicode="&#x13b;" horiz-adv-x="639" 
d="M86 0v710h170v-556h348v-154h-518zM417 -320h-105q35 63 45 113h-79v140h175v-104q0 -71 -36 -149z" />
    <glyph glyph-name="lcommaaccent" unicode="&#x13c;" horiz-adv-x="307" 
d="M72 0v736h163v-736h-163zM209 -320h-105q35 63 45 113h-79v140h175v-104q0 -71 -36 -149z" />
    <glyph glyph-name="Lcaron" unicode="&#x13d;" horiz-adv-x="639" 
d="M301 582l50 193h142l-58 -193h-134zM86 0v710h170v-556h348v-154h-518z" />
    <glyph glyph-name="lcaron" unicode="&#x13e;" horiz-adv-x="307" 
d="M277 582l50 193h142l-58 -193h-134zM72 0v736h163v-736h-163z" />
    <glyph glyph-name="Ldot" unicode="&#x13f;" horiz-adv-x="660" 
d="M86 0v710h170v-556h348v-154h-518zM411 312v196h187v-196h-187z" />
    <glyph glyph-name="ldot" unicode="&#x140;" horiz-adv-x="541" 
d="M72 0v736h163v-736h-163zM331 266v196h187v-196h-187z" />
    <glyph glyph-name="Lslash" unicode="&#x141;" horiz-adv-x="652" 
d="M99 0v202l-85 -41v138l85 41v370h170v-287l223 109v-142l-223 -107v-129h348v-154h-518z" />
    <glyph glyph-name="lslash" unicode="&#x142;" horiz-adv-x="379" 
d="M106 0v288l-87 -37v134l87 38v313h163v-242l92 40v-137l-92 -39v-358h-163z" />
    <glyph glyph-name="Nacute" unicode="&#x143;" horiz-adv-x="812" 
d="M334 769l103 162h175l-111 -162h-167zM725 710v-714h-139l-334 477v-473h-166v710h192l285 -418v418h162z" />
    <glyph glyph-name="nacute" unicode="&#x144;" horiz-adv-x="637" 
d="M237 582l101 190h163l-108 -190h-156zM70 0v518h161v-67q17 30 55.5 54t92.5 24q87 0 139.5 -57.5t52.5 -153.5v-318h-162v288q0 46 -23.5 72.5t-64.5 26.5q-42 0 -66 -26.5t-24 -72.5v-288h-161z" />
    <glyph glyph-name="Ncommaaccent" unicode="&#x145;" horiz-adv-x="812" 
d="M725 710v-714h-139l-334 477v-473h-166v710h192l285 -418v418h162zM469 -320h-105q35 63 45 113h-79v140h175v-104q0 -71 -36 -149z" />
    <glyph glyph-name="ncommaaccent" unicode="&#x146;" horiz-adv-x="637" 
d="M70 0v518h161v-67q17 30 55.5 54t92.5 24q87 0 139.5 -57.5t52.5 -153.5v-318h-162v288q0 46 -23.5 72.5t-64.5 26.5q-42 0 -66 -26.5t-24 -72.5v-288h-161zM377 -320h-105q35 63 45 113h-79v140h175v-104q0 -71 -36 -149z" />
    <glyph glyph-name="Ncaron" unicode="&#x147;" horiz-adv-x="812" 
d="M203 934h148l64 -77l64 77h149l-136 -166h-154zM725 710v-714h-139l-334 477v-473h-166v710h192l285 -418v418h162z" />
    <glyph glyph-name="ncaron" unicode="&#x148;" horiz-adv-x="637" 
d="M367 780h138l-121 -198h-146l-125 198h141l57 -93zM70 0v518h161v-67q17 30 55.5 54t92.5 24q87 0 139.5 -57.5t52.5 -153.5v-318h-162v288q0 46 -23.5 72.5t-64.5 26.5q-42 0 -66 -26.5t-24 -72.5v-288h-161z" />
    <glyph glyph-name="napostrophe" unicode="&#x149;" horiz-adv-x="903" 
d="M162 346l-91 31q59 100 65 181h-86v178h183v-155q0 -133 -71 -235zM336 0v518h161v-67q17 30 55.5 54t92.5 24q87 0 139.5 -57.5t52.5 -153.5v-318h-162v288q0 46 -23.5 72.5t-64.5 26.5q-42 0 -66 -26.5t-24 -72.5v-288h-161z" />
    <glyph glyph-name="Eng" unicode="&#x14a;" horiz-adv-x="812" 
d="M571 -14q0 32 -42 91l-277 397v-474h-166v710h192l286 -419v419h162v-736q0 -92 -41 -133t-126 -41h-148v126h86q74 0 74 60z" />
    <glyph glyph-name="eng" unicode="&#x14b;" horiz-adv-x="637" 
d="M70 0v518h161v-67q17 30 55.5 54t92.5 24q87 0 139.5 -57.5t52.5 -153.5v-348q0 -89 -39.5 -129.5t-121.5 -40.5h-141v125h71q38 0 53.5 15.5t15.5 51.5v296q0 46 -23.5 72.5t-64.5 26.5q-42 0 -66 -26.5t-24 -72.5v-288h-161z" />
    <glyph glyph-name="Omacron" unicode="&#x14c;" horiz-adv-x="783" 
d="M568 789h-352v122h352v-122zM392 -12q-149 0 -244 100t-95 267q0 168 95 267.5t244 99.5q148 0 243 -99.5t95 -267.5q0 -167 -95.5 -267t-242.5 -100zM392 140q78 0 122 60t44 155q0 94 -44.5 154.5t-121.5 60.5t-121.5 -60.5t-44.5 -154.5q0 -95 44 -155t122 -60z" />
    <glyph glyph-name="omacron" unicode="&#x14d;" horiz-adv-x="612" 
d="M470 606h-328v123h328v-123zM306 531q117 0 190.5 -74.5t73.5 -197.5q0 -122 -74 -197t-190 -75t-189.5 75t-73.5 197q0 123 73.5 197.5t189.5 74.5zM306 124q49 0 75 37.5t26 97.5q0 59 -26 96.5t-75 37.5q-48 0 -74.5 -37.5t-26.5 -96.5q0 -60 26 -97.5t75 -37.5z" />
    <glyph glyph-name="Obreve" unicode="&#x14e;" horiz-adv-x="783" 
d="M392 873q25 0 37.5 15t12.5 36v10h123v-13q0 -70 -44 -114.5t-129 -44.5t-129 44.5t-44 114.5v13h123v-10q0 -22 12.5 -36.5t37.5 -14.5zM392 -12q-149 0 -244 100t-95 267q0 168 95 267.5t244 99.5q148 0 243 -99.5t95 -267.5q0 -167 -95.5 -267t-242.5 -100zM392 140
q78 0 122 60t44 155q0 94 -44.5 154.5t-121.5 60.5t-121.5 -60.5t-44.5 -154.5q0 -95 44 -155t122 -60z" />
    <glyph glyph-name="obreve" unicode="&#x14f;" horiz-adv-x="612" 
d="M306 687q23 0 34.5 14.5t11.5 36.5v16h122v-19q0 -70 -42.5 -114.5t-125.5 -44.5t-125.5 44.5t-42.5 114.5v19h122v-16q0 -51 46 -51zM306 531q117 0 190.5 -74.5t73.5 -197.5q0 -122 -74 -197t-190 -75t-189.5 75t-73.5 197q0 123 73.5 197.5t189.5 74.5zM306 124
q49 0 75 37.5t26 97.5q0 59 -26 96.5t-75 37.5q-48 0 -74.5 -37.5t-26.5 -96.5q0 -60 26 -97.5t75 -37.5z" />
    <glyph glyph-name="Ohungarumlaut" unicode="&#x150;" horiz-adv-x="783" 
d="M426 769l77 162h154l-83 -162h-148zM209 769l73 162h155l-80 -162h-148zM392 -12q-149 0 -244 100t-95 267q0 168 95 267.5t244 99.5q148 0 243 -99.5t95 -267.5q0 -167 -95.5 -267t-242.5 -100zM392 140q78 0 122 60t44 155q0 94 -44.5 154.5t-121.5 60.5t-121.5 -60.5
t-44.5 -154.5q0 -95 44 -155t122 -60z" />
    <glyph glyph-name="ohungarumlaut" unicode="&#x151;" horiz-adv-x="612" 
d="M347 582l70 190h136l-75 -190h-131zM149 582l70 190h136l-75 -190h-131zM306 531q117 0 190.5 -74.5t73.5 -197.5q0 -122 -74 -197t-190 -75t-189.5 75t-73.5 197q0 123 73.5 197.5t189.5 74.5zM306 124q49 0 75 37.5t26 97.5q0 59 -26 96.5t-75 37.5q-48 0 -74.5 -37.5
t-26.5 -96.5q0 -60 26 -97.5t75 -37.5z" />
    <glyph glyph-name="OE" unicode="&#x152;" horiz-adv-x="1061" 
d="M431 0q-172 0 -275 94.5t-103 260.5q0 165 103.5 260t274.5 95h557v-140h-339v-128h270v-143h-270v-152h373v-147h-591zM433 147h46v417h-46q-97 0 -152.5 -57.5t-55.5 -151.5t55.5 -151t152.5 -57z" />
    <glyph glyph-name="oe" unicode="&#x153;" horiz-adv-x="951" 
d="M669 -13q-62 0 -111 23.5t-77 61.5q-57 -85 -179 -85q-114 0 -186.5 75t-72.5 197q0 123 72.5 197.5t186.5 74.5q127 0 181 -85q25 38 72 61.5t106 23.5q115 0 182.5 -73.5t67.5 -198.5v-33h-345q4 -50 31 -80t72 -30q63 0 86 47l151 -25q-6 -22 -20 -44.5t-40 -48.5
t-72 -42t-105 -16zM659 414q-39 0 -63 -24t-29 -66h184q-7 43 -30.5 66.5t-61.5 23.5zM305 124q48 0 73.5 37.5t25.5 97.5t-25.5 97t-73.5 37q-47 0 -73.5 -37t-26.5 -97t26.5 -97.5t73.5 -37.5z" />
    <glyph glyph-name="Racute" unicode="&#x154;" horiz-adv-x="773" 
d="M289 769l103 162h175l-111 -162h-167zM86 0v710h364q119 0 184.5 -56.5t65.5 -164.5q0 -146 -126 -196l167 -293h-182l-155 272h-149v-272h-169zM433 564h-178v-150h178q93 0 93 75t-93 75z" />
    <glyph glyph-name="racute" unicode="&#x155;" horiz-adv-x="475" 
d="M190 582l101 190h163l-108 -190h-156zM231 256v-256h-161v518h161v-76q37 77 150 77h65v-160h-95q-63 0 -91.5 -25t-28.5 -78z" />
    <glyph glyph-name="Rcommaaccent" unicode="&#x156;" horiz-adv-x="773" 
d="M86 0v710h364q119 0 184.5 -56.5t65.5 -164.5q0 -146 -126 -196l167 -293h-182l-155 272h-149v-272h-169zM433 564h-178v-150h178q93 0 93 75t-93 75zM451 -320h-105q35 63 45 113h-79v140h175v-104q0 -71 -36 -149z" />
    <glyph glyph-name="rcommaaccent" unicode="&#x157;" horiz-adv-x="475" 
d="M231 256v-256h-161v518h161v-76q37 77 150 77h65v-160h-95q-63 0 -91.5 -25t-28.5 -78zM204 -320h-105q35 63 45 113h-79v140h175v-104q0 -71 -36 -149z" />
    <glyph glyph-name="Rcaron" unicode="&#x158;" horiz-adv-x="773" 
d="M159 934h148l64 -77l64 77h149l-136 -166h-154zM86 0v710h364q119 0 184.5 -56.5t65.5 -164.5q0 -146 -126 -196l167 -293h-182l-155 272h-149v-272h-169zM433 564h-178v-150h178q93 0 93 75t-93 75z" />
    <glyph glyph-name="rcaron" unicode="&#x159;" horiz-adv-x="475" 
d="M324 780h138l-121 -198h-146l-125 198h141l57 -93zM231 256v-256h-161v518h161v-76q37 77 150 77h65v-160h-95q-63 0 -91.5 -25t-28.5 -78z" />
    <glyph glyph-name="Sacute" unicode="&#x15a;" horiz-adv-x="709" 
d="M263 769l103 162h175l-111 -162h-167zM338 587q-52 0 -80.5 -18t-28.5 -49q0 -54 95 -67q10 -1 22.5 -3t23.5 -3.5t24 -3.5q131 -16 197.5 -66.5t66.5 -159.5q0 -103 -79 -166.5t-217 -63.5q-75 0 -136 18.5t-97.5 48t-56.5 54.5t-31 49l159 59q61 -89 163 -89
q54 0 87.5 20.5t33.5 56.5q0 35 -25 52.5t-75 24.5q-29 4 -71 10q-127 17 -192.5 69t-65.5 151q0 98 78 155t205 57q73 0 129.5 -15.5t89.5 -41t50 -46.5t28 -45l-154 -53q-53 65 -143 65z" />
    <glyph glyph-name="sacute" unicode="&#x15b;" horiz-adv-x="561" 
d="M192 582l101 190h163l-108 -190h-156zM305 193q-8 1 -30.5 3.5t-28.5 2.5q-203 21 -203 168q0 77 61.5 121t164.5 44q106 0 160.5 -35.5t71.5 -79.5l-143 -39q-28 40 -87 40q-69 0 -69 -43q0 -37 57 -41q3 0 24.5 -2t28.5 -3q109 -8 159.5 -49t50.5 -121
q0 -79 -62.5 -126t-174.5 -47q-60 0 -107.5 13.5t-75.5 35t-43 40t-23 38.5l146 40q33 -50 104 -50q35 0 54.5 12.5t19.5 32.5t-12.5 31t-42.5 14z" />
    <glyph glyph-name="Scircumflex" unicode="&#x15c;" horiz-adv-x="709" 
d="M407 768l-61 75l-61 -75h-149l133 166h154l130 -166h-146zM338 587q-52 0 -80.5 -18t-28.5 -49q0 -54 95 -67q10 -1 22.5 -3t23.5 -3.5t24 -3.5q131 -16 197.5 -66.5t66.5 -159.5q0 -103 -79 -166.5t-217 -63.5q-75 0 -136 18.5t-97.5 48t-56.5 54.5t-31 49l159 59
q61 -89 163 -89q54 0 87.5 20.5t33.5 56.5q0 35 -25 52.5t-75 24.5q-29 4 -71 10q-127 17 -192.5 69t-65.5 151q0 98 78 155t205 57q73 0 129.5 -15.5t89.5 -41t50 -46.5t28 -45l-154 -53q-53 65 -143 65z" />
    <glyph glyph-name="scircumflex" unicode="&#x15d;" horiz-adv-x="561" 
d="M334 581l-56 93l-57 -93h-141l125 198h146l121 -198h-138zM305 193q-8 1 -30.5 3.5t-28.5 2.5q-203 21 -203 168q0 77 61.5 121t164.5 44q106 0 160.5 -35.5t71.5 -79.5l-143 -39q-28 40 -87 40q-69 0 -69 -43q0 -37 57 -41q3 0 24.5 -2t28.5 -3q109 -8 159.5 -49
t50.5 -121q0 -79 -62.5 -126t-174.5 -47q-60 0 -107.5 13.5t-75.5 35t-43 40t-23 38.5l146 40q33 -50 104 -50q35 0 54.5 12.5t19.5 32.5t-12.5 31t-42.5 14z" />
    <glyph glyph-name="Scedilla" unicode="&#x15e;" horiz-adv-x="709" 
d="M373 -157q0 26 -32 26h-78v127q-94 20 -147.5 67.5t-74.5 93.5l159 59q61 -89 163 -89q54 0 87.5 20.5t33.5 56.5q0 35 -25 52.5t-75 24.5q-29 4 -71 10q-127 17 -192.5 69t-65.5 151q0 98 78 155t205 57q73 0 129.5 -15.5t89.5 -41t50 -46.5t28 -45l-154 -53
q-53 65 -143 65q-52 0 -80.5 -18t-28.5 -49q0 -54 95 -67q10 -1 22.5 -3t23.5 -3.5t24 -3.5q131 -16 197.5 -66.5t66.5 -159.5q0 -100 -74.5 -163t-205.5 -67v-30q57 -1 88 -32t31 -86q0 -59 -33.5 -92.5t-98.5 -33.5h-124v103h100q32 0 32 27z" />
    <glyph glyph-name="scedilla" unicode="&#x15f;" horiz-adv-x="562" 
d="M306 -157q0 26 -32 26h-78v126q-69 15 -107.5 49t-52.5 69l146 40q33 -50 104 -50q35 0 54.5 12.5t19.5 32.5t-12.5 31t-42.5 14q-8 1 -30.5 3.5t-28.5 2.5q-203 21 -203 168q0 77 61.5 121t164.5 44q106 0 160.5 -35.5t71.5 -79.5l-143 -39q-28 40 -87 40q-69 0 -69 -43
q0 -37 57 -41q3 0 24.5 -2t28.5 -3q109 -8 159.5 -49t50.5 -121q0 -75 -55 -121t-156 -51v-30q57 -1 88 -32t31 -86q0 -59 -33.5 -92.5t-97.5 -33.5h-124v103h99q32 0 32 27z" />
    <glyph glyph-name="Scaron" unicode="&#x160;" horiz-adv-x="709" 
d="M133 934h148l64 -77l64 77h149l-136 -166h-154zM338 587q-52 0 -80.5 -18t-28.5 -49q0 -54 95 -67q10 -1 22.5 -3t23.5 -3.5t24 -3.5q131 -16 197.5 -66.5t66.5 -159.5q0 -103 -79 -166.5t-217 -63.5q-75 0 -136 18.5t-97.5 48t-56.5 54.5t-31 49l159 59q61 -89 163 -89
q54 0 87.5 20.5t33.5 56.5q0 35 -25 52.5t-75 24.5q-29 4 -71 10q-127 17 -192.5 69t-65.5 151q0 98 78 155t205 57q73 0 129.5 -15.5t89.5 -41t50 -46.5t28 -45l-154 -53q-53 65 -143 65z" />
    <glyph glyph-name="scaron" unicode="&#x161;" horiz-adv-x="561" 
d="M329 780h138l-121 -198h-146l-125 198h141l57 -93zM305 193q-8 1 -30.5 3.5t-28.5 2.5q-203 21 -203 168q0 77 61.5 121t164.5 44q106 0 160.5 -35.5t71.5 -79.5l-143 -39q-28 40 -87 40q-69 0 -69 -43q0 -37 57 -41q3 0 24.5 -2t28.5 -3q109 -8 159.5 -49t50.5 -121
q0 -79 -62.5 -126t-174.5 -47q-60 0 -107.5 13.5t-75.5 35t-43 40t-23 38.5l146 40q33 -50 104 -50q35 0 54.5 12.5t19.5 32.5t-12.5 31t-42.5 14z" />
    <glyph glyph-name="Tcommaaccent" unicode="&#x162;" horiz-adv-x="725" 
d="M278 0v562h-243v148h655v-148h-243v-562h-169zM418 -320h-105q35 63 45 113h-79v140h175v-104q0 -71 -36 -149z" />
    <glyph glyph-name="tcommaaccent" unicode="&#x163;" horiz-adv-x="495" 
d="M132 164v219h-106v135h106v192h162v-192h157v-135h-157v-163q0 -41 16.5 -59t60.5 -18h80v-143h-145q-174 0 -174 164zM340 -320h-105q35 63 45 113h-79v140h175v-104q0 -71 -36 -149z" />
    <glyph glyph-name="Tcaron" unicode="&#x164;" horiz-adv-x="725" 
d="M150 934h148l64 -77l64 77h149l-136 -166h-154zM278 0v562h-243v148h655v-148h-243v-562h-169z" />
    <glyph glyph-name="tcaron" unicode="&#x165;" horiz-adv-x="495" 
d="M336 582l50 193h142l-58 -193h-134zM132 164v219h-106v135h106v192h162v-192h157v-135h-157v-163q0 -41 16.5 -59t60.5 -18h80v-143h-145q-174 0 -174 164z" />
    <glyph glyph-name="Tbar" unicode="&#x166;" horiz-adv-x="725" 
d="M278 0v289h-162v131h162v142h-243v148h655v-148h-243v-142h162v-131h-162v-289h-169z" />
    <glyph glyph-name="tbar" unicode="&#x167;" horiz-adv-x="516" 
d="M144 164v68h-107v97h107v62h-107v127h107v192h162v-192h157v-127h-157v-62h157v-97h-157v-20q0 -37 14.5 -53t52.5 -16h90v-143h-145q-174 0 -174 164z" />
    <glyph glyph-name="Utilde" unicode="&#x168;" horiz-adv-x="795" 
d="M403 799l-34 17q-20 10 -28 10q-14 0 -14 -20v-40h-113v87q0 45 23.5 71t66.5 26q33 0 89 -29l33 -17q19 -10 29 -10q14 0 14 20v41h113v-88q0 -44 -23.5 -70t-66.5 -26q-36 0 -89 28zM544 295v415h169v-426q0 -131 -83 -215t-232 -84q-152 0 -234 83.5t-82 215.5v426
h170v-415q0 -71 38 -113t108 -42q69 0 107.5 42.5t38.5 112.5z" />
    <glyph glyph-name="utilde" unicode="&#x169;" horiz-adv-x="628" 
d="M248 578h-108v90q0 45 22.5 71t64.5 26q33 0 83 -31l27 -17q16 -11 26 -11q15 0 15 21v43h109v-91q0 -44 -22.5 -70t-64.5 -26q-35 0 -83 30l-28 17q-18 11 -26 11q-15 0 -15 -21v-42zM315 -11q-121 0 -185 63t-64 169v297h162v-289q0 -41 22 -65.5t63 -24.5
q42 0 64.5 24.5t22.5 65.5v289h161v-297q0 -104 -63.5 -168t-182.5 -64z" />
    <glyph glyph-name="Umacron" unicode="&#x16a;" horiz-adv-x="795" 
d="M574 789h-352v122h352v-122zM544 295v415h169v-426q0 -131 -83 -215t-232 -84q-152 0 -234 83.5t-82 215.5v426h170v-415q0 -71 38 -113t108 -42q69 0 107.5 42.5t38.5 112.5z" />
    <glyph glyph-name="umacron" unicode="&#x16b;" horiz-adv-x="628" 
d="M478 606h-328v123h328v-123zM315 -11q-121 0 -185 63t-64 169v297h162v-289q0 -41 22 -65.5t63 -24.5q42 0 64.5 24.5t22.5 65.5v289h161v-297q0 -104 -63.5 -168t-182.5 -64z" />
    <glyph glyph-name="Ubreve" unicode="&#x16c;" horiz-adv-x="795" 
d="M398 873q25 0 37.5 15t12.5 36v10h123v-13q0 -70 -44 -114.5t-129 -44.5t-129 44.5t-44 114.5v13h123v-10q0 -22 12.5 -36.5t37.5 -14.5zM544 295v415h169v-426q0 -131 -83 -215t-232 -84q-152 0 -234 83.5t-82 215.5v426h170v-415q0 -71 38 -113t108 -42
q69 0 107.5 42.5t38.5 112.5z" />
    <glyph glyph-name="ubreve" unicode="&#x16d;" horiz-adv-x="628" 
d="M313 687q23 0 34.5 14.5t11.5 36.5v16h122v-19q0 -70 -42.5 -114.5t-125.5 -44.5t-125.5 44.5t-42.5 114.5v19h122v-16q0 -51 46 -51zM315 -11q-121 0 -185 63t-64 169v297h162v-289q0 -41 22 -65.5t63 -24.5q42 0 64.5 24.5t22.5 65.5v289h161v-297q0 -104 -63.5 -168
t-182.5 -64z" />
    <glyph glyph-name="Uring" unicode="&#x16e;" horiz-adv-x="795" 
d="M398 759q-61 0 -100.5 39t-39.5 98t39.5 98t100.5 39t101 -39t40 -98t-40 -98t-101 -39zM398 839q24 0 39.5 16t15.5 41t-15 40.5t-40 15.5t-40 -15.5t-15 -40.5t15.5 -41t39.5 -16zM544 295v415h169v-426q0 -131 -83 -215t-232 -84q-152 0 -234 83.5t-82 215.5v426h170
v-415q0 -71 38 -113t108 -42q69 0 107.5 42.5t38.5 112.5z" />
    <glyph glyph-name="uring" unicode="&#x16f;" horiz-adv-x="628" 
d="M313 572q-60 0 -99.5 39t-39.5 97q0 59 39 98t100 39t100.5 -39t39.5 -98q0 -58 -40 -97t-100 -39zM313 652q24 0 39.5 16t15.5 40q0 25 -15.5 40.5t-39.5 15.5t-39.5 -15.5t-15.5 -40.5q0 -24 15.5 -40t39.5 -16zM315 -11q-121 0 -185 63t-64 169v297h162v-289
q0 -41 22 -65.5t63 -24.5q42 0 64.5 24.5t22.5 65.5v289h161v-297q0 -104 -63.5 -168t-182.5 -64z" />
    <glyph glyph-name="Uhungarumlaut" unicode="&#x170;" horiz-adv-x="795" 
d="M433 769l77 162h154l-83 -162h-148zM216 769l73 162h155l-80 -162h-148zM544 295v415h169v-426q0 -131 -83 -215t-232 -84q-152 0 -234 83.5t-82 215.5v426h170v-415q0 -71 38 -113t108 -42q69 0 107.5 42.5t38.5 112.5z" />
    <glyph glyph-name="uhungarumlaut" unicode="&#x171;" horiz-adv-x="628" 
d="M343 582l70 190h136l-75 -190h-131zM145 582l70 190h136l-75 -190h-131zM315 -11q-121 0 -185 63t-64 169v297h162v-289q0 -41 22 -65.5t63 -24.5q42 0 64.5 24.5t22.5 65.5v289h161v-297q0 -104 -63.5 -168t-182.5 -64z" />
    <glyph glyph-name="Uogonek" unicode="&#x172;" horiz-adv-x="795" 
d="M589 21q-25 -23 -34.5 -32.5t-21.5 -22t-15.5 -20t-3.5 -15.5q0 -22 28 -22h58v-109h-142q-56 0 -89 22.5t-33 63.5q0 56 87 100q-8 -1 -25 -1q-152 0 -234 83.5t-82 215.5v426h170v-415q0 -71 38 -113t108 -42q69 0 107.5 42.5t38.5 112.5v415h169v-426q0 -85 -32 -146
t-92 -117z" />
    <glyph glyph-name="uogonek" unicode="&#x173;" horiz-adv-x="628" 
d="M474 17q-36 -39 -47.5 -55t-11.5 -30q0 -23 28 -23h59v-109h-143q-56 0 -89 22t-33 64q0 56 93 103h-15q-121 0 -185 63t-64 169v297h162v-289q0 -41 22 -65.5t63 -24.5q42 0 64.5 24.5t22.5 65.5v289h161v-297q0 -65 -22.5 -111t-64.5 -93z" />
    <glyph glyph-name="Wcircumflex" unicode="&#x174;" horiz-adv-x="1036" 
d="M579 768l-61 75l-61 -75h-149l133 166h154l130 -166h-146zM603 711l128 -451l120 450h161l-200 -711h-161l-134 454l-134 -454h-152l-208 711h179l121 -446l126 447h154z" />
    <glyph glyph-name="wcircumflex" unicode="&#x175;" horiz-adv-x="845" 
d="M483 581l-56 93l-57 -93h-141l125 198h146l121 -198h-138zM514 -1l-89 313l-89 -313h-156l-171 519h174l86 -304l88 305h152l87 -303l86 302h154l-160 -519h-162z" />
    <glyph glyph-name="Ycircumflex" unicode="&#x176;" horiz-adv-x="723" 
d="M434 768l-61 75l-61 -75h-149l133 166h154l130 -166h-146zM277 289l-275 421h212l159 -250l159 250h189l-265 -425v-285h-179v289z" />
    <glyph glyph-name="ycircumflex" unicode="&#x177;" horiz-adv-x="576" 
d="M354 581l-56 93l-57 -93h-141l125 198h146l121 -198h-138zM141 -200l77 202l-213 516h182l111 -300l110 300h163l-267 -718h-163z" />
    <glyph glyph-name="Ydieresis" unicode="&#x178;" horiz-adv-x="723" 
d="M177 769v158h160v-158h-160zM409 769v158h160v-158h-160zM277 289l-275 421h212l159 -250l159 250h189l-265 -425v-285h-179v289z" />
    <glyph glyph-name="Zacute" unicode="&#x179;" horiz-adv-x="726" 
d="M267 769l103 162h175l-111 -162h-167zM47 0v97l357 467h-347v146h596v-95l-358 -468h395v-147h-643z" />
    <glyph glyph-name="zacute" unicode="&#x17a;" horiz-adv-x="579" 
d="M198 582l101 190h163l-108 -190h-156zM43 0v88l239 299h-235v131h470v-87l-243 -299h277v-132h-508z" />
    <glyph glyph-name="Zdotaccent" unicode="&#x17b;" horiz-adv-x="726" 
d="M269 769v159h170v-159h-170zM47 0v97l357 467h-347v146h596v-95l-358 -468h395v-147h-643z" />
    <glyph glyph-name="zdotaccent" unicode="&#x17c;" horiz-adv-x="579" 
d="M197 585v160h170v-160h-170zM43 0v88l239 299h-235v131h470v-87l-243 -299h277v-132h-508z" />
    <glyph glyph-name="Zcaron" unicode="&#x17d;" horiz-adv-x="726" 
d="M141 934h148l64 -77l64 77h149l-136 -166h-154zM47 0v97l357 467h-347v146h596v-95l-358 -468h395v-147h-643z" />
    <glyph glyph-name="zcaron" unicode="&#x17e;" horiz-adv-x="579" 
d="M337 780h138l-121 -198h-146l-125 198h141l57 -93zM43 0v88l239 299h-235v131h470v-87l-243 -299h277v-132h-508z" />
    <glyph glyph-name="uni018F" unicode="&#x18f;" horiz-adv-x="758" 
d="M372 569q-106 0 -148 -90l-147 51q26 84 101.5 138t194.5 54q148 0 240 -101.5t92 -265.5q0 -167 -92 -267t-237 -100q-142 0 -232.5 99t-90.5 265q0 11 1.5 32.5t1.5 22.5h476q-11 76 -52.5 119t-107.5 43zM376 133q63 0 101.5 38t51.5 108h-302q9 -66 47.5 -106
t101.5 -40z" />
    <glyph glyph-name="florin" unicode="&#x192;" horiz-adv-x="579" 
d="M25 314v133h145l16 113q12 77 53 113.5t125 36.5h197v-129h-142q-38 0 -54 -14t-21 -49l-10 -71h152v-133h-172l-75 -514h-162l74 514h-126z" />
    <glyph glyph-name="Aringacute" unicode="&#x1fa;" horiz-adv-x="766" 
d="M300 1067l98 147h172l-106 -147h-164zM378 759q-61 0 -100.5 39t-39.5 98t39.5 98t100.5 39t101 -39t40 -98t-40 -98t-101 -39zM378 839q24 0 39.5 16t15.5 41t-15 40.5t-40 15.5t-40 -15.5t-15 -40.5t15.5 -41t39.5 -16zM569 0l-46 123h-290l-46 -123h-169l272 711h185
l274 -711h-180zM286 265h184l-92 247z" />
    <glyph glyph-name="aringacute" unicode="&#x1fb;" horiz-adv-x="595" 
d="M212 879l89 159h162l-96 -159h-155zM287 572q-60 0 -99.5 39t-39.5 97q0 59 39 98t100 39t100.5 -39t39.5 -98q0 -58 -40 -97t-100 -39zM287 652q24 0 39.5 16t15.5 40q0 25 -15.5 40.5t-39.5 15.5t-39.5 -15.5t-15.5 -40.5q0 -24 15.5 -40t39.5 -16zM532 164
q0 -39 33 -42v-124h-76q-82 0 -105 62q-49 -72 -152 -72q-87 0 -141.5 49t-54.5 126t51.5 118.5t143.5 41.5h143v5q0 35 -23 57t-64 22q-61 0 -85 -47l-149 36q6 18 19.5 38t39 43.5t70.5 38.5t102 15q123 0 185.5 -56t62.5 -155v-156zM280 102q40 0 67 22t27 56v41h-109
q-31 0 -49.5 -14t-18.5 -40q0 -29 22.5 -47t60.5 -18z" />
    <glyph glyph-name="AEacute" unicode="&#x1fc;" horiz-adv-x="1063" 
d="M601 769l103 162h175l-111 -162h-167zM-7 0l385 710h612v-140h-339v-128h270v-143h-270v-152h373v-147h-542v147h-227l-78 -147h-184zM330 289h152v285z" />
    <glyph glyph-name="aeacute" unicode="&#x1fd;" horiz-adv-x="915" 
d="M381 582l101 190h163l-108 -190h-156zM633 116q59 0 88 49l147 -34q-6 -21 -20 -43t-40.5 -46t-72 -39.5t-102.5 -15.5q-68 0 -122.5 26t-86.5 70q-53 -95 -184 -95q-93 0 -148.5 48.5t-55.5 126.5q0 77 52 119t144 42h138v4q0 35 -22 57t-62 22q-55 0 -84 -46l-149 37
q7 19 20.5 38t39 42.5t70 38t100.5 14.5q122 0 177 -70q54 70 163 70q116 0 184.5 -73.5t68.5 -198.5v-33h-346q4 -50 31.5 -80t71.5 -30zM623 414q-39 0 -63 -24t-29 -66h184q-6 42 -30 66t-62 24zM278 102q40 0 66 22.5t26 58.5v39h-103q-32 0 -51 -14.5t-19 -40.5
q0 -29 22.5 -47t58.5 -18z" />
    <glyph glyph-name="Oslashacute" unicode="&#x1fe;" horiz-adv-x="783" 
d="M309 769l103 162h175l-111 -162h-167zM26 0l97 122q-70 95 -70 233q0 168 95 267.5t244 99.5q95 0 174 -47l27 35h164l-97 -121q70 -95 70 -234q0 -167 -95.5 -267t-242.5 -100q-95 0 -176 48l-28 -36h-162zM218 355q0 -58 12 -100l241 304q-33 15 -79 15
q-81 0 -127.5 -61.5t-46.5 -157.5zM392 136q81 0 127 61t46 158q0 59 -12 101l-242 -304q33 -16 81 -16z" />
    <glyph glyph-name="oslashacute" unicode="&#x1ff;" horiz-adv-x="612" 
d="M229 582l101 190h163l-108 -190h-156zM23 0l75 88q-55 71 -55 171q0 121 74 196.5t190 75.5q73 0 137 -38l20 25h126l-75 -88q55 -71 55 -171q0 -120 -74 -196t-189 -76q-76 0 -139 39l-21 -26h-124zM191 259q0 -28 5 -55l159 190q-24 7 -48 7q-54 0 -85 -41t-31 -101z
M422 259q0 28 -5 55l-160 -190q22 -8 50 -8q54 0 84.5 41t30.5 102z" />
    <glyph glyph-name="Scommaaccent" unicode="&#x218;" horiz-adv-x="709" 
d="M338 587q-52 0 -80.5 -18t-28.5 -49q0 -54 95 -67q10 -1 22.5 -3t23.5 -3.5t24 -3.5q131 -16 197.5 -66.5t66.5 -159.5q0 -103 -79 -166.5t-217 -63.5q-75 0 -136 18.5t-97.5 48t-56.5 54.5t-31 49l159 59q61 -89 163 -89q54 0 87.5 20.5t33.5 56.5q0 35 -25 52.5
t-75 24.5q-29 4 -71 10q-127 17 -192.5 69t-65.5 151q0 98 78 155t205 57q73 0 129.5 -15.5t89.5 -41t50 -46.5t28 -45l-154 -53q-53 65 -143 65zM425 -320h-105q35 63 45 113h-79v140h175v-104q0 -71 -36 -149z" />
    <glyph glyph-name="scommaaccent" unicode="&#x219;" horiz-adv-x="561" 
d="M305 193q-8 1 -30.5 3.5t-28.5 2.5q-203 21 -203 168q0 77 61.5 121t164.5 44q106 0 160.5 -35.5t71.5 -79.5l-143 -39q-28 40 -87 40q-69 0 -69 -43q0 -37 57 -41q3 0 24.5 -2t28.5 -3q109 -8 159.5 -49t50.5 -121q0 -79 -62.5 -126t-174.5 -47q-60 0 -107.5 13.5
t-75.5 35t-43 40t-23 38.5l146 40q33 -50 104 -50q35 0 54.5 12.5t19.5 32.5t-12.5 31t-42.5 14zM340 -320h-105q35 63 45 113h-79v140h175v-104q0 -71 -36 -149z" />
    <glyph glyph-name="uni021A" unicode="&#x21a;" horiz-adv-x="725" 
d="M278 0v562h-243v148h655v-148h-243v-562h-169zM418 -320h-105q35 63 45 113h-79v140h175v-104q0 -71 -36 -149z" />
    <glyph glyph-name="uni021B" unicode="&#x21b;" horiz-adv-x="511" 
d="M132 164v219h-106v135h106v192h162v-192h157v-135h-157v-163q0 -41 16.5 -59t60.5 -18h80v-143h-145q-174 0 -174 164zM345 -320h-105q35 63 45 113h-79v140h175v-104q0 -71 -36 -149z" />
    <glyph glyph-name="dotlessj" unicode="&#x237;" horiz-adv-x="304" 
d="M234 -30q0 -89 -40 -129.5t-122 -40.5h-148v125h78q38 0 53.5 15.5t15.5 51.5v526h163v-548z" />
    <glyph glyph-name="uni0259" unicode="&#x259;" horiz-adv-x="595" 
d="M297 -13q-118 0 -186.5 73.5t-68.5 198.5v28h351q-3 52 -31.5 83.5t-75.5 31.5q-60 0 -89 -49l-147 34q6 21 20 43t40.5 46t72 39.5t103.5 15.5q123 0 194.5 -75t71.5 -197t-70 -197t-185 -75zM297 104q39 0 63.5 23.5t30.5 63.5h-187q7 -41 31 -64t62 -23z" />
    <glyph glyph-name="uni02BC" unicode="&#x2bc;" horiz-adv-x="328" 
d="M183 346l-91 31q59 100 65 181h-86v178h183v-155q0 -133 -71 -235z" />
    <glyph glyph-name="circumflex" unicode="&#x2c6;" 
d="M316 581l-56 93l-57 -93h-141l125 198h146l121 -198h-138z" />
    <glyph glyph-name="caron" unicode="&#x2c7;" 
d="M314 780h138l-121 -198h-146l-125 198h141l57 -93z" />
    <glyph glyph-name="breve" unicode="&#x2d8;" 
d="M300 687q23 0 34.5 14.5t11.5 36.5v16h122v-19q0 -70 -42.5 -114.5t-125.5 -44.5t-125.5 44.5t-42.5 114.5v19h122v-16q0 -51 46 -51z" />
    <glyph glyph-name="dotaccent" unicode="&#x2d9;" 
d="M215 585v160h170v-160h-170z" />
    <glyph glyph-name="ring" unicode="&#x2da;" 
d="M300 572q-60 0 -99.5 39t-39.5 97q0 59 39 98t100 39t100.5 -39t39.5 -98q0 -58 -40 -97t-100 -39zM300 652q24 0 39.5 16t15.5 40q0 25 -15.5 40.5t-39.5 15.5t-39.5 -15.5t-15.5 -40.5q0 -24 15.5 -40t39.5 -16z" />
    <glyph glyph-name="ogonek" unicode="&#x2db;" 
d="M179 -111q0 22 13.5 44t27.5 34.5t40 32.5h163l-15 -12.5t-14 -11.5t-12 -10t-10.5 -10t-7.5 -8.5t-5.5 -8.5t-1.5 -8q0 -22 28 -22h59v-109h-143q-56 0 -89 23t-33 66z" />
    <glyph glyph-name="tilde" unicode="&#x2dc;" 
d="M235 578h-108v90q0 45 22.5 71t64.5 26q33 0 83 -31l27 -17q16 -11 26 -11q15 0 15 21v43h109v-91q0 -44 -22.5 -70t-64.5 -26q-35 0 -83 30l-28 17q-18 11 -26 11q-15 0 -15 -21v-42z" />
    <glyph glyph-name="hungarumlaut" unicode="&#x2dd;" 
d="M295 582l70 190h136l-75 -190h-131zM97 582l70 190h136l-75 -190h-131z" />
    <glyph glyph-name="uni0401" unicode="&#x401;" horiz-adv-x="711" 
d="M170 769v158h160v-158h-160zM402 769v158h160v-158h-160zM86 0v710h552v-140h-382v-128h314v-143h-314v-152h416v-147h-586z" />
    <glyph glyph-name="uni0402" unicode="&#x402;" horiz-adv-x="924" 
d="M264 0v562h-229v148h655v-148h-257v-147q66 17 135 17q136 0 211 -65t75 -197q0 -113 -66.5 -187t-173.5 -74q-59 0 -119 24l69 144q19 -8 44 -8q37 0 57 29t20 73q0 114 -126 114q-30 0 -61.5 -4.5t-47.5 -8.5l-17 -4v-268h-169z" />
    <glyph glyph-name="uni0403" unicode="&#x403;" horiz-adv-x="689" 
d="M276 769l103 162h175l-111 -162h-167zM86 0v710h569v-148h-399v-562h-170z" />
    <glyph glyph-name="uni0404" unicode="&#x404;" horiz-adv-x="717" 
d="M381 -12q-147 0 -237.5 100.5t-90.5 266.5q0 164 90.5 265.5t237.5 101.5q58 0 106.5 -14t79 -34.5t54 -48t34.5 -49.5t17 -43l-156 -54q-43 90 -135 90q-58 0 -95.5 -39t-51.5 -106h208v-136h-208q13 -68 51 -107.5t96 -39.5q89 0 137 88l152 -51q-6 -19 -16 -40
t-33 -49t-53.5 -49.5t-79.5 -36.5t-107 -15z" />
    <glyph glyph-name="uni0405" unicode="&#x405;" horiz-adv-x="709" 
d="M338 587q-52 0 -80.5 -18t-28.5 -49q0 -54 95 -67q10 -1 22.5 -3t23.5 -3.5t24 -3.5q131 -16 197.5 -66.5t66.5 -159.5q0 -103 -79 -166.5t-217 -63.5q-75 0 -136 18.5t-97.5 48t-56.5 54.5t-31 49l159 59q61 -89 163 -89q54 0 87.5 20.5t33.5 56.5q0 35 -25 52.5
t-75 24.5q-29 4 -71 10q-127 17 -192.5 69t-65.5 151q0 98 78 155t205 57q73 0 129.5 -15.5t89.5 -41t50 -46.5t28 -45l-154 -53q-53 65 -143 65z" />
    <glyph glyph-name="uni0406" unicode="&#x406;" horiz-adv-x="346" 
d="M88 0v710h170v-710h-170z" />
    <glyph glyph-name="uni0407" unicode="&#x407;" horiz-adv-x="345" 
d="M-24 769v158h160v-158h-160zM208 769v158h160v-158h-160zM88 0v710h170v-710h-170z" />
    <glyph glyph-name="uni0408" unicode="&#x408;" horiz-adv-x="660" 
d="M575 224q0 -110 -69 -174t-191 -64t-186.5 63.5t-64.5 174.5v108h162v-94q0 -46 22.5 -73.5t66.5 -27.5q43 0 66 27.5t23 73.5v472h171v-486z" />
    <glyph glyph-name="uni0409" unicode="&#x409;" horiz-adv-x="1179" 
d="M311 295q-14 -160 -69 -232t-178 -72h-8l-23 169h10q56 0 79.5 32.5t31.5 115.5l35 402h511v-228h167q127 0 197 -62.5t70 -178.5q0 -118 -69.5 -179.5t-197.5 -61.5h-336v561h-196zM850 335h-150v-187h150q110 0 110 93q0 44 -28 69t-82 25z" />
    <glyph glyph-name="uni040A" unicode="&#x40a;" horiz-adv-x="1189" 
d="M86 0v710h170v-248h286v248h169v-248h167q127 0 196.5 -60t69.5 -171q0 -113 -69.5 -172t-196.5 -59h-336v313h-286v-313h-170zM861 315h-150v-167h150q109 0 109 84q0 39 -27.5 61t-81.5 22z" />
    <glyph glyph-name="uni040B" unicode="&#x40b;" horiz-adv-x="924" 
d="M264 0v562h-229v148h655v-148h-257v-147q71 17 148 17q134 0 203.5 -65.5t69.5 -211.5v-155h-169v154q0 70 -31 100.5t-95 30.5q-30 0 -61.5 -4.5t-47.5 -8.5l-17 -4v-268h-169z" />
    <glyph glyph-name="uni040C" unicode="&#x40c;" horiz-adv-x="756" 
d="M266 769l103 162h175l-111 -162h-167zM86 0v710h170v-301l270 301h210l-305 -338l322 -372h-224l-273 312v-312h-170z" />
    <glyph glyph-name="uni040E" unicode="&#x40e;" horiz-adv-x="737" 
d="M393 873q25 0 37.5 14.5t12.5 36.5v10l123 -14v-3q0 -69 -44 -112.5t-129 -43.5t-129 43.5t-44 112.5v3l123 14v-10q0 -22 12.5 -36.5t37.5 -14.5zM51 169v8l159 29v-30q0 -39 35 -39q19 0 32 12t28 43l5 11l-295 507h201l181 -327l156 327h182l-274 -549
q-47 -93 -96 -134.5t-131 -41.5q-90 0 -136.5 48t-46.5 136z" />
    <glyph glyph-name="uni040F" unicode="&#x40f;" horiz-adv-x="800" 
d="M86 710h170v-561h288v561h170v-710h-237v-162h-153v162h-238v710z" />
    <glyph glyph-name="uni0410" unicode="&#x410;" horiz-adv-x="766" 
d="M569 0l-46 123h-290l-46 -123h-169l272 711h185l274 -711h-180zM286 265h184l-92 247z" />
    <glyph glyph-name="uni0411" unicode="&#x411;" horiz-adv-x="738" 
d="M426 444q125 0 194 -56.5t69 -160.5q0 -111 -68.5 -169t-194.5 -58h-340v710h542v-148h-373v-118h171zM408 307h-153v-159h153q107 0 107 79q0 80 -107 80z" />
    <glyph glyph-name="uni0412" unicode="&#x412;" horiz-adv-x="764" 
d="M86 0v710h380q109 0 168.5 -51.5t59.5 -138.5q0 -56 -33 -94t-78 -51q55 -15 92 -59t37 -113q0 -94 -64 -148.5t-185 -54.5h-377zM438 573h-185v-140h185q83 0 83 70t-83 70zM433 296h-180v-159h180q106 0 106 81q0 78 -106 78z" />
    <glyph glyph-name="uni0413" unicode="&#x413;" horiz-adv-x="689" 
d="M86 0v710h569v-148h-399v-562h-170z" />
    <glyph glyph-name="uni0414" unicode="&#x414;" horiz-adv-x="802" 
d="M160 710h529v-561h104v-311h-153v162h-484v-162h-153v311h75q39 65 53 224zM520 149v412h-214l-18 -195q-12 -150 -45 -217h277z" />
    <glyph glyph-name="uni0415" unicode="&#x415;" horiz-adv-x="711" 
d="M86 0v710h552v-140h-382v-128h314v-143h-314v-152h416v-147h-586z" />
    <glyph glyph-name="uni0416" unicode="&#x416;" horiz-adv-x="1073" 
d="M3 0l290 367l-282 343h200l241 -297v297h163v-298l242 298h196l-278 -337l295 -373h-211l-244 309v-309h-163v308l-243 -308h-206z" />
    <glyph glyph-name="uni0417" unicode="&#x417;" horiz-adv-x="714" 
d="M363 722q134 0 207 -53.5t73 -143.5q0 -59 -33 -98t-78 -52q55 -15 92 -57.5t37 -107.5q0 -104 -78.5 -163t-221.5 -59q-131 0 -211 54t-107 136l153 51q38 -91 163 -91q60 0 94 21.5t34 63.5q0 73 -101 73h-94v137h90q88 0 88 68q0 71 -108 71q-124 0 -165 -93l-150 52
q30 83 111 137t205 54z" />
    <glyph glyph-name="uni0418" unicode="&#x418;" horiz-adv-x="820" 
d="M86 0v710h170v-459l308 459h170v-710h-170v458l-308 -458h-170z" />
    <glyph glyph-name="uni0419" unicode="&#x419;" horiz-adv-x="820" 
d="M410 873q25 0 37.5 14.5t12.5 36.5v10l123 -14v-3q0 -69 -44 -112.5t-129 -43.5t-129 43.5t-44 112.5v3l123 14v-10q0 -22 12.5 -36.5t37.5 -14.5zM86 0v710h170v-459l308 459h170v-710h-170v458l-308 -458h-170z" />
    <glyph glyph-name="uni041A" unicode="&#x41a;" horiz-adv-x="756" 
d="M86 0v710h170v-301l270 301h210l-305 -338l322 -372h-224l-273 312v-312h-170z" />
    <glyph glyph-name="uni041B" unicode="&#x41b;" horiz-adv-x="800" 
d="M311 295q-14 -160 -69 -232t-178 -72h-8l-23 169h10q56 0 79.5 32.5t31.5 115.5l35 402h525v-710h-170v561h-209z" />
    <glyph glyph-name="uni041C" unicode="&#x41c;" horiz-adv-x="964" 
d="M86 0v710h254l147 -433l146 433h244v-710h-164v529l-179 -530h-113l-178 525v-524h-157z" />
    <glyph glyph-name="uni041D" unicode="&#x41d;" horiz-adv-x="810" 
d="M86 0v710h170v-279h298v279h170v-710h-170v281h-298v-281h-170z" />
    <glyph glyph-name="uni041E" unicode="&#x41e;" horiz-adv-x="783" 
d="M392 -12q-149 0 -244 100t-95 267q0 168 95 267.5t244 99.5q148 0 243 -99.5t95 -267.5q0 -167 -95.5 -267t-242.5 -100zM392 140q78 0 122 60t44 155q0 94 -44.5 154.5t-121.5 60.5t-121.5 -60.5t-44.5 -154.5q0 -95 44 -155t122 -60z" />
    <glyph glyph-name="uni041F" unicode="&#x41f;" horiz-adv-x="800" 
d="M86 0v710h628v-710h-170v561h-288v-561h-170z" />
    <glyph glyph-name="uni0420" unicode="&#x420;" horiz-adv-x="746" 
d="M86 0v710h360q122 0 188.5 -58t66.5 -169q0 -110 -67 -169.5t-188 -59.5h-191v-254h-169zM429 562h-174v-160h174q48 0 73 21t25 59q0 80 -98 80z" />
    <glyph glyph-name="uni0421" unicode="&#x421;" horiz-adv-x="717" 
d="M381 -12q-147 0 -237.5 100.5t-90.5 266.5q0 164 90.5 265.5t237.5 101.5q58 0 106.5 -14t79 -34.5t54 -48t34.5 -49.5t17 -43l-156 -54q-43 90 -135 90q-72 0 -112.5 -60t-40.5 -154t40.5 -154t112.5 -60q89 0 137 88l152 -51q-6 -19 -16 -40t-33 -49t-53.5 -49.5
t-79.5 -36.5t-107 -15z" />
    <glyph glyph-name="uni0422" unicode="&#x422;" horiz-adv-x="725" 
d="M278 0v562h-243v148h655v-148h-243v-562h-169z" />
    <glyph glyph-name="uni0423" unicode="&#x423;" horiz-adv-x="737" 
d="M51 169v8l159 29v-30q0 -39 35 -39q19 0 32 12t28 43l5 11l-295 507h201l181 -327l156 327h182l-274 -549q-47 -93 -96 -134.5t-131 -41.5q-90 0 -136.5 48t-46.5 136z" />
    <glyph glyph-name="uni0424" unicode="&#x424;" horiz-adv-x="1050" 
d="M320 114q-131 0 -203 65t-72 184q0 121 71.5 185t202.5 64h121v108h169v-108h122q131 0 202.5 -64t71.5 -185q0 -119 -72 -184t-203 -65h-121v-124h-169v124h-120zM440 261v203h-104q-116 0 -116 -101q0 -47 29.5 -74.5t86.5 -27.5h104zM714 464h-105v-203h105
q56 0 86 27.5t30 74.5q0 101 -116 101z" />
    <glyph glyph-name="uni0425" unicode="&#x425;" horiz-adv-x="792" 
d="M212 0h-201l281 362l-268 348h221l156 -207l161 207h203l-264 -339l280 -371h-211l-178 231z" />
    <glyph glyph-name="uni0426" unicode="&#x426;" horiz-adv-x="827" 
d="M544 149v561h170v-561h103v-311h-153v162h-578v710h170v-561h288z" />
    <glyph glyph-name="uni0427" unicode="&#x427;" horiz-adv-x="774" 
d="M518 0v258q-79 -17 -165 -17q-139 0 -211 65.5t-72 211.5v192h169v-191q0 -70 33 -100t101 -30q35 0 71 4.5t55 8.5l19 4v304h169v-710h-169z" />
    <glyph glyph-name="uni0428" unicode="&#x428;" horiz-adv-x="1092" 
d="M86 710h170v-561h205v561h170v-561h204v561h170v-710h-919v710z" />
    <glyph glyph-name="uni0429" unicode="&#x429;" horiz-adv-x="1118" 
d="M86 710h170v-561h205v561h170v-561h204v561h170v-561h103v-311h-153v162h-869v710z" />
    <glyph glyph-name="uni042A" unicode="&#x42a;" horiz-adv-x="869" 
d="M34 562v148h356v-228h168q127 0 196.5 -62.5t69.5 -178.5q0 -117 -69.5 -179t-196.5 -62h-337v562h-187zM541 335h-151v-187h151q109 0 109 93q0 44 -27.5 69t-81.5 25z" />
    <glyph glyph-name="uni042B" unicode="&#x42b;" horiz-adv-x="1022" 
d="M423 482q127 0 196.5 -62.5t69.5 -178.5q0 -117 -69.5 -179t-196.5 -62h-337v710h169v-228h168zM765 0v710h170v-710h-170zM406 335h-151v-187h151q109 0 109 93q0 44 -27.5 69t-81.5 25z" />
    <glyph glyph-name="uni042C" unicode="&#x42c;" horiz-adv-x="735" 
d="M423 482q127 0 196.5 -62.5t69.5 -178.5q0 -117 -69.5 -179t-196.5 -62h-337v710h169v-228h168zM406 335h-151v-187h151q109 0 109 93q0 44 -27.5 69t-81.5 25z" />
    <glyph glyph-name="uni042D" unicode="&#x42d;" horiz-adv-x="717" 
d="M336 -12q-58 0 -107 15t-79.5 36.5t-53.5 49.5t-33 49t-16 40l152 51q48 -88 137 -88q58 0 96 39.5t51 107.5h-209v136h209q6 -31 6 -69q0 -35 -6 -67h64v136h-64q-14 67 -51.5 106t-95.5 39q-92 0 -135 -90l-156 54q6 21 17 43t34.5 49.5t54 48t79 34.5t106.5 14
q147 0 237.5 -101.5t90.5 -265.5q0 -166 -90.5 -266.5t-237.5 -100.5z" />
    <glyph glyph-name="uni042E" unicode="&#x42e;" horiz-adv-x="1047" 
d="M86 0v710h170v-279h80q21 136 109.5 213.5t216.5 77.5q145 0 238.5 -99.5t93.5 -267.5q0 -167 -93.5 -267t-238.5 -100q-128 0 -217 79t-110 214h-79v-281h-170zM662 140q75 0 117 60t42 155q0 94 -42.5 154.5t-116.5 60.5t-116.5 -60.5t-42.5 -154.5q0 -95 42 -155
t117 -60z" />
    <glyph glyph-name="uni042F" unicode="&#x42f;" horiz-adv-x="776" 
d="M224 0h-183l165 281q-130 52 -130 198q0 113 67 172t189 59h357v-710h-169v252h-150zM349 394h171v170h-171q-99 0 -99 -85t99 -85z" />
    <glyph glyph-name="uni0430" unicode="&#x430;" horiz-adv-x="604" 
d="M532 164q0 -39 33 -42v-124h-76q-82 0 -105 62q-49 -72 -152 -72q-87 0 -141.5 49t-54.5 126t51.5 118.5t143.5 41.5h143v5q0 35 -23 57t-64 22q-61 0 -85 -47l-149 36q6 18 19.5 38t39 43.5t70.5 38.5t102 15q123 0 185.5 -56t62.5 -155v-156zM280 102q40 0 67 22t27 56
v41h-109q-31 0 -49.5 -14t-18.5 -40q0 -29 22.5 -47t60.5 -18z" />
    <glyph glyph-name="uni0431" unicode="&#x431;" horiz-adv-x="620" 
d="M50 280q0 71 3 116q12 145 77.5 217t217.5 99q132 23 176 39l20 -135q-46 -19 -188 -42q-85 -16 -121 -49t-46 -104q50 76 158 76q105 0 167.5 -69.5t62.5 -181.5q0 -117 -73.5 -188t-190.5 -71q-123 0 -193 76t-70 217zM313 124q48 0 74.5 33t26.5 85t-26.5 85t-74.5 33
t-74.5 -33t-26.5 -85t26.5 -85t74.5 -33z" />
    <glyph glyph-name="uni0432" unicode="&#x432;" horiz-adv-x="609" 
d="M70 0v518h305q81 0 128 -37t47 -101q0 -45 -23.5 -74t-56.5 -39q40 -10 67 -40.5t27 -80.5q0 -66 -49.5 -106t-137.5 -40h-307zM331 405h-100v-91h100q58 0 58 45q0 46 -58 46zM339 208h-108v-95h108q62 0 62 48q0 47 -62 47z" />
    <glyph glyph-name="uni0433" unicode="&#x433;" horiz-adv-x="483" 
d="M70 0v518h383v-135h-222v-383h-161z" />
    <glyph glyph-name="uni0434" unicode="&#x434;" horiz-adv-x="628" 
d="M143 -149h-145v283h54q41 68 53 218l15 166h418v-384h87v-283h-145v149h-337v-149zM376 134v249h-119l-4 -39q-14 -155 -43 -210h166z" />
    <glyph glyph-name="uni0435" unicode="&#x435;" horiz-adv-x="592" 
d="M298 531q118 0 186.5 -73.5t68.5 -198.5v-28h-351q3 -52 31.5 -83.5t75.5 -31.5q60 0 89 49l147 -34q-6 -21 -20 -43t-40.5 -46t-72 -39.5t-103.5 -15.5q-123 0 -194.5 75t-71.5 197t70 197t185 75zM298 414q-39 0 -63.5 -23.5t-30.5 -63.5h187q-7 41 -31 64t-62 23z" />
    <glyph glyph-name="uni0436" unicode="&#x436;" horiz-adv-x="862" 
d="M349 0v222l-162 -222h-196l202 271l-181 247h186l151 -210v210h162v-210l151 210h187l-182 -246l204 -272h-197l-163 223v-223h-162z" />
    <glyph glyph-name="uni0437" unicode="&#x437;" horiz-adv-x="570" 
d="M288 110q84 0 84 50q0 22 -16 35t-46 13h-81v107h73q58 0 58 43q0 47 -71 47q-73 0 -106 -69l-140 43q23 63 83.5 107.5t163.5 44.5q110 0 170.5 -41t60.5 -111q0 -43 -23 -72t-56 -39q40 -11 66.5 -41t26.5 -78q0 -74 -66.5 -118t-180.5 -44q-58 0 -104.5 14t-75.5 38
t-46 49t-26 52l143 43q10 -28 36.5 -50.5t72.5 -22.5z" />
    <glyph glyph-name="uni0438" unicode="&#x438;" horiz-adv-x="645" 
d="M70 0v518h158v-294l189 294h158v-518h-158v294l-189 -294h-158z" />
    <glyph glyph-name="uni0439" unicode="&#x439;" horiz-adv-x="645" 
d="M323 688q23 0 34.5 14.5t11.5 36.5v16l122 -11v-8q0 -70 -42.5 -114.5t-125.5 -44.5t-125.5 44.5t-42.5 114.5v8l122 11v-16q0 -51 46 -51zM70 0v518h158v-294l189 294h158v-518h-158v294l-189 -294h-158z" />
    <glyph glyph-name="uni043A" unicode="&#x43a;" horiz-adv-x="609" 
d="M70 0v518h162v-210l171 210h193l-201 -245l223 -273h-203l-183 222v-222h-162z" />
    <glyph glyph-name="uni043B" unicode="&#x43b;" horiz-adv-x="617" 
d="M108 240l27 278h412v-518h-162v383h-114l-15 -162q-12 -121 -52 -175.5t-137 -54.5h-16l-24 148h12q37 0 50.5 21t18.5 80z" />
    <glyph glyph-name="uni043C" unicode="&#x43c;" horiz-adv-x="806" 
d="M70 0v518h238l98 -273l97 273h234v-518h-158v366l-128 -366h-104l-129 365v-365h-148z" />
    <glyph glyph-name="uni043D" unicode="&#x43d;" horiz-adv-x="635" 
d="M70 0v518h161v-186h173v186h161v-518h-161v198h-173v-198h-161z" />
    <glyph glyph-name="uni043E" unicode="&#x43e;" horiz-adv-x="612" 
d="M306 531q117 0 190.5 -74.5t73.5 -197.5q0 -122 -74 -197t-190 -75t-189.5 75t-73.5 197q0 123 73.5 197.5t189.5 74.5zM306 124q49 0 75 37.5t26 97.5q0 59 -26 96.5t-75 37.5q-48 0 -74.5 -37.5t-26.5 -96.5q0 -60 26 -97.5t75 -37.5z" />
    <glyph glyph-name="uni043F" unicode="&#x43f;" horiz-adv-x="629" 
d="M70 0v518h489v-518h-162v383h-166v-383h-161z" />
    <glyph glyph-name="uni0440" unicode="&#x440;" horiz-adv-x="639" 
d="M231 70v-270h-161v718h161v-75q6 13 20 30t50 36.5t80 19.5q94 0 154 -72t60 -198t-60 -198t-154 -72q-44 0 -80 18.5t-49 33.5t-21 29zM229 259q0 -60 27.5 -96t73.5 -36q47 0 74 36t27 96t-27 96t-74 36q-46 0 -73.5 -36t-27.5 -96z" />
    <glyph glyph-name="uni0441" unicode="&#x441;" horiz-adv-x="564" 
d="M377 336q-26 55 -81 55q-41 0 -65.5 -36.5t-24.5 -95.5t24.5 -96t66.5 -37q53 0 81 57l145 -43q-5 -19 -18 -41.5t-38.5 -49.5t-71 -44.5t-102.5 -17.5q-109 0 -179.5 75t-70.5 197t70 197t178 75q57 0 101.5 -15.5t70 -41t39.5 -48.5t21 -47z" />
    <glyph glyph-name="uni0442" unicode="&#x442;" horiz-adv-x="548" 
d="M193 0v383h-163v135h488v-135h-163v-383h-162z" />
    <glyph glyph-name="uni0443" unicode="&#x443;" horiz-adv-x="576" 
d="M141 -200l77 202l-213 516h182l111 -300l110 300h163l-267 -718h-163z" />
    <glyph glyph-name="uni0444" unicode="&#x444;" horiz-adv-x="806" 
d="M322 -200v188q-125 8 -202 82t-77 189t77 189t202 82v206h163v-206q125 -8 202 -82t77 -189q0 -114 -77.5 -188.5t-201.5 -82.5v-188h-163zM601 259q0 53 -30 89t-86 43v-265q56 7 86 43.5t30 89.5zM205 259q0 -52 30.5 -88t86.5 -45v265q-56 -8 -86.5 -44t-30.5 -88z
" />
    <glyph glyph-name="uni0445" unicode="&#x445;" horiz-adv-x="611" 
d="M187 0h-183l206 256l-204 262h207l101 -133l107 133h184l-202 -250l203 -268h-197l-109 140z" />
    <glyph glyph-name="uni0446" unicode="&#x446;" horiz-adv-x="649" 
d="M397 134v384h162v-384h86v-283h-144v149h-431v518h161v-384h166z" />
    <glyph glyph-name="uni0447" unicode="&#x447;" horiz-adv-x="610" 
d="M379 0v170q-45 -8 -108 -8q-108 0 -161.5 50.5t-53.5 165.5v140h162v-135q0 -47 17.5 -68t63.5 -21q21 0 41 2t30 4l9 2v216h161v-518h-161z" />
    <glyph glyph-name="uni0448" unicode="&#x448;" horiz-adv-x="891" 
d="M70 518h161v-384h133v384h162v-384h133v384h162v-518h-751v518z" />
    <glyph glyph-name="uni0449" unicode="&#x449;" horiz-adv-x="911" 
d="M70 518h161v-384h133v384h162v-384h133v384h162v-384h86v-283h-144v149h-693v518z" />
    <glyph glyph-name="uni044A" unicode="&#x44a;" horiz-adv-x="674" 
d="M27 518h291v-156h120q107 0 156.5 -49t49.5 -131q0 -77 -50.5 -129.5t-154.5 -52.5h-282v383h-130v135zM410 238h-92v-114h92q71 0 71 58q0 56 -71 56z" />
    <glyph glyph-name="uni044B" unicode="&#x44b;" horiz-adv-x="843" 
d="M351 362q107 0 156.5 -49t49.5 -131q0 -77 -50.5 -129.5t-154.5 -52.5h-282v518h161v-156h120zM611 0v518h163v-518h-163zM323 238h-92v-114h92q71 0 71 58q0 56 -71 56z" />
    <glyph glyph-name="uni044C" unicode="&#x44c;" horiz-adv-x="587" 
d="M351 362q107 0 156.5 -49t49.5 -131q0 -77 -50.5 -129.5t-154.5 -52.5h-282v518h161v-156h120zM323 238h-92v-114h92q71 0 71 58q0 56 -71 56z" />
    <glyph glyph-name="uni044D" unicode="&#x44d;" horiz-adv-x="559" 
d="M178 336l-142 43q7 24 21 47t39.5 48.5t70 41t101.5 15.5q108 0 178 -75t70 -197t-70.5 -197t-179.5 -75q-57 0 -102.5 17.5t-71 44.5t-38.5 49.5t-18 41.5l139 42q27 -69 87 -69q34 0 56.5 23.5t30.5 63.5h-128v121h128q-8 38 -31 61t-56 23q-19 0 -34 -6.5t-25 -19.5
t-14.5 -21t-10.5 -22z" />
    <glyph glyph-name="uni044E" unicode="&#x44e;" horiz-adv-x="850" 
d="M70 0v518h161v-186h65q20 92 88 145.5t164 53.5q115 0 187.5 -74.5t72.5 -197.5q0 -122 -72.5 -197t-187.5 -75q-99 0 -168 57t-87 154h-62v-198h-161zM548 124q46 0 71.5 37.5t25.5 97.5q0 59 -25.5 96.5t-71.5 37.5t-71.5 -37.5t-25.5 -96.5q0 -60 25.5 -97.5
t71.5 -37.5z" />
    <glyph glyph-name="uni044F" unicode="&#x44f;" horiz-adv-x="618" 
d="M548 0h-162v163h-67l-102 -163h-179l123 191q-104 36 -104 148q0 78 49 128.5t150 50.5h292v-518zM285 287h101v107h-101q-64 0 -64 -55q0 -52 64 -52z" />
    <glyph glyph-name="uni0451" unicode="&#x451;" horiz-adv-x="592" 
d="M105 585v158h159v-158h-159zM332 585v158h159v-158h-159zM298 531q118 0 186.5 -73.5t68.5 -198.5v-28h-351q3 -52 31.5 -83.5t75.5 -31.5q60 0 89 49l147 -34q-6 -21 -20 -43t-40.5 -46t-72 -39.5t-103.5 -15.5q-123 0 -194.5 75t-71.5 197t70 197t185 75zM298 414
q-39 0 -63.5 -23.5t-30.5 -63.5h187q-7 41 -31 64t-62 23z" />
    <glyph glyph-name="uni0452" unicode="&#x452;" horiz-adv-x="637" 
d="M70 0v570h-70v106h70v60h161v-60h161v-106h-161v-119q17 30 55.5 54t92.5 24q87 0 139.5 -57.5t52.5 -153.5v-348q0 -89 -39.5 -129.5t-121.5 -40.5h-147v125h77q38 0 53.5 15.5t15.5 51.5v296q0 46 -23.5 72.5t-64.5 26.5q-42 0 -66 -26.5t-24 -72.5v-288h-161z" />
    <glyph glyph-name="uni0453" unicode="&#x453;" horiz-adv-x="483" 
d="M184 582l101 190h163l-108 -190h-156zM70 0v518h383v-135h-222v-383h-161z" />
    <glyph glyph-name="uni0454" unicode="&#x454;" horiz-adv-x="559" 
d="M380 336q-5 13 -10 22t-14.5 21.5t-25 19t-34.5 6.5q-32 0 -55 -23t-31 -61h127v-121h-128q8 -40 31 -63.5t57 -23.5q60 0 87 69l139 -42q-5 -19 -18 -41.5t-38.5 -49.5t-71 -44.5t-102.5 -17.5q-109 0 -179.5 75t-70.5 197t70 197t178 75q57 0 101.5 -15.5t70 -41
t39.5 -48.5t21 -47z" />
    <glyph glyph-name="uni0455" unicode="&#x455;" horiz-adv-x="561" 
d="M305 193q-8 1 -30.5 3.5t-28.5 2.5q-203 21 -203 168q0 77 61.5 121t164.5 44q106 0 160.5 -35.5t71.5 -79.5l-143 -39q-28 40 -87 40q-69 0 -69 -43q0 -37 57 -41q3 0 24.5 -2t28.5 -3q109 -8 159.5 -49t50.5 -121q0 -79 -62.5 -126t-174.5 -47q-60 0 -107.5 13.5
t-75.5 35t-43 40t-23 38.5l146 40q33 -50 104 -50q35 0 54.5 12.5t19.5 32.5t-12.5 31t-42.5 14z" />
    <glyph glyph-name="uni0456" unicode="&#x456;" horiz-adv-x="303" 
d="M67 585v160h169v-160h-169zM70 0v518h163v-518h-163z" />
    <glyph glyph-name="uni0457" unicode="&#x457;" horiz-adv-x="303" 
d="M14 585v160h119v-160h-119zM170 585v160h119v-160h-119zM70 0v518h163v-518h-163z" />
    <glyph glyph-name="uni0458" unicode="&#x458;" horiz-adv-x="305" 
d="M69 585v160h169v-160h-169zM235 -30q0 -89 -40 -129.5t-122 -40.5h-148v125h78q38 0 53.5 15.5t15.5 51.5v526h163v-548z" />
    <glyph glyph-name="uni0459" unicode="&#x459;" horiz-adv-x="883" 
d="M108 240l27 278h399v-156h113q106 0 156 -49t50 -131q0 -77 -50.5 -129.5t-154.5 -52.5h-276v383h-101l-15 -162q-12 -121 -52 -175.5t-137 -54.5h-16l-24 148h12q37 0 50.5 21t18.5 80zM619 238h-85v-114h85q71 0 71 58q0 56 -71 56z" />
    <glyph glyph-name="uni045A" unicode="&#x45a;" horiz-adv-x="915" 
d="M70 0v518h161v-160h173v160h161v-160h117q105 0 154 -48t49 -129q0 -77 -50 -129t-152 -52h-279v223h-173v-223h-161zM654 234h-89v-110h89q67 0 67 57q0 53 -67 53z" />
    <glyph glyph-name="uni045B" unicode="&#x45b;" horiz-adv-x="637" 
d="M70 0v570h-70v106h70v60h161v-60h161v-106h-161v-120q17 30 55.5 54.5t92.5 24.5q87 0 139.5 -58.5t52.5 -154.5v-316h-162v286q0 47 -23.5 74t-64.5 27q-42 0 -66 -27t-24 -74v-286h-161z" />
    <glyph glyph-name="uni045C" unicode="&#x45c;" horiz-adv-x="609" 
d="M233 582l101 190h163l-108 -190h-156zM70 0v518h162v-210l171 210h193l-201 -245l223 -273h-203l-183 222v-222h-162z" />
    <glyph glyph-name="uni045E" unicode="&#x45e;" horiz-adv-x="576" 
d="M298 693q23 0 34.5 14.5t11.5 36.5v16l122 -11v-8q0 -70 -42.5 -114.5t-125.5 -44.5t-125.5 44.5t-42.5 114.5v8l122 11v-16q0 -51 46 -51zM141 -200l77 202l-213 516h182l111 -300l110 300h163l-267 -718h-163z" />
    <glyph glyph-name="uni045F" unicode="&#x45f;" horiz-adv-x="629" 
d="M242 -149v149h-172v518h161v-384h166v384h162v-518h-172v-149h-145z" />
    <glyph glyph-name="uni0490" unicode="&#x490;" horiz-adv-x="689" 
d="M86 0v710h416v169h153v-317h-399v-562h-170z" />
    <glyph glyph-name="uni0491" unicode="&#x491;" horiz-adv-x="483" 
d="M70 0v518h238v149h145v-284h-222v-383h-161z" />
    <glyph glyph-name="uni0492" unicode="&#x492;" horiz-adv-x="711" 
d="M108 0v282h-95v140h95v288h569v-148h-399v-140h201v-140h-201v-282h-170z" />
    <glyph glyph-name="uni0493" unicode="&#x493;" horiz-adv-x="486" 
d="M73 0v164h-61v132h61v222h383v-135h-222v-87h131v-132h-131v-164h-161z" />
    <glyph glyph-name="uni0496" unicode="&#x496;" horiz-adv-x="1073" 
d="M3 0l290 367l-282 343h200l241 -297v297h163v-298l242 298h196l-278 -337l177 -224h118v-311h-153v162h-58l-244 309v-309h-163v308l-243 -308h-206z" />
    <glyph glyph-name="uni0497" unicode="&#x497;" horiz-adv-x="863" 
d="M349 0v222l-162 -222h-196l202 270l-183 248h188l151 -210v210h162v-210l151 210h188l-182 -247l103 -137h110v-283h-145v149h-62l-163 223v-223h-162z" />
    <glyph glyph-name="uni0498" unicode="&#x498;" horiz-adv-x="714" 
d="M363 722q134 0 207 -53.5t73 -143.5q0 -59 -33 -98t-78 -52q55 -15 92 -57.5t37 -107.5q0 -86 -55.5 -142.5t-157.5 -72.5v-157h-153v154q-102 13 -165.5 64.5t-86.5 121.5l153 51q38 -91 163 -91q60 0 94 21.5t34 63.5q0 73 -101 73h-94v137h90q88 0 88 68q0 71 -108 71
q-124 0 -165 -93l-150 52q30 83 111 137t205 54z" />
    <glyph glyph-name="uni0499" unicode="&#x499;" horiz-adv-x="570" 
d="M227 -149v141q-82 12 -128.5 54t-62.5 94l143 43q10 -28 36.5 -50.5t72.5 -22.5q84 0 84 50q0 22 -16 35t-46 13h-81v107h73q58 0 58 43q0 47 -71 47q-73 0 -106 -69l-140 43q23 63 83.5 107.5t163.5 44.5q110 0 170.5 -41t60.5 -111q0 -43 -23 -72t-56 -39
q40 -11 66.5 -41t26.5 -78q0 -59 -43 -100t-120 -55v-143h-145z" />
    <glyph glyph-name="uni049A" unicode="&#x49a;" horiz-adv-x="756" 
d="M86 0v710h170v-301l270 301h210l-305 -338l193 -223h135v-311h-153v162h-77l-273 312v-312h-170z" />
    <glyph glyph-name="uni049B" unicode="&#x49b;" horiz-adv-x="609" 
d="M70 0v518h162v-210l171 210h194l-202 -246l113 -138h120v-283h-145v149h-68l-183 222v-222h-162z" />
    <glyph glyph-name="uni049C" unicode="&#x49c;" horiz-adv-x="814" 
d="M86 0v710h170v-710h-170zM438 153h-129v405h129v-142l182 294h174l-211 -332l228 -378h-189l-184 305v-152z" />
    <glyph glyph-name="uni049D" unicode="&#x49d;" horiz-adv-x="690" 
d="M370 96h-104v338h104v-117l132 201h174l-165 -244l188 -274h-186l-143 214v-118zM70 0v518h162v-518h-162z" />
    <glyph glyph-name="uni04A0" unicode="&#x4a0;" horiz-adv-x="989" 
d="M319 0v562h-285v148h455v-301l270 301h210l-305 -338l322 -372h-224l-273 312v-312h-170z" />
    <glyph glyph-name="uni04A1" unicode="&#x4a1;" horiz-adv-x="734" 
d="M195 0v383h-165v135h327v-210l171 210h193l-201 -245l223 -273h-203l-183 222v-222h-162z" />
    <glyph glyph-name="uni04A2" unicode="&#x4a2;" horiz-adv-x="837" 
d="M86 0v710h170v-279h298v279h170v-561h103v-311h-153v162h-120v281h-298v-281h-170z" />
    <glyph glyph-name="uni04A3" unicode="&#x4a3;" horiz-adv-x="655" 
d="M70 0v518h161v-186h173v186h161v-384h87v-283h-145v149h-103v198h-173v-198h-161z" />
    <glyph glyph-name="uni04AA" unicode="&#x4aa;" horiz-adv-x="717" 
d="M670 178q-6 -21 -18 -43.5t-35 -51t-61.5 -52t-87.5 -34.5v-159h-153v156q-120 22 -191 118.5t-71 242.5q0 164 90.5 265.5t237.5 101.5q58 0 106.5 -14t79 -34.5t54 -48t34.5 -49.5t17 -43l-156 -54q-43 90 -135 90q-72 0 -112.5 -60t-40.5 -154t40.5 -154t112.5 -60
q89 0 137 88z" />
    <glyph glyph-name="uni04AB" unicode="&#x4ab;" horiz-adv-x="559" 
d="M228 -149v144q-84 21 -134.5 91t-50.5 173q0 122 70 197t178 75q57 0 101.5 -15.5t70 -41t39.5 -48.5t21 -47l-146 -43q-26 55 -81 55q-41 0 -65.5 -36.5t-24.5 -95.5t24.5 -96t66.5 -37q53 0 81 57l145 -43q-5 -21 -19 -45.5t-49 -54.5t-82 -43v-146h-145z" />
    <glyph glyph-name="uni04AE" unicode="&#x4ae;" horiz-adv-x="723" 
d="M277 289l-275 421h212l159 -250l159 250h189l-265 -425v-285h-179v289z" />
    <glyph glyph-name="uni04AF" unicode="&#x4af;" horiz-adv-x="573" 
d="M212 -200v200l-207 518h183l107 -309l108 309h165l-194 -518v-200h-162z" />
    <glyph glyph-name="uni04B0" unicode="&#x4b0;" horiz-adv-x="723" 
d="M105 150v140h171l-274 420h212l159 -250l159 250h189l-262 -420h166v-140h-169v-150h-179v150h-172z" />
    <glyph glyph-name="uni04B1" unicode="&#x4b1;" horiz-adv-x="573" 
d="M88 0h124l-207 518h183l107 -309l108 309h165l-194 -518h123v-118h-123v-82h-162v82h-124v118z" />
    <glyph glyph-name="uni04B2" unicode="&#x4b2;" horiz-adv-x="792" 
d="M212 0h-201l281 362l-268 348h221l156 -207l161 207h203l-264 -339l168 -222h124v-311h-153v162h-70l-178 231z" />
    <glyph glyph-name="uni04B3" unicode="&#x4b3;" horiz-adv-x="611" 
d="M187 0h-183l206 256l-204 262h207l101 -133l107 133h184l-202 -250l102 -134h114v-283h-144v149h-66l-109 140z" />
    <glyph glyph-name="uni04B6" unicode="&#x4b6;" horiz-adv-x="800" 
d="M518 0v258q-79 -17 -165 -17q-139 0 -211 65.5t-72 211.5v192h169v-191q0 -70 33 -100t101 -30q35 0 71 4.5t55 8.5l19 4v304h169v-561h104v-311h-153v162h-120z" />
    <glyph glyph-name="uni04B7" unicode="&#x4b7;" horiz-adv-x="630" 
d="M379 302v216h161v-384h87v-283h-145v149h-103v170q-45 -8 -108 -8q-108 0 -161.5 50.5t-53.5 165.5v140h162v-135q0 -47 17.5 -68t63.5 -21q21 0 41 2t30 4z" />
    <glyph glyph-name="uni04B8" unicode="&#x4b8;" horiz-adv-x="787" 
d="M453 113h-130v129q-125 6 -189 71.5t-64 199.5v197h169v-200q0 -108 84 -119v147h130v-147l78 10v309h170v-710h-170v255q-32 -5 -78 -9v-133z" />
    <glyph glyph-name="uni04B9" unicode="&#x4b9;" horiz-adv-x="644" 
d="M369 66h-104v97q-106 5 -157.5 56t-51.5 159v140h162v-143q0 -68 47 -78v107h104v-108l43 6v216h162v-518h-162v170q-17 -3 -43 -5v-99z" />
    <glyph glyph-name="uni04BA" unicode="&#x4ba;" horiz-adv-x="774" 
d="M256 710v-258q79 17 165 17q139 0 211 -65.5t72 -211.5v-192h-169v191q0 70 -33 100t-101 30q-35 0 -71 -4.5t-55 -8.5l-19 -4v-304h-169v710h169z" />
    <glyph glyph-name="uni04BB" unicode="&#x4bb;" horiz-adv-x="637" 
d="M70 0v736h161v-286q17 30 55.5 54.5t92.5 24.5q87 0 139.5 -58.5t52.5 -154.5v-316h-162v286q0 47 -23.5 74t-64.5 27q-42 0 -66 -27t-24 -74v-286h-161z" />
    <glyph glyph-name="uni04C0" unicode="&#x4c0;" horiz-adv-x="346" 
d="M88 0v710h170v-710h-170z" />
    <glyph glyph-name="uni04C1" unicode="&#x4c1;" horiz-adv-x="1073" 
d="M534 873q25 0 37.5 14.5t12.5 36.5v10l123 -14v-3q0 -69 -44 -112.5t-129 -43.5t-129 43.5t-44 112.5v3l123 14v-10q0 -22 12.5 -36.5t37.5 -14.5zM3 0l290 367l-282 343h200l241 -297v297h163v-298l242 298h196l-278 -337l295 -373h-211l-244 309v-309h-163v308
l-243 -308h-206z" />
    <glyph glyph-name="uni04C2" unicode="&#x4c2;" horiz-adv-x="862" 
d="M431 688q23 0 34.5 14.5t11.5 36.5v16l122 -11v-8q0 -70 -42.5 -114.5t-125.5 -44.5t-125.5 44.5t-42.5 114.5v8l122 11v-16q0 -51 46 -51zM349 0v222l-162 -222h-196l202 271l-181 247h186l151 -210v210h162v-210l151 210h187l-182 -246l204 -272h-197l-163 223v-223
h-162z" />
    <glyph glyph-name="uni04CF" unicode="&#x4cf;" horiz-adv-x="288" 
d="M72 0v736h163v-736h-163z" />
    <glyph glyph-name="uni04D0" unicode="&#x4d0;" horiz-adv-x="766" 
d="M378 873q25 0 37.5 14.5t12.5 36.5v10l123 -14v-3q0 -69 -44 -112.5t-129 -43.5t-129 43.5t-44 112.5v3l123 14v-10q0 -22 12.5 -36.5t37.5 -14.5zM569 0l-46 123h-290l-46 -123h-169l272 711h185l274 -711h-180zM286 265h184l-92 247z" />
    <glyph glyph-name="uni04D1" unicode="&#x4d1;" horiz-adv-x="604" 
d="M291 687q23 0 34.5 14.5t11.5 36.5v16l122 -11v-8q0 -70 -42.5 -114.5t-125.5 -44.5t-125.5 44.5t-42.5 114.5v8l122 11v-16q0 -51 46 -51zM532 164q0 -39 33 -42v-124h-76q-82 0 -105 62q-49 -72 -152 -72q-87 0 -141.5 49t-54.5 126t51.5 118.5t143.5 41.5h143v5
q0 35 -23 57t-64 22q-61 0 -85 -47l-149 36q6 18 19.5 38t39 43.5t70.5 38.5t102 15q123 0 185.5 -56t62.5 -155v-156zM280 102q40 0 67 22t27 56v41h-109q-31 0 -49.5 -14t-18.5 -40q0 -29 22.5 -47t60.5 -18z" />
    <glyph glyph-name="uni04D6" unicode="&#x4d6;" horiz-adv-x="711" 
d="M368 873q25 0 37.5 14.5t12.5 36.5v10l123 -14v-3q0 -69 -44 -112.5t-129 -43.5t-129 43.5t-44 112.5v3l123 14v-10q0 -22 12.5 -36.5t37.5 -14.5zM86 0v710h552v-140h-382v-128h314v-143h-314v-152h416v-147h-586z" />
    <glyph glyph-name="uni04D7" unicode="&#x4d7;" horiz-adv-x="592" 
d="M298 688q23 0 34.5 14.5t11.5 36.5v16l122 -11v-8q0 -70 -42.5 -114.5t-125.5 -44.5t-125.5 44.5t-42.5 114.5v8l122 11v-16q0 -51 46 -51zM298 531q118 0 186.5 -73.5t68.5 -198.5v-28h-351q3 -52 31.5 -83.5t75.5 -31.5q60 0 89 49l147 -34q-6 -21 -20 -43t-40.5 -46
t-72 -39.5t-103.5 -15.5q-123 0 -194.5 75t-71.5 197t70 197t185 75zM298 414q-39 0 -63.5 -23.5t-30.5 -63.5h187q-7 41 -31 64t-62 23z" />
    <glyph glyph-name="uni04D8" unicode="&#x4d8;" horiz-adv-x="758" 
d="M372 569q-106 0 -148 -90l-147 51q26 84 101.5 138t194.5 54q148 0 240 -101.5t92 -265.5q0 -167 -92 -267t-237 -100q-142 0 -232.5 99t-90.5 265q0 11 1.5 32.5t1.5 22.5h476q-11 76 -52.5 119t-107.5 43zM376 133q63 0 101.5 38t51.5 108h-302q9 -66 47.5 -106
t101.5 -40z" />
    <glyph glyph-name="uni04D9" unicode="&#x4d9;" horiz-adv-x="595" 
d="M297 -13q-118 0 -186.5 73.5t-68.5 198.5v28h351q-3 52 -31.5 83.5t-75.5 31.5q-60 0 -89 -49l-147 34q6 21 20 43t40.5 46t72 39.5t103.5 15.5q123 0 194.5 -75t71.5 -197t-70 -197t-185 -75zM297 104q39 0 63.5 23.5t30.5 63.5h-187q7 -41 31 -64t62 -23z" />
    <glyph glyph-name="uni04E2" unicode="&#x4e2;" horiz-adv-x="820" 
d="M587 789h-352v122h352v-122zM86 0v710h170v-459l308 459h170v-710h-170v458l-308 -458h-170z" />
    <glyph glyph-name="uni04E3" unicode="&#x4e3;" horiz-adv-x="645" 
d="M486 606h-328v123h328v-123zM70 0v518h158v-294l189 294h158v-518h-158v294l-189 -294h-158z" />
    <glyph glyph-name="uni04E6" unicode="&#x4e6;" horiz-adv-x="783" 
d="M196 769v158h160v-158h-160zM428 769v158h160v-158h-160zM392 -12q-149 0 -244 100t-95 267q0 168 95 267.5t244 99.5q148 0 243 -99.5t95 -267.5q0 -167 -95.5 -267t-242.5 -100zM392 140q78 0 122 60t44 155q0 94 -44.5 154.5t-121.5 60.5t-121.5 -60.5t-44.5 -154.5
q0 -95 44 -155t122 -60z" />
    <glyph glyph-name="uni04E7" unicode="&#x4e7;" horiz-adv-x="612" 
d="M113 585v158h159v-158h-159zM340 585v158h159v-158h-159zM306 531q117 0 190.5 -74.5t73.5 -197.5q0 -122 -74 -197t-190 -75t-189.5 75t-73.5 197q0 123 73.5 197.5t189.5 74.5zM306 124q49 0 75 37.5t26 97.5q0 59 -26 96.5t-75 37.5q-48 0 -74.5 -37.5t-26.5 -96.5
q0 -60 26 -97.5t75 -37.5z" />
    <glyph glyph-name="uni04E8" unicode="&#x4e8;" horiz-adv-x="783" 
d="M392 -12q-149 0 -244 100t-95 267q0 168 95 267.5t244 99.5q148 0 243 -99.5t95 -267.5q0 -167 -95.5 -267t-242.5 -100zM392 577q-65 0 -108.5 -41.5t-57.5 -111.5h332q-15 70 -58 111.5t-108 41.5zM392 133q66 0 108.5 42t57.5 113h-333q15 -71 58 -113t109 -42z" />
    <glyph glyph-name="uni04E9" unicode="&#x4e9;" horiz-adv-x="612" 
d="M306 531q117 0 190.5 -74.5t73.5 -197.5q0 -122 -74 -197t-190 -75t-189.5 75t-73.5 197q0 123 73.5 197.5t189.5 74.5zM306 400q-89 0 -105 -86h210q-14 86 -105 86zM306 118q93 0 106 91h-212q12 -91 106 -91z" />
    <glyph glyph-name="uni04EE" unicode="&#x4ee;" horiz-adv-x="737" 
d="M569 789h-352v122h352v-122zM51 169v8l159 29v-30q0 -39 35 -39q19 0 32 12t28 43l5 11l-295 507h201l181 -327l156 327h182l-274 -549q-47 -93 -96 -134.5t-131 -41.5q-90 0 -136.5 48t-46.5 136z" />
    <glyph glyph-name="uni04EF" unicode="&#x4ef;" horiz-adv-x="576" 
d="M462 600h-328v123h328v-123zM141 -200l77 202l-213 516h182l111 -300l110 300h163l-267 -718h-163z" />
    <glyph glyph-name="uni04F2" unicode="&#x4f2;" horiz-adv-x="737" 
d="M414 769l77 162h154l-83 -162h-148zM197 769l73 162h155l-80 -162h-148zM51 169v8l159 29v-30q0 -39 35 -39q19 0 32 12t28 43l5 11l-295 507h201l181 -327l156 327h182l-274 -549q-47 -93 -96 -134.5t-131 -41.5q-90 0 -136.5 48t-46.5 136z" />
    <glyph glyph-name="uni04F3" unicode="&#x4f3;" horiz-adv-x="576" 
d="M325 582l70 190h136l-75 -190h-131zM127 582l70 190h136l-75 -190h-131zM141 -200l77 202l-213 516h182l111 -300l110 300h163l-267 -718h-163z" />
    <glyph glyph-name="Wgrave" unicode="&#x1e80;" horiz-adv-x="1036" 
d="M603 769h-167l-111 162h175zM603 711l128 -451l120 450h161l-200 -711h-161l-134 454l-134 -454h-152l-208 711h179l121 -446l126 447h154z" />
    <glyph glyph-name="wgrave" unicode="&#x1e81;" horiz-adv-x="845" 
d="M505 582h-156l-108 190h163zM514 -1l-89 313l-89 -313h-156l-171 519h174l86 -304l88 305h152l87 -303l86 302h154l-160 -519h-162z" />
    <glyph glyph-name="Wacute" unicode="&#x1e82;" horiz-adv-x="1036" 
d="M442 769l103 162h175l-111 -162h-167zM603 711l128 -451l120 450h161l-200 -711h-161l-134 454l-134 -454h-152l-208 711h179l121 -446l126 447h154z" />
    <glyph glyph-name="wacute" unicode="&#x1e83;" horiz-adv-x="845" 
d="M350 582l101 190h163l-108 -190h-156zM514 -1l-89 313l-89 -313h-156l-171 519h174l86 -304l88 305h152l87 -303l86 302h154l-160 -519h-162z" />
    <glyph glyph-name="Wdieresis" unicode="&#x1e84;" horiz-adv-x="1036" 
d="M322 769v158h160v-158h-160zM554 769v158h160v-158h-160zM603 711l128 -451l120 450h161l-200 -711h-161l-134 454l-134 -454h-152l-208 711h179l121 -446l126 447h154z" />
    <glyph glyph-name="wdieresis" unicode="&#x1e85;" horiz-adv-x="845" 
d="M234 585v158h159v-158h-159zM461 585v158h159v-158h-159zM514 -1l-89 313l-89 -313h-156l-171 519h174l86 -304l88 305h152l87 -303l86 302h154l-160 -519h-162z" />
    <glyph glyph-name="Ygrave" unicode="&#x1ef2;" horiz-adv-x="723" 
d="M465 769h-167l-111 162h175zM277 289l-275 421h212l159 -250l159 250h189l-265 -425v-285h-179v289z" />
    <glyph glyph-name="ygrave" unicode="&#x1ef3;" horiz-adv-x="576" 
d="M378 582h-156l-108 190h163zM141 -200l77 202l-213 516h182l111 -300l110 300h163l-267 -718h-163z" />
    <glyph glyph-name="thinspace" unicode="&#x2009;" horiz-adv-x="166" 
 />
    <glyph glyph-name="hairspace" unicode="&#x200a;" horiz-adv-x="83" 
 />
    <glyph glyph-name="endash" unicode="&#x2013;" horiz-adv-x="712" 
d="M76 246v109h560v-109h-560z" />
    <glyph glyph-name="emdash" unicode="&#x2014;" horiz-adv-x="1025" 
d="M76 246v109h873v-109h-873z" />
    <glyph glyph-name="quoteleft" unicode="&#x2018;" horiz-adv-x="328" 
d="M145 750l92 -32q-59 -96 -66 -180h87v-178h-184v155q0 131 71 235z" />
    <glyph glyph-name="quoteright" unicode="&#x2019;" horiz-adv-x="328" 
d="M183 346l-91 31q59 100 65 181h-86v178h183v-155q0 -133 -71 -235z" />
    <glyph glyph-name="quotesinglbase" unicode="&#x201a;" horiz-adv-x="327" 
d="M183 -212l-91 31q59 100 65 181h-86v178h183v-155q0 -133 -71 -235z" />
    <glyph glyph-name="quotedblleft" unicode="&#x201c;" horiz-adv-x="582" 
d="M402 750l91 -32q-58 -98 -65 -180h84v-178h-181v155q0 131 71 235zM145 750l92 -32q-59 -96 -66 -180h84v-178h-181v155q0 131 71 235z" />
    <glyph glyph-name="quotedblright" unicode="&#x201d;" horiz-adv-x="582" 
d="M180 346l-91 31q60 99 65 181h-83v178h181v-155q0 -131 -72 -235zM437 346l-91 31q60 99 65 181h-84v178h182v-155q0 -131 -72 -235z" />
    <glyph glyph-name="quotedblbase" unicode="&#x201e;" horiz-adv-x="581" 
d="M180 -212l-91 31q60 99 65 181h-83v178h181v-155q0 -131 -72 -235zM437 -212l-91 31q60 99 65 181h-84v178h182v-155q0 -131 -72 -235z" />
    <glyph glyph-name="dagger" unicode="&#x2020;" horiz-adv-x="523" 
d="M183 0v403h-145v147h145v160h156v-160h145v-147h-145v-403h-156z" />
    <glyph glyph-name="daggerdbl" unicode="&#x2021;" horiz-adv-x="516" 
d="M42 150v141h138v130h-138v141h138v148h156v-148h138v-141h-138v-130h138v-141h-138v-150h-156v150h-138z" />
    <glyph glyph-name="bullet" unicode="&#x2022;" horiz-adv-x="604" 
d="M302 541q94 0 159.5 -66t65.5 -159q0 -94 -65.5 -159.5t-159.5 -65.5t-159.5 65.5t-65.5 159.5q0 93 65.5 159t159.5 66z" />
    <glyph glyph-name="ellipsis" unicode="&#x2026;" horiz-adv-x="898" 
d="M73 0v196h187v-196h-187zM355 0v196h188v-196h-188zM638 0v196h188v-196h-188z" />
    <glyph glyph-name="perthousand" unicode="&#x2030;" horiz-adv-x="1430" 
d="M239 340q-83 0 -139 55t-56 136t56 136t139 55q82 0 138 -55t56 -136t-56 -136t-138 -55zM166 0l520 710h142l-521 -710h-141zM239 456q31 0 51.5 21.5t20.5 53.5t-20.5 53.5t-51.5 21.5q-32 0 -52.5 -21.5t-20.5 -53.5t20.5 -53.5t52.5 -21.5zM755 -14q-82 0 -138.5 55
t-56.5 136t56.5 136t138.5 55t138 -55t56 -136t-56 -136t-138 -55zM1192 -14q-82 0 -138 55t-56 136t56 136t138 55t138 -55t56 -136t-56 -136t-138 -55zM755 102q31 0 51.5 21.5t20.5 53.5t-20.5 53.5t-51.5 21.5q-32 0 -52.5 -21.5t-20.5 -53.5t20.5 -53.5t52.5 -21.5z
M1192 102q31 0 51.5 21.5t20.5 53.5t-20.5 53.5t-51.5 21.5q-32 0 -52.5 -21.5t-20.5 -53.5t20.5 -53.5t52.5 -21.5z" />
    <glyph glyph-name="minute" unicode="&#x2032;" horiz-adv-x="314" 
d="M184 402h-147l92 308h149z" />
    <glyph glyph-name="second" unicode="&#x2033;" horiz-adv-x="539" 
d="M180 402h-143l92 308h145zM408 402h-144l94 308h144z" />
    <glyph glyph-name="guilsinglleft" unicode="&#x2039;" horiz-adv-x="365" 
d="M159 492h149l-107 -188l107 -191h-150l-103 190z" />
    <glyph glyph-name="guilsinglright" unicode="&#x203a;" horiz-adv-x="365" 
d="M206 113h-149l106 189l-106 190h150l103 -189z" />
    <glyph glyph-name="fraction" unicode="&#x2044;" horiz-adv-x="596" 
d="M0 0l463 710h133l-462 -710h-134z" />
    <glyph glyph-name="won" unicode="&#x20a9;" horiz-adv-x="1051" 
d="M41 287v139h117l-77 284h171l104 -440l99 440h154l100 -443l103 443h158l-72 -284h113v-139h-149l-73 -287h-153l-105 446l-106 -446h-152l-78 287h-154z" />
    <glyph glyph-name="Euro" unicode="&#x20ac;" horiz-adv-x="678" 
d="M39 220v109h90v60h-90v108h90q5 102 69.5 163.5t177.5 61.5q112 0 177.5 -57.5t74.5 -149.5l-154 -19q-15 85 -98 85q-42 0 -67 -23t-28 -61h137v-108h-137v-60h137v-109h-137q2 -42 27.5 -66t68.5 -24q27 0 47 9.5t30 25.5t15 29t6 26l152 -19q-8 -96 -73 -154t-178 -58
q-115 0 -179.5 62t-67.5 169h-90z" />
    <glyph glyph-name="uni20B4" unicode="&#x20b4;" horiz-adv-x="648" 
d="M40 383v109h355q7 13 7 31q0 30 -21.5 47.5t-58.5 17.5q-36 0 -56.5 -15.5t-21.5 -39.5v-1l-152 24q8 75 64 119.5t166 44.5q108 0 174 -53.5t66 -139.5q0 -21 -4 -35h50v-109h-568zM81 189q0 29 6 46h-47v109h568v-109h-355q-10 -16 -10 -39q0 -34 22.5 -53.5
t65.5 -19.5q42 0 67.5 18.5t25.5 51.5v2l155 -27q-8 -80 -72.5 -129t-175.5 -49q-115 0 -182.5 56t-67.5 143z" />
    <glyph glyph-name="uni20B8" unicode="&#x20b8;" horiz-adv-x="630" 
d="M35 601v109h561v-109h-561zM231 0v394h-196v148h561v-148h-196v-394h-169z" />
    <glyph glyph-name="uni20BD" unicode="&#x20bd;" horiz-adv-x="754" 
d="M30 113v109h118v60h-118v109h118v319h306q122 0 188.5 -55.5t66.5 -160.5q0 -102 -67 -157t-188 -55h-137v-60h230v-109h-230v-113h-169v113h-118zM437 562h-120v-163h120q48 0 73 22t25 61q0 80 -98 80z" />
    <glyph glyph-name="uni2116" unicode="&#x2116;" horiz-adv-x="1161" 
d="M945 321q-84 0 -130 55t-46 146q0 90 46 145t130 55t130.5 -55t46.5 -145q0 -91 -46.5 -146t-130.5 -55zM725 710v-714h-139l-334 477v-473h-166v710h192l285 -418v418h162zM945 426q25 0 38.5 26t13.5 70q0 43 -13.5 69t-38.5 26t-38 -26t-13 -69q0 -44 13 -70t38 -26z
M781 135v150h330v-150h-330z" />
    <glyph glyph-name="trademark" unicode="&#x2122;" horiz-adv-x="1034" 
d="M148 307v290h-121v113h375v-113h-120v-290h-134zM464 307v403h182l74 -219l75 219h176v-403h-118v284l-91 -286h-94l-91 288v-286h-113z" />
    <glyph glyph-name="onethird" unicode="&#x2153;" horiz-adv-x="1030" 
d="M283 267h-134v307l-113 -59v115l146 82h101v-445zM170 0l463 710h133l-462 -710h-134zM791 98q60 0 60 41q0 35 -45 35h-61v105h52q40 0 40 30q0 39 -52 39q-40 0 -53 -35l-128 28q10 40 53.5 75t127.5 35q89 0 137.5 -33.5t48.5 -97.5q0 -32 -17.5 -53t-41.5 -30
q74 -23 74 -106q0 -63 -51.5 -101t-143.5 -38q-48 0 -85.5 12.5t-58.5 32.5t-32 37.5t-16 33.5l130 28q13 -38 62 -38z" />
    <glyph glyph-name="twothirds" unicode="&#x2154;" horiz-adv-x="1154" 
d="M424 374v-107h-374v83l175 149q42 36 42 64q0 19 -12 31t-35 12q-26 0 -38 -15.5t-12 -37.5l-126 16q6 65 50.5 107t125.5 42q84 0 132.5 -40.5t48.5 -107.5q0 -47 -24 -80.5t-75 -73.5l-51 -42h173zM293 0l463 710h133l-462 -710h-134zM914 98q60 0 60 41q0 35 -45 35
h-61v105h52q40 0 40 30q0 39 -52 39q-40 0 -53 -35l-128 28q10 40 53.5 75t127.5 35q89 0 137.5 -33.5t48.5 -97.5q0 -32 -17.5 -53t-41.5 -30q74 -23 74 -106q0 -63 -51.5 -101t-143.5 -38q-48 0 -85.5 12.5t-58.5 32.5t-32 37.5t-16 33.5l130 28q13 -38 62 -38z" />
    <glyph glyph-name="oneeighth" unicode="&#x215b;" horiz-adv-x="1042" 
d="M283 267h-134v307l-113 -59v115l146 82h101v-445zM170 0l463 710h133l-462 -710h-134zM813 451q84 0 131 -34t47 -90q0 -42 -21 -66t-48 -33q76 -29 76 -108q0 -59 -48.5 -93.5t-135.5 -34.5h-21q-87 0 -135.5 34.5t-48.5 93.5q0 44 23 70.5t52 37.5q-26 9 -47 33.5
t-21 65.5q0 57 46.5 90.5t131.5 33.5h19zM749 313q0 -20 14 -31.5t38 -11.5h5q23 0 37 11.5t14 31.5q0 21 -13.5 33t-37.5 12h-5q-24 0 -38 -12t-14 -33zM746 133q0 -22 15 -34.5t38 -12.5h9q23 0 38 12.5t15 34.5t-15 34.5t-38 12.5h-9q-23 0 -38 -13t-15 -34z" />
    <glyph glyph-name="threeeighths" unicode="&#x215c;" horiz-adv-x="1141" 
d="M229 365q60 0 60 40q0 35 -45 35h-63v105h54q40 0 40 31q0 38 -52 38q-41 0 -53 -35l-128 28q10 41 53.5 76t127.5 35q90 0 138 -33.5t48 -97.5q0 -32 -17.5 -53t-42.5 -30q75 -24 75 -106q0 -64 -51.5 -101.5t-143.5 -37.5q-48 0 -85.5 12.5t-58.5 32.5t-32 37.5
t-16 33.5l130 28q13 -38 62 -38zM268 0l463 710h133l-462 -710h-134zM912 451q84 0 131 -34t47 -90q0 -42 -21 -66t-48 -33q76 -29 76 -108q0 -59 -48.5 -93.5t-135.5 -34.5h-21q-87 0 -135.5 34.5t-48.5 93.5q0 44 23 70.5t52 37.5q-26 9 -47 33.5t-21 65.5q0 57 46.5 90.5
t131.5 33.5h19zM848 313q0 -20 14 -31.5t38 -11.5h5q23 0 37 11.5t14 31.5q0 21 -13.5 33t-37.5 12h-5q-24 0 -38 -12t-14 -33zM845 133q0 -22 15 -34.5t38 -12.5h9q23 0 38 12.5t15 34.5t-15 34.5t-38 12.5h-9q-23 0 -38 -13t-15 -34z" />
    <glyph glyph-name="fiveeighths" unicode="&#x215d;" horiz-adv-x="1133" 
d="M183 447h-121v263h345v-99h-220v-73q30 32 87 32q67 0 109 -39.5t42 -107.5v-1q0 -72 -51 -117.5t-142 -45.5q-90 0 -134.5 37t-54.5 78l131 32q13 -41 58 -41q26 0 41.5 16t15.5 39q-1 26 -16.5 41t-40.5 15q-38 0 -49 -29zM261 0l463 710h133l-462 -710h-134zM904 451
q84 0 131 -34t47 -90q0 -42 -21 -66t-48 -33q76 -29 76 -108q0 -59 -48.5 -93.5t-135.5 -34.5h-21q-87 0 -135.5 34.5t-48.5 93.5q0 44 23 70.5t52 37.5q-26 9 -47 33.5t-21 65.5q0 57 46.5 90.5t131.5 33.5h19zM840 313q0 -20 14 -31.5t38 -11.5h5q23 0 37 11.5t14 31.5
q0 21 -13.5 33t-37.5 12h-5q-24 0 -38 -12t-14 -33zM837 133q0 -22 15 -34.5t38 -12.5h9q23 0 38 12.5t15 34.5t-15 34.5t-38 12.5h-9q-23 0 -38 -13t-15 -34z" />
    <glyph glyph-name="seveneighths" unicode="&#x215e;" horiz-adv-x="1047" 
d="M211 267h-150l183 333h-209v110h370v-77zM174 0l463 710h133l-462 -710h-134zM818 451q84 0 131 -34t47 -90q0 -42 -21 -66t-48 -33q76 -29 76 -108q0 -59 -48.5 -93.5t-135.5 -34.5h-21q-87 0 -135.5 34.5t-48.5 93.5q0 44 23 70.5t52 37.5q-26 9 -47 33.5t-21 65.5
q0 57 46.5 90.5t131.5 33.5h19zM754 313q0 -20 14 -31.5t38 -11.5h5q23 0 37 11.5t14 31.5q0 21 -13.5 33t-37.5 12h-5q-24 0 -38 -12t-14 -33zM751 133q0 -22 15 -34.5t38 -12.5h9q23 0 38 12.5t15 34.5t-15 34.5t-38 12.5h-9q-23 0 -38 -13t-15 -34z" />
    <glyph glyph-name="minus" unicode="&#x2212;" horiz-adv-x="688" 
d="M612 255h-536v148h536v-148z" />
    <glyph glyph-name="Pcircle" unicode="&#x24c5;" horiz-adv-x="850" 
d="M425 -12q-159 0 -264.5 105t-105.5 262q0 156 106 261.5t264 105.5t264 -105.5t106 -261.5t-106 -261.5t-264 -105.5zM425 80q122 0 196 78t74 197t-74 197t-196 78q-121 0 -195 -78t-74 -197t74 -197t195 -78zM267 169v376h201q71 0 110.5 -34t39.5 -97
q0 -64 -39.5 -98.5t-110.5 -34.5h-87v-112h-114zM460 448h-79v-68h79q42 0 42 34t-42 34z" />
    <glyph glyph-name="commaaccent" unicode="&#xf6c3;" horiz-adv-x="500" 
d="M302 -320h-105q35 63 45 113h-79v140h175v-104q0 -71 -36 -149z" />
    <glyph glyph-name="cyrbreve" unicode="&#xf6d4;" 
d="M300 687q23 0 34.5 14.5t11.5 36.5v16l122 -11v-8q0 -70 -42.5 -114.5t-125.5 -44.5t-125.5 44.5t-42.5 114.5v8l122 11v-16q0 -51 46 -51z" />
    <glyph glyph-name="idotaccent" horiz-adv-x="303" 
d="M67 585v160h169v-160h-169zM70 0v518h163v-518h-163z" />
    <glyph glyph-name="ringacute" 
d="M225 879l89 159h162l-96 -159h-155zM300 572q-60 0 -99.5 39t-39.5 97q0 59 39 98t100 39t100.5 -39t39.5 -98q0 -58 -40 -97t-100 -39zM300 652q24 0 39.5 16t15.5 40q0 25 -15.5 40.5t-39.5 15.5t-39.5 -15.5t-15.5 -40.5q0 -24 15.5 -40t39.5 -16z" />
    <glyph glyph-name="f_b" horiz-adv-x="1096" 
d="M26 385v133h106v70q0 70 41 109t120 39h163v-122h-96q-36 0 -51 -15t-15 -49v-32h137v-133h-137v-385h-162v385h-106zM686 73v-73h-159v736h161v-293q6 13 20 30t50 36.5t80 19.5q94 0 154 -72t60 -198t-60 -198t-154 -72q-45 0 -81.5 19t-49.5 34.5t-21 30.5zM686 259
q0 -60 27 -96t74 -36q46 0 73.5 36t27.5 96t-27.5 96t-73.5 36q-47 0 -74 -36t-27 -96z" />
    <glyph glyph-name="f_h" horiz-adv-x="1094" 
d="M26 385v133h106v70q0 70 41 109t120 39h163v-122h-96q-36 0 -51 -15t-15 -49v-32h137v-133h-137v-385h-162v385h-106zM527 0v736h161v-286q17 30 55.5 54.5t92.5 24.5q87 0 139.5 -58.5t52.5 -154.5v-316h-162v286q0 47 -23.5 74t-64.5 27q-42 0 -66 -27t-24 -74v-286
h-161z" />
    <glyph glyph-name="f_i" horiz-adv-x="760" 
d="M524 585v160h169v-160h-169zM26 385v133h106v70q0 70 41 109t120 39h163v-122h-96q-36 0 -51 -15t-15 -49v-32h137v-133h-137v-385h-162v385h-106zM527 0v518h163v-518h-163z" />
    <glyph glyph-name="f_j" horiz-adv-x="761" 
d="M525 585v160h169v-160h-169zM26 385v133h106v70q0 70 41 109t120 39h163v-122h-96q-36 0 -51 -15t-15 -49v-32h137v-133h-137v-385h-162v385h-106zM691 -30q0 -89 -40 -129.5t-122 -40.5h-148v125h78q38 0 53.5 15.5t15.5 51.5v526h163v-548z" />
    <glyph glyph-name="f_k" horiz-adv-x="1066" 
d="M26 385v133h106v70q0 70 41 109t120 39h163v-122h-96q-36 0 -51 -15t-15 -49v-32h137v-133h-137v-385h-162v385h-106zM527 0v736h162v-422l171 204h194l-202 -239l223 -279h-203l-183 228v-228h-162z" />
    <glyph glyph-name="f_l" horiz-adv-x="763" 
d="M26 385v133h106v70q0 70 41 109t120 39h163v-122h-96q-36 0 -51 -15t-15 -49v-32h137v-133h-137v-385h-162v385h-106zM529 0v736h163v-736h-163z" />
    <glyph glyph-name="uni02BC.uc" horiz-adv-x="328" 
d="M183 320l-91 31q59 100 65 181h-86v178h183v-155q0 -133 -71 -235z" />
    <glyph glyph-name="hyphen.uc" horiz-adv-x="490" 
d="M76 264v149h338v-149h-338z" />
    <glyph glyph-name="endash.uc" horiz-adv-x="712" 
d="M76 284v109h560v-109h-560z" />
    <glyph glyph-name="emdash.uc" horiz-adv-x="1025" 
d="M76 284v109h873v-109h-873z" />
    <glyph glyph-name="quoteleft.uc" horiz-adv-x="328" 
d="M145 733l92 -31q-59 -98 -66 -181h87v-178h-184v155q0 133 71 235z" />
    <glyph glyph-name="quoteright.uc" horiz-adv-x="328" 
d="M183 320l-91 31q59 100 65 181h-86v178h183v-155q0 -133 -71 -235z" />
    <glyph glyph-name="quotedblleft.uc" horiz-adv-x="582" 
d="M402 733l91 -31q-59 -100 -65 -181h84v-178h-181v155q0 133 71 235zM145 733l92 -31q-59 -98 -66 -181h84v-178h-181v155q0 133 71 235z" />
    <glyph glyph-name="quotedblright.uc" horiz-adv-x="582" 
d="M180 320l-91 31q60 99 65 181h-83v178h181v-155q0 -131 -72 -235zM437 320l-91 31q60 99 65 181h-84v178h182v-155q0 -131 -72 -235z" />
    <glyph glyph-name="guilsinglleft.uc" horiz-adv-x="365" 
d="M159 513h149l-107 -188l107 -191h-150l-103 190z" />
    <glyph glyph-name="guilsinglright.uc" horiz-adv-x="365" 
d="M206 134h-149l106 189l-106 190h150l103 -189z" />
    <glyph glyph-name="guillemotleft.uc" horiz-adv-x="604" 
d="M156 513h149l-104 -188l104 -191h-150l-100 190zM399 513h149l-106 -188l106 -191h-150l-102 190z" />
    <glyph glyph-name="guillemotright.uc" horiz-adv-x="604" 
d="M448 134h-149l104 189l-103 190h150l99 -189zM206 134h-149l105 189l-105 190h149l102 -189z" />
    <glyph glyph-name="at.uc" horiz-adv-x="1014" 
d="M757 568l-49 -287q-10 -59 38 -59q47 0 80 52t33 146q0 135 -86 212t-244 77t-260 -102t-102 -267q0 -156 102.5 -254.5t270.5 -98.5q62 0 118.5 12t95 30.5t59 31t32.5 22.5l92 -54q-15 -19 -44.5 -41t-77.5 -47t-120.5 -41.5t-154.5 -16.5q-115 0 -208.5 35.5t-155 98
t-94.5 146t-33 179.5q0 204 135 336t345 132q211 0 326 -111t115 -279q0 -132 -64 -215.5t-171 -83.5q-105 0 -134 63q-45 -63 -131 -63t-140.5 58t-54.5 158q0 104 58 171.5t151 67.5q44 0 74.5 -19t44.5 -48l11 59h143zM507 448q-37 0 -60.5 -31t-23.5 -80q0 -40 19 -63.5
t53 -23.5q37 0 60.5 31.5t23.5 80.5q0 39 -19 62.5t-53 23.5z" />
    <glyph glyph-name="exclamdown.uc" horiz-adv-x="347" 
d="M80 710h187v-175h-187v175zM93 472h161v-472h-161v472z" />
    <glyph glyph-name="questiondown.uc" horiz-adv-x="543" 
d="M369 710v-176h-187v176h187zM196 472h160v-26q0 -44 -14 -69t-61 -72l-41 -40q-41 -41 -41 -77q0 -32 19.5 -49.5t54.5 -17.5q71 0 77 78l157 -24q-6 -85 -66.5 -136t-167.5 -51q-113 0 -175 52.5t-62 146.5q0 59 22.5 97t81.5 93l31 29q25 22 25 59v7z" />
    <glyph glyph-name="acute.uc" 
d="M161 769l103 162h175l-111 -162h-167z" />
    <glyph glyph-name="grave.uc" 
d="M439 769h-167l-111 162h175z" />
    <glyph glyph-name="hungarumlaut.uc" 
d="M293 769l77 162h154l-83 -162h-148zM76 769l73 162h155l-80 -162h-148z" />
    <glyph glyph-name="circumflex.uc" 
d="M321 768l-61 75l-61 -75h-149l133 166h154l130 -166h-146z" />
    <glyph glyph-name="caron.uc" 
d="M45 934h148l64 -77l64 77h149l-136 -166h-154z" />
    <glyph glyph-name="breve.uc" 
d="M300 873q25 0 37.5 15t12.5 36v10h123v-13q0 -70 -44 -114.5t-129 -44.5t-129 44.5t-44 114.5v13h123v-10q0 -22 12.5 -36.5t37.5 -14.5z" />
    <glyph glyph-name="tilde.uc" 
d="M305 799l-34 17q-20 10 -28 10q-14 0 -14 -20v-40h-113v87q0 45 23.5 71t66.5 26q33 0 89 -29l33 -17q19 -10 29 -10q14 0 14 20v41h113v-88q0 -44 -23.5 -70t-66.5 -26q-36 0 -89 28z" />
    <glyph glyph-name="macron.uc" horiz-adv-x="500" 
d="M426 789h-352v122h352v-122z" />
    <glyph glyph-name="dieresis.uc" 
d="M104 769v158h160v-158h-160zM336 769v158h160v-158h-160z" />
    <glyph glyph-name="dotaccent.uc" 
d="M215 769v159h170v-159h-170z" />
    <glyph glyph-name="ring.uc" 
d="M300 759q-61 0 -100.5 39t-39.5 98t39.5 98t100.5 39t101 -39t40 -98t-40 -98t-101 -39zM300 839q24 0 39.5 16t15.5 41t-15 40.5t-40 15.5t-40 -15.5t-15 -40.5t15.5 -41t39.5 -16z" />
    <glyph glyph-name="cyrbreve.uc" 
d="M300 873q25 0 37.5 14.5t12.5 36.5v10l123 -14v-3q0 -69 -44 -112.5t-129 -43.5t-129 43.5t-44 112.5v3l123 14v-10q0 -22 12.5 -36.5t37.5 -14.5z" />
    <glyph glyph-name="ringacute.uc" 
d="M222 1067l98 147h172l-106 -147h-164zM300 759q-61 0 -100.5 39t-39.5 98t39.5 98t100.5 39t101 -39t40 -98t-40 -98t-101 -39zM300 839q24 0 39.5 16t15.5 41t-15 40.5t-40 15.5t-40 -15.5t-15 -40.5t15.5 -41t39.5 -16z" />
    <glyph glyph-name="zero.den" horiz-adv-x="495" 
d="M248 452q90 0 140.5 -46t50.5 -125v-118q0 -79 -51 -125.5t-140 -46.5q-90 0 -141.5 46.5t-51.5 125.5v118q0 79 51.5 125t141.5 46zM248 104q28 0 43 17t15 45v112q0 28 -15 45t-43 17q-29 0 -44 -17t-15 -45v-112q0 -28 15 -45t44 -17z" />
    <glyph glyph-name="one.den" horiz-adv-x="351" 
d="M283 0h-134v307l-113 -59v115l146 82h101v-445z" />
    <glyph glyph-name="two.den" horiz-adv-x="457" 
d="M424 108v-108h-374v84l175 148q23 20 32.5 34t9.5 31q0 19 -12.5 31t-34.5 12q-26 0 -38 -16t-12 -38l-126 16q6 65 50.5 107t125.5 42q84 0 132.5 -40.5t48.5 -106.5q0 -47 -24 -80.5t-75 -74.5l-50 -41h172z" />
    <glyph glyph-name="three.den" horiz-adv-x="468" 
d="M229 98q60 0 60 41q0 35 -45 35h-61v105h52q40 0 40 30q0 39 -52 39q-40 0 -53 -35l-128 28q10 40 53.5 75t127.5 35q89 0 137.5 -33.5t48.5 -97.5q0 -32 -17.5 -53t-41.5 -30q74 -23 74 -106q0 -63 -51.5 -101t-143.5 -38q-48 0 -85.5 12.5t-58.5 32.5t-32 37.5
t-16 33.5l130 28q13 -38 62 -38z" />
    <glyph glyph-name="four.den" horiz-adv-x="508" 
d="M478 106h-85v-106h-130v106h-232v90l201 247h161v-233h85v-104zM156 210h107v135z" />
    <glyph glyph-name="five.den" horiz-adv-x="472" 
d="M183 181h-121v262h345v-99h-220v-72q30 32 87 32q67 0 109 -40t42 -108v-1q0 -72 -51 -117.5t-142 -45.5q-90 0 -134.5 37t-54.5 79l131 32q13 -42 58 -42q26 0 41.5 16t15.5 40q0 25 -15.5 40t-41.5 15q-38 0 -49 -28z" />
    <glyph glyph-name="six.den" horiz-adv-x="472" 
d="M431 159q0 -73 -53 -120t-141 -47t-141.5 46.5t-53.5 119.5q0 50 18 88t60 88l92 109h145l-137 -164q24 24 70 24q63 0 102 -40.5t39 -103.5zM297 159q0 24 -17 40.5t-44 16.5q-26 0 -43 -16.5t-17 -41.5t16.5 -41t43.5 -16q28 0 44.5 16t16.5 42z" />
    <glyph glyph-name="seven.den" horiz-adv-x="441" 
d="M211 0h-150l183 334h-209v109h370v-77z" />
    <glyph glyph-name="eight.den" horiz-adv-x="477" 
d="M248 451q84 0 131 -34t47 -90q0 -42 -21 -66t-48 -33q76 -29 76 -108q0 -59 -48.5 -93.5t-135.5 -34.5h-21q-87 0 -135.5 34.5t-48.5 93.5q0 44 23 70.5t52 37.5q-26 9 -47 33.5t-21 65.5q0 57 46.5 90.5t131.5 33.5h19zM184 313q0 -20 14 -31.5t38 -11.5h5q23 0 37 11.5
t14 31.5q0 21 -13.5 33t-37.5 12h-5q-24 0 -38 -12t-14 -33zM181 133q0 -22 15 -34.5t38 -12.5h9q23 0 38 12.5t15 34.5t-15 34.5t-38 12.5h-9q-23 0 -38 -13t-15 -34z" />
    <glyph glyph-name="nine.den" horiz-adv-x="472" 
d="M42 285q0 73 53 119.5t140 46.5q88 0 141.5 -46.5t53.5 -119.5q0 -50 -18.5 -88t-59.5 -87l-92 -110h-145l137 164q-28 -24 -70 -24q-63 0 -101.5 40.5t-38.5 104.5zM175 285q0 -25 17 -41.5t44 -16.5t44 16.5t17 41.5q0 26 -17 42t-44 16q-28 0 -44.5 -16t-16.5 -42z
" />
    <glyph glyph-name="zero.num" horiz-adv-x="495" 
d="M248 719q90 0 140.5 -46t50.5 -126v-118q0 -79 -51 -125t-140 -46q-90 0 -141.5 46t-51.5 125v118q0 80 51.5 126t141.5 46zM248 370q28 0 43 17t15 45v112q0 28 -15 45t-43 17q-29 0 -44 -17t-15 -45v-112q0 -28 15 -45t44 -17z" />
    <glyph glyph-name="one.num" horiz-adv-x="351" 
d="M283 267h-134v307l-113 -59v115l146 82h101v-445z" />
    <glyph glyph-name="two.num" horiz-adv-x="457" 
d="M424 374v-107h-374v83l175 149q42 36 42 64q0 19 -12 31t-35 12q-26 0 -38 -15.5t-12 -37.5l-126 16q6 65 50.5 107t125.5 42q84 0 132.5 -40.5t48.5 -107.5q0 -47 -24 -80.5t-75 -73.5l-51 -42h173z" />
    <glyph glyph-name="three.num" horiz-adv-x="468" 
d="M229 365q60 0 60 40q0 35 -45 35h-63v105h54q40 0 40 31q0 38 -52 38q-41 0 -53 -35l-128 28q10 41 53.5 76t127.5 35q90 0 138 -33.5t48 -97.5q0 -32 -17.5 -53t-42.5 -30q75 -24 75 -106q0 -64 -51.5 -101.5t-143.5 -37.5q-48 0 -85.5 12.5t-58.5 32.5t-32 37.5
t-16 33.5l130 28q13 -38 62 -38z" />
    <glyph glyph-name="four.num" horiz-adv-x="508" 
d="M478 372h-85v-105h-130v105h-232v91l201 247h161v-234h85v-104zM155 476h108v136z" />
    <glyph glyph-name="five.num" horiz-adv-x="472" 
d="M183 447h-121v263h345v-99h-220v-73q30 32 87 32q67 0 109 -39.5t42 -107.5v-1q0 -72 -51 -117.5t-142 -45.5q-90 0 -134.5 37t-54.5 78l131 32q13 -41 58 -41q26 0 41.5 16t15.5 39q-1 26 -16.5 41t-40.5 15q-38 0 -49 -29z" />
    <glyph glyph-name="six.num" horiz-adv-x="472" 
d="M431 425q0 -73 -53 -119.5t-141 -46.5t-141.5 46.5t-53.5 119.5q0 50 18.5 88t59.5 87l92 110h145l-135 -162q26 22 68 22q63 0 102 -40.5t39 -104.5zM297 425q0 25 -17 41.5t-44 16.5q-26 0 -43 -16.5t-17 -41.5q0 -26 16.5 -42t43.5 -16q28 0 44.5 16t16.5 42z" />
    <glyph glyph-name="seven.num" horiz-adv-x="441" 
d="M211 267h-150l183 333h-209v110h370v-77z" />
    <glyph glyph-name="eight.num" horiz-adv-x="477" 
d="M248 718q84 0 131 -34t47 -90q0 -41 -21 -66t-47 -34q29 -11 52 -37t23 -70q0 -59 -48.5 -93.5t-135.5 -34.5h-21q-87 0 -135.5 34.5t-48.5 93.5q0 44 23 70t52 37q-26 10 -47 34.5t-21 65.5q0 57 46.5 90.5t131.5 33.5h19zM184 580q0 -20 14.5 -32t37.5 -12h5
q23 0 37 12t14 32q0 44 -51 44h-5q-52 0 -52 -44zM181 400q0 -23 15 -35.5t38 -12.5h9q23 0 38 12.5t15 35.5q0 22 -15 34t-38 12h-9q-23 0 -38 -12.5t-15 -33.5z" />
    <glyph glyph-name="nine.num" horiz-adv-x="472" 
d="M42 551q0 73 53 120t140 47q88 0 141.5 -46.5t53.5 -119.5q0 -50 -18 -88t-60 -88l-92 -109h-145l139 166q-26 -26 -72 -26q-63 0 -101.5 40.5t-38.5 103.5zM175 551q0 -24 17 -40.5t44 -16.5t44 16.5t17 41.5t-17 41t-44 16q-28 0 -44.5 -16t-16.5 -42z" />
    <glyph glyph-name="zero.old" horiz-adv-x="663" 
d="M333 598q124 0 202 -85t78 -220q0 -133 -78.5 -219.5t-201.5 -86.5q-126 0 -204.5 86t-78.5 220q0 135 78.5 220t204.5 85zM333 132q53 0 83.5 46.5t30.5 114.5t-30.5 114t-83.5 46q-54 0 -85.5 -46t-31.5 -114t31.5 -114.5t85.5 -46.5z" />
    <glyph glyph-name="one.old" horiz-adv-x="451" 
d="M356 0h-165v407l-148 -84v153l189 115h124v-591z" />
    <glyph glyph-name="two.old" horiz-adv-x="617" 
d="M578 134v-134h-518v110l229 153q45 31 64 57.5t19 59.5t-19.5 54.5t-54.5 21.5q-40 0 -58 -27.5t-19 -62.5l-159 21q4 88 66 149.5t170 61.5q114 0 177 -58t63 -153q0 -135 -157 -223l-52 -30h249z" />
    <glyph glyph-name="three.old" horiz-adv-x="629" 
d="M308 9q47 0 72.5 22.5t25.5 60.5q0 77 -85 77h-83v142h74q74 0 74 69q0 35 -22.5 55.5t-61.5 20.5q-68 0 -87 -71l-161 34q5 27 20 55.5t43 57.5t76.5 47.5t108.5 18.5q120 0 186 -54t66 -150q0 -54 -28.5 -90t-66.5 -51q47 -14 81 -56.5t34 -115.5q0 -99 -70.5 -158
t-194.5 -59q-115 0 -180.5 55.5t-83.5 130.5l163 35q2 -10 7.5 -21t16.5 -24.5t30.5 -22t45.5 -8.5z" />
    <glyph glyph-name="four.old" horiz-adv-x="685" 
d="M656 68h-124v-192h-162v192h-337v108l308 410h191v-379h124v-139zM202 207h168v227z" />
    <glyph glyph-name="five.old" horiz-adv-x="636" 
d="M233 175h-149v411h476v-136h-319v-137q44 50 124 50q93 0 154 -65.5t61 -175.5q0 -113 -71 -185t-194 -72q-64 0 -114.5 19t-80 50t-46 63t-21.5 66l164 34q4 -17 11 -33.5t30.5 -34.5t56.5 -18q43 0 70 31.5t27 77.5q0 49 -26 79t-70 30q-56 0 -83 -54z" />
    <glyph glyph-name="six.old" horiz-adv-x="631" 
d="M580 248q0 -113 -72 -186.5t-192 -73.5q-121 0 -193.5 72.5t-72.5 187.5q0 76 27.5 135t85.5 138l140 189h182l-196 -263q39 33 100 33q85 0 138 -64.5t53 -167.5zM416 248q0 51 -27.5 84t-73.5 33q-45 0 -72.5 -33.5t-27.5 -83.5q0 -51 27 -83.5t73 -32.5t73.5 32.5
t27.5 83.5z" />
    <glyph glyph-name="seven.old" horiz-adv-x="577" 
d="M246 -124h-186l281 563h-300v147h497v-106z" />
    <glyph glyph-name="eight.old" horiz-adv-x="651" 
d="M335 722q117 0 183 -54t66 -143q0 -66 -32 -106t-73 -55q45 -15 80.5 -58t35.5 -113q0 -93 -70 -149t-190 -56h-20q-120 0 -189.5 56t-69.5 149q0 70 36 113t82 58q-42 15 -74 55t-32 106q0 89 66 143t182 54h19zM233 509q0 -38 25.5 -61t64.5 -23h5q40 0 65 23t25 61
t-25 60.5t-65 22.5h-5q-39 0 -64.5 -22.5t-25.5 -60.5zM225 208q0 -41 27.5 -65.5t68.5 -24.5h9q42 0 69 24.5t27 65.5t-27 65.5t-69 24.5h-9q-41 0 -68.5 -24.5t-27.5 -65.5z" />
    <glyph glyph-name="nine.old" horiz-adv-x="631" 
d="M50 338q0 114 72.5 187t192.5 73q121 0 193 -72.5t72 -187.5q0 -76 -27.5 -135.5t-84.5 -136.5l-140 -190h-182l197 264q-38 -34 -101 -34q-86 0 -139 64.5t-53 167.5zM215 338q0 -51 27 -84t73 -33t73.5 33t27.5 84q0 50 -27.5 83t-73.5 33t-73 -32.5t-27 -83.5z" />
    <glyph glyph-name="zero.sub" horiz-adv-x="548" 
d="M274 380q98 0 154 -52t56 -142v-138q0 -90 -56 -142t-154 -52t-154 52t-56 142v138q0 90 56 142t154 52zM274 -23q35 0 53.5 21t18.5 57v124q0 36 -18.5 57t-53.5 21q-34 0 -52.5 -21t-18.5 -57v-124q0 -36 18.5 -57t52.5 -21z" />
    <glyph glyph-name="one.sub" horiz-adv-x="385" 
d="M306 -136h-140v360l-126 -68v124l161 92h105v-508z" />
    <glyph glyph-name="two.sub" horiz-adv-x="506" 
d="M469 -21v-115h-413v89l194 170q51 46 51 82q0 24 -15 39t-43 15q-32 0 -46 -19t-15 -45l-132 18q6 71 56 118.5t138 47.5q93 0 146 -45.5t53 -120.5q0 -53 -26.5 -90.5t-85.5 -87.5l-64 -56h202z" />
    <glyph glyph-name="three.sub" horiz-adv-x="517" 
d="M254 -30q71 0 71 51q0 46 -56 46h-69v110h57q54 0 54 43q0 21 -16.5 34t-46.5 13q-51 0 -65 -44l-134 30q10 46 58.5 86t140.5 40q96 0 149 -38.5t53 -109.5q0 -38 -19.5 -62t-47.5 -35q84 -27 84 -122q0 -71 -57 -114t-156 -43q-53 0 -95 14t-65 36.5t-35.5 42.5
t-16.5 39l137 29q3 -9 9.5 -18.5t24 -18.5t41.5 -9z" />
    <glyph glyph-name="four.sub" horiz-adv-x="561" 
d="M527 -8h-97v-128h-136v128h-259v93l229 285h166v-268h97v-110zM170 102h124v158z" />
    <glyph glyph-name="five.sub" horiz-adv-x="522" 
d="M197 75h-126v295h378v-106h-248v-91q34 38 102 38q72 0 119 -45.5t47 -122.5v-1q0 -82 -56.5 -134.5t-155.5 -52.5q-53 0 -94 14t-64 36.5t-35 44.5t-16 44l138 30q4 -19 21.5 -36t49.5 -17t51.5 19.5t19.5 49.5v1q0 32 -19 50.5t-52 18.5q-43 0 -60 -35z" />
    <glyph glyph-name="six.sub" horiz-adv-x="523" 
d="M475 43q0 -83 -58 -135.5t-155 -52.5t-155.5 52t-58.5 135q0 56 20.5 99.5t67.5 99.5l105 129h152l-151 -185q29 23 75 23q71 0 114.5 -46t43.5 -119zM336 43q0 31 -20.5 51t-54.5 20q-32 0 -53 -20.5t-21 -51.5t20.5 -51t53.5 -20q34 0 54.5 20t20.5 52z" />
    <glyph glyph-name="seven.sub" horiz-adv-x="489" 
d="M226 -136h-156l210 386h-239v120h408v-83z" />
    <glyph glyph-name="eight.sub" horiz-adv-x="529" 
d="M275 379q92 0 143 -38.5t51 -102.5q0 -47 -23 -75.5t-53 -38.5q33 -11 59 -41.5t26 -81.5q0 -66 -54 -106t-149 -40h-22q-95 0 -148.5 40t-53.5 106q0 50 25.5 80.5t59.5 42.5q-30 10 -53.5 38.5t-23.5 75.5q0 64 51 102.5t144 38.5h21zM198 224q0 -25 17 -39.5t45 -14.5
h8q29 0 45.5 14.5t16.5 39.5t-16.5 39t-45.5 14h-8q-28 0 -45 -14t-17 -39zM193 14q0 -27 18.5 -42.5t47.5 -15.5h11q29 0 47.5 15.5t18.5 42.5q0 28 -18.5 43t-47.5 15h-11q-29 0 -47.5 -15.5t-18.5 -42.5z" />
    <glyph glyph-name="nine.sub" horiz-adv-x="523" 
d="M48 191q0 82 58 135t155 53t155.5 -52t58.5 -135q0 -56 -20.5 -99.5t-67.5 -99.5l-104 -129h-153l151 185q-29 -23 -75 -23q-71 0 -114.5 46t-43.5 119zM187 191q0 -31 20.5 -51t53.5 -20t54 20t21 52q0 31 -21 51t-54 20t-53.5 -20t-20.5 -52z" />
    <glyph glyph-name="zero.sup" horiz-adv-x="548" 
d="M274 746q98 0 154 -52t56 -142v-138q0 -90 -56 -142t-154 -52t-154 52t-56 142v138q0 90 56 142t154 52zM274 343q35 0 53.5 21t18.5 57v124q0 36 -18.5 57t-53.5 21q-34 0 -52.5 -21t-18.5 -57v-124q0 -36 18.5 -57t52.5 -21z" />
    <glyph glyph-name="one.sup" horiz-adv-x="385" 
d="M306 230h-140v360l-126 -68v124l161 92h105v-508z" />
    <glyph glyph-name="two.sup" horiz-adv-x="506" 
d="M469 345v-115h-413v89l194 170q51 46 51 82q0 24 -15 39t-43 15q-32 0 -46 -19t-15 -45l-132 18q6 71 56 118.5t138 47.5q93 0 146 -45.5t53 -120.5q0 -53 -26.5 -90.5t-85.5 -87.5l-64 -56h202z" />
    <glyph glyph-name="three.sup" horiz-adv-x="517" 
d="M254 336q71 0 71 51q0 46 -56 46h-69v110h57q54 0 54 43q0 21 -16.5 34t-46.5 13q-51 0 -65 -44l-134 30q10 46 58.5 86t140.5 40q96 0 149 -38.5t53 -109.5q0 -38 -19.5 -62t-47.5 -35q84 -27 84 -122q0 -71 -57 -114t-156 -43q-53 0 -95 14t-65 36.5t-35.5 42.5
t-16.5 39l137 29q3 -9 9.5 -18.5t24 -18.5t41.5 -9z" />
    <glyph glyph-name="four.sup" horiz-adv-x="561" 
d="M527 358h-97v-128h-136v128h-259v93l229 285h166v-268h97v-110zM170 468h124v158z" />
    <glyph glyph-name="five.sup" horiz-adv-x="522" 
d="M197 441h-126v295h378v-106h-248v-91q34 38 102 38q72 0 119 -45.5t47 -122.5v-1q0 -82 -56.5 -134.5t-155.5 -52.5q-53 0 -94 14t-64 36.5t-35 44.5t-16 44l138 30q4 -19 21.5 -36t49.5 -17t51.5 19.5t19.5 49.5v1q0 32 -19 50.5t-52 18.5q-43 0 -60 -35z" />
    <glyph glyph-name="six.sup" horiz-adv-x="523" 
d="M475 409q0 -83 -58 -135.5t-155 -52.5t-155.5 52t-58.5 135q0 56 20.5 99.5t67.5 99.5l105 129h152l-151 -185q29 23 75 23q71 0 114.5 -46t43.5 -119zM336 409q0 31 -20.5 51t-54.5 20q-32 0 -53 -20.5t-21 -51.5t20.5 -51t53.5 -20q34 0 54.5 20t20.5 52z" />
    <glyph glyph-name="seven.sup" horiz-adv-x="489" 
d="M226 230h-156l210 386h-239v120h408v-83z" />
    <glyph glyph-name="eight.sup" horiz-adv-x="529" 
d="M275 745q92 0 143 -38.5t51 -102.5q0 -47 -23 -75.5t-53 -38.5q33 -11 59 -41.5t26 -81.5q0 -66 -54 -106t-149 -40h-22q-95 0 -148.5 40t-53.5 106q0 50 25.5 80.5t59.5 42.5q-30 10 -53.5 38.5t-23.5 75.5q0 64 51 102.5t144 38.5h21zM198 590q0 -25 17 -39.5t45 -14.5
h8q29 0 45.5 14.5t16.5 39.5t-16.5 39t-45.5 14h-8q-28 0 -45 -14t-17 -39zM193 380q0 -26 19 -42t47 -16h11q28 0 47 16t19 42q0 27 -18.5 42.5t-47.5 15.5h-11q-28 0 -47 -16t-19 -42z" />
    <glyph glyph-name="nine.sup" horiz-adv-x="523" 
d="M48 557q0 82 58 135t155 53t155.5 -52t58.5 -135q0 -56 -20.5 -99.5t-67.5 -99.5l-104 -129h-153l151 185q-29 -23 -75 -23q-71 0 -114.5 46t-43.5 119zM187 557q0 -31 20.5 -51t53.5 -20t54 20t21 52q0 31 -21 51t-54 20t-53.5 -20t-20.5 -52z" />
    <glyph glyph-name="four.denalt" horiz-adv-x="521" 
d="M62 116v327h130v-218h85v166h130v-166h84v-109h-84v-116h-130v116h-215z" />
    <glyph glyph-name="four.numalt" horiz-adv-x="521" 
d="M62 382v328h130v-218h85v165h130v-165h84v-110h-84v-115h-130v115h-215z" />
    <glyph glyph-name="four.oldalt" horiz-adv-x="705" 
d="M83 78v508h166v-360h133v273h166v-273h124v-148h-124v-202h-166v202h-299z" />
    <glyph glyph-name="four.subalt" horiz-adv-x="577" 
d="M66 -1v371h137v-253h105v193h137v-193h98v-118h-98v-135h-137v135h-242z" />
    <glyph glyph-name="four.supalt" horiz-adv-x="577" 
d="M66 365v371h137v-253h105v193h137v-193h98v-118h-98v-135h-137v135h-242z" />
    <glyph glyph-name="four.tabalt" horiz-adv-x="650" 
d="M66 197v513h160v-369h132v275h161v-275h98v-144h-98v-197h-161v197h-292z" />
    <glyph glyph-name="uni0414.bgr" horiz-adv-x="788" 
d="M634 -162v162h-480v-162h-153v311h69l231 562h185l232 -562h68v-311h-152zM239 149h299l-149 368z" />
    <glyph glyph-name="uni041B.bgr" horiz-adv-x="750" 
d="M459 711l273 -711h-193l-173 489l-172 -489h-176l260 711h181z" />
    <glyph glyph-name="uni0432.bgr" horiz-adv-x="618" 
d="M62 244v255q0 108 64 179t184 71q112 0 176.5 -58t64.5 -151q0 -115 -93 -159q114 -44 114 -169q0 -101 -68.5 -163.5t-186.5 -62.5q-128 0 -191.5 68t-63.5 190zM309 611q-86 0 -86 -106v-69h74q94 0 94 89q0 40 -22 63t-60 23zM223 226q0 -103 93 -103q47 0 71 25
t24 67q0 43 -25.5 64.5t-81.5 21.5h-81v-75z" />
    <glyph glyph-name="uni0433.bgr" horiz-adv-x="563" 
d="M281 -14q-121 0 -183.5 44.5t-62.5 121.5q0 79 51 120t161 50q13 1 53 5q56 6 56 42q0 42 -68 42q-65 0 -97 -60l-141 40q7 23 22 45t41.5 45t71 37t100.5 14q107 0 169.5 -44t62.5 -122q0 -142 -203 -163q-6 0 -29.5 -2.5t-31.5 -3.5q-56 -5 -56 -46q0 -44 78 -44
q39 0 65.5 19t35.5 44l150 -42q-17 -51 -76.5 -96.5t-168.5 -45.5z" />
    <glyph glyph-name="uni0434.bgr" horiz-adv-x="633" 
d="M404 80q-7 -14 -20 -29.5t-47.5 -35t-76.5 -19.5q-92 0 -153.5 72.5t-61.5 193.5t61 193.5t154 72.5q42 0 76 -19t46 -34t20 -29v72h161v-500q0 -105 -65.5 -167t-193.5 -62q-57 0 -103 13.5t-73.5 35.5t-43.5 41.5t-23 37.5l163 33q23 -35 80 -35q48 0 74 26.5t26 75.5
v63zM404 262q0 58 -26.5 93t-70.5 35q-45 0 -72 -35t-27 -93t27 -93.5t72 -35.5q43 0 70 35.5t27 93.5z" />
    <glyph glyph-name="uni0436.bgr" horiz-adv-x="862" 
d="M349 0v222l-162 -222h-196l202 270l-183 248h188l151 -210v428h162v-428l151 210h188l-182 -247l203 -271h-197l-163 223v-223h-162z" />
    <glyph glyph-name="uni0437.bgr" horiz-adv-x="566" 
d="M270 394q-64 0 -86 -58l-148 44q19 62 78.5 106.5t156.5 44.5q113 0 176.5 -53.5t63.5 -150.5q0 -55 -28 -91.5t-67 -51.5q48 -16 82 -59t34 -114q0 -100 -69.5 -160.5t-188.5 -60.5q-104 0 -166.5 47.5t-81.5 114.5l147 44q7 -24 32.5 -46t67.5 -22q48 0 73 24t25 64
q0 44 -23.5 65.5t-75.5 21.5h-77v134h69q87 0 87 82q0 35 -21 55t-60 20z" />
    <glyph glyph-name="uni0438.bgr" horiz-adv-x="630" 
d="M228 226q0 -45 22.5 -70t62.5 -25q41 0 64 25.5t23 69.5v292h161v-518h-161v63q-17 -29 -54.5 -52t-90.5 -23q-86 0 -137.5 57t-51.5 151v322h162v-292z" />
    <glyph glyph-name="uni0439.bgr" horiz-adv-x="630" 
d="M311 688q23 0 34.5 14.5t11.5 36.5v16l122 -11v-8q0 -70 -42.5 -114.5t-125.5 -44.5t-125.5 44.5t-42.5 114.5v8l122 11v-16q0 -51 46 -51zM228 226q0 -45 22.5 -70t62.5 -25q41 0 64 25.5t23 69.5v292h161v-518h-161v63q-17 -29 -54.5 -52t-90.5 -23q-86 0 -137.5 57
t-51.5 151v322h162v-292z" />
    <glyph glyph-name="uni043A.bgr" horiz-adv-x="609" 
d="M70 0v736h162v-422l171 204h194l-202 -239l223 -279h-203l-183 228v-228h-162z" />
    <glyph glyph-name="uni043B.bgr" horiz-adv-x="573" 
d="M5 0l191 521h168l204 -521h-183l-108 308l-107 -308h-165z" />
    <glyph glyph-name="uni043D.bgr" horiz-adv-x="635" 
d="M70 0v518h161v-186h173v186h161v-518h-161v198h-173v-198h-161z" />
    <glyph glyph-name="uni043F.bgr" horiz-adv-x="637" 
d="M70 0v518h161v-67q17 30 55.5 54t92.5 24q87 0 139.5 -57.5t52.5 -153.5v-318h-162v288q0 46 -23.5 72.5t-64.5 26.5q-42 0 -66 -26.5t-24 -72.5v-288h-161z" />
    <glyph glyph-name="uni0442.bgr" horiz-adv-x="967" 
d="M70 0v518h161v-64q16 28 53.5 51.5t91.5 23.5q112 0 161 -91q54 91 169 91q90 0 142.5 -57.5t52.5 -150.5v-321h-162v291q0 44 -22.5 70t-63.5 26t-64 -26t-23 -70v-291h-162v291q0 44 -22.5 70t-63.5 26t-64 -26t-23 -70v-291h-161z" />
    <glyph glyph-name="uni0446.bgr" horiz-adv-x="651" 
d="M228 226q0 -45 22.5 -70t62.5 -25q41 0 64 25.5t23 69.5v292h161v-384h87v-283h-145v149h-103v63q-17 -29 -54.5 -52t-90.5 -23q-86 0 -137.5 57t-51.5 151v322h162v-292z" />
    <glyph glyph-name="uni0447.bgr" horiz-adv-x="610" 
d="M379 0v170q-45 -8 -108 -8q-108 0 -161.5 50.5t-53.5 165.5v140h162v-135q0 -47 17.5 -68t63.5 -21q21 0 41 2t30 4l9 2v216h161v-518h-161z" />
    <glyph glyph-name="uni0448.bgr" horiz-adv-x="967" 
d="M897 518v-518h-161v64q-16 -28 -53.5 -51.5t-91.5 -23.5q-112 0 -161 91q-54 -91 -169 -91q-90 0 -142.5 57.5t-52.5 150.5v321h162v-291q0 -44 22.5 -70t63.5 -26t64 26t23 70v291h162v-291q0 -44 22.5 -70t63.5 -26t64 26t23 70v291h161z" />
    <glyph glyph-name="uni0449.bgr" horiz-adv-x="987" 
d="M897 518v-384h87v-283h-145v149h-103v64q-16 -28 -53.5 -51.5t-91.5 -23.5q-112 0 -161 91q-54 -91 -169 -91q-90 0 -142.5 57.5t-52.5 150.5v321h162v-291q0 -44 22.5 -70t63.5 -26t64 26t23 70v291h162v-291q0 -44 22.5 -70t63.5 -26t64 26t23 70v291h161z" />
    <glyph glyph-name="uni044A.bgr" horiz-adv-x="674" 
d="M27 518h291v-149h84q122 0 182 -50.5t60 -135.5q0 -37 -13 -70.5t-40.5 -62.5t-76 -46t-113.5 -17q-126 0 -185.5 57.5t-59.5 138.5v200h-129v135zM318 183q0 -33 22 -53t61 -20q37 0 58.5 20.5t21.5 52.5q0 27 -22.5 44.5t-61.5 17.5h-79v-62z" />
    <glyph glyph-name="uni044C.bgr" horiz-adv-x="586" 
d="M556 183q0 -37 -13 -70.5t-40.5 -62.5t-76 -46t-113.5 -17q-126 0 -185.5 57.5t-59.5 138.5v335h162v-149h84q122 0 182 -50.5t60 -135.5zM230 183q0 -33 22 -53t61 -20q37 0 58.5 20.5t21.5 52.5q0 27 -22.5 44.5t-61.5 17.5h-79v-62z" />
    <glyph glyph-name="uni044E.bgr" horiz-adv-x="850" 
d="M70 0v736h161v-404h65q20 92 88 145.5t164 53.5q115 0 187.5 -74.5t72.5 -197.5q0 -122 -72.5 -197t-187.5 -75q-99 0 -168 57t-87 154h-62v-198h-161zM548 124q46 0 71.5 37.5t25.5 97.5q0 59 -25.5 96.5t-71.5 37.5t-71.5 -37.5t-25.5 -96.5q0 -60 25.5 -97.5
t71.5 -37.5z" />
    <glyph glyph-name="uni0431.locl" horiz-adv-x="612" 
d="M570 242q0 -114 -74 -184.5t-190 -70.5t-189.5 71t-73.5 186q0 66 31 121t89 89q-71 37 -71 117q0 152 212 159q145 6 227 18v-138q-69 -12 -209 -18q-86 -3 -86 -44q0 -8 3 -13.5t10 -10t14 -8t20 -6.5t23 -5t27 -5.5t29 -6.5q42 -9 77 -26t65.5 -46t48 -74.5
t17.5 -104.5zM306 124q49 0 75 33t26 85t-26 85t-75 33q-48 0 -74.5 -33t-26.5 -85t26 -85t75 -33z" />
    <glyph glyph-name="uni0433.locl" horiz-adv-x="483" 
d="M70 0v518h383v-135h-222v-383h-161z" />
    <glyph glyph-name="uni0434.locl" horiz-adv-x="623" 
d="M143 -149h-145v283h54q41 68 53 218l15 166h418v-384h87v-283h-145v149h-337v-149zM376 134v249h-119l-4 -39q-14 -155 -43 -210h166z" />
    <glyph glyph-name="uni043F.locl" horiz-adv-x="629" 
d="M70 0v518h489v-518h-162v383h-166v-383h-161z" />
    <glyph glyph-name="uni0442.locl" horiz-adv-x="548" 
d="M193 0v383h-163v135h488v-135h-163v-383h-162z" />
    <glyph glyph-name="f.short" horiz-adv-x="457" 
d="M26 385v133h106v70q0 70 41 109t120 39h163v-122h-96q-36 0 -51 -15t-15 -49v-32h137v-133h-137v-385h-162v385h-106z" />
    <glyph glyph-name="j.short" horiz-adv-x="304" 
d="M68 585v160h169v-160h-169zM234 -30q0 -89 -40 -129.5t-122 -40.5h-125v125h55q38 0 53.5 15.5t15.5 51.5v526h163v-548z" />
    <glyph glyph-name="f_f.short" horiz-adv-x="830" 
d="M26 385v133h106v70q0 70 41 109t120 39h158v-122h-91q-36 0 -51 -15t-15 -49v-32h212v70q0 70 40.5 109t119.5 39h163v-122h-95q-36 0 -51.5 -15t-15.5 -49v-32h137v-133h-137v-385h-161v385h-212v-385h-162v385h-106z" />
    <glyph glyph-name="uni0414.bgrsc" horiz-adv-x="701" 
d="M543 -162v162h-385v-162h-148v306h70l177 443h178l188 -443h68v-306h-148zM241 144h207l-104 267z" />
    <glyph glyph-name="uni041B.bgrsc" horiz-adv-x="648" 
d="M406 587l220 -587h-186l-125 368l-123 -368h-171l207 587h178z" />
    <glyph glyph-name="A.sc" horiz-adv-x="665" 
d="M470 0l-30 88h-230l-30 -88h-158l213 587h194l214 -587h-173zM255 218h140l-69 203z" />
    <glyph glyph-name="Agrave.sc" horiz-adv-x="665" 
d="M411 645h-167l-111 162h175zM470 0l-30 88h-230l-30 -88h-158l213 587h194l214 -587h-173zM255 218h140l-69 203z" />
    <glyph glyph-name="Aacute.sc" horiz-adv-x="665" 
d="M244 645l103 162h175l-111 -162h-167zM470 0l-30 88h-230l-30 -88h-158l213 587h194l214 -587h-173zM255 218h140l-69 203z" />
    <glyph glyph-name="Acircumflex.sc" horiz-adv-x="665" 
d="M387 644l-61 75l-61 -75h-149l133 166h154l130 -166h-146zM470 0l-30 88h-230l-30 -88h-158l213 587h194l214 -587h-173zM255 218h140l-69 203z" />
    <glyph glyph-name="Atilde.sc" horiz-adv-x="665" 
d="M330 675l-34 17q-20 10 -28 10q-14 0 -14 -20v-40h-113v87q0 45 23.5 71t66.5 26q33 0 89 -29l33 -17q19 -10 29 -10q14 0 14 20v41h113v-88q0 -44 -23.5 -70t-66.5 -26q-36 0 -89 28zM470 0l-30 88h-230l-30 -88h-158l213 587h194l214 -587h-173zM255 218h140l-69 203z
" />
    <glyph glyph-name="Adieresis.sc" horiz-adv-x="665" 
d="M130 645v158h160v-158h-160zM362 645v158h160v-158h-160zM470 0l-30 88h-230l-30 -88h-158l213 587h194l214 -587h-173zM255 218h140l-69 203z" />
    <glyph glyph-name="Aring.sc" horiz-adv-x="665" 
d="M326 635q-61 0 -100.5 39t-39.5 98t39.5 98t100.5 39t101 -39t40 -98t-40 -98t-101 -39zM326 715q24 0 39.5 16t15.5 41t-15 40.5t-40 15.5t-40 -15.5t-15 -40.5t15.5 -41t39.5 -16zM470 0l-30 88h-230l-30 -88h-158l213 587h194l214 -587h-173zM255 218h140l-69 203z
" />
    <glyph glyph-name="Amacron.sc" horiz-adv-x="665" 
d="M502 665h-352v122h352v-122zM470 0l-30 88h-230l-30 -88h-158l213 587h194l214 -587h-173zM255 218h140l-69 203z" />
    <glyph glyph-name="Abreve.sc" horiz-adv-x="665" 
d="M326 749q25 0 37.5 15t12.5 36v10h123v-13q0 -70 -44 -114.5t-129 -44.5t-129 44.5t-44 114.5v13h123v-10q0 -22 12.5 -36.5t37.5 -14.5zM470 0l-30 88h-230l-30 -88h-158l213 587h194l214 -587h-173zM255 218h140l-69 203z" />
    <glyph glyph-name="Aogonek.sc" horiz-adv-x="665" 
d="M400 -111q0 52 70 111l-30 88h-230l-30 -88h-158l213 587h194l214 -587l-15 -12.5t-14 -11.5t-12 -10t-10.5 -10t-7.5 -8.5t-5.5 -8.5t-1.5 -8q0 -22 28 -22h59v-109h-143q-56 0 -88.5 23t-32.5 66zM255 218h140l-69 203z" />
    <glyph glyph-name="Aringacute.sc" horiz-adv-x="665" 
d="M248 943l98 147h172l-106 -147h-164zM326 635q-61 0 -100.5 39t-39.5 98t39.5 98t100.5 39t101 -39t40 -98t-40 -98t-101 -39zM326 715q24 0 39.5 16t15.5 41t-15 40.5t-40 15.5t-40 -15.5t-15 -40.5t15.5 -41t39.5 -16zM470 0l-30 88h-230l-30 -88h-158l213 587h194
l214 -587h-173zM255 218h140l-69 203z" />
    <glyph glyph-name="B.sc" horiz-adv-x="682" 
d="M89 0v586h331q91 0 140.5 -42t49.5 -113q0 -46 -25.5 -77.5t-61.5 -43.5q44 -12 73.5 -49t29.5 -94q0 -77 -54 -122t-154 -45h-329zM384 463h-133v-102h133q58 0 58 51t-58 51zM381 240h-130v-117h130q75 0 75 59q0 58 -75 58z" />
    <glyph glyph-name="C.sc" horiz-adv-x="626" 
d="M333 135q65 0 95 64l146 -52q-5 -16 -13.5 -33.5t-27.5 -41t-44 -41t-66 -30t-90 -12.5q-124 0 -200.5 82t-76.5 222q0 139 76.5 221.5t200.5 82.5q60 0 107 -17t74 -44.5t41 -50.5t21 -45l-148 -53q-28 64 -95 64q-51 0 -79.5 -43.5t-28.5 -114.5t28.5 -114.5
t79.5 -43.5z" />
    <glyph glyph-name="Ccedilla.sc" horiz-adv-x="626" 
d="M333 135q65 0 95 64l146 -52q-6 -20 -18 -41t-35 -47t-63.5 -45t-91.5 -24v-33q57 -1 88 -32t31 -86q0 -59 -33.5 -92.5t-98.5 -33.5h-124v103h100q32 0 32 27q0 26 -32 26h-78v131q-90 24 -142.5 101t-52.5 192q0 139 76.5 221.5t200.5 82.5q60 0 107 -17t74 -44.5
t41 -50.5t21 -45l-148 -53q-28 64 -95 64q-51 0 -79.5 -43.5t-28.5 -114.5t28.5 -114.5t79.5 -43.5z" />
    <glyph glyph-name="Cacute.sc" horiz-adv-x="626" 
d="M251 645l103 162h175l-111 -162h-167zM333 135q65 0 95 64l146 -52q-5 -16 -13.5 -33.5t-27.5 -41t-44 -41t-66 -30t-90 -12.5q-124 0 -200.5 82t-76.5 222q0 139 76.5 221.5t200.5 82.5q60 0 107 -17t74 -44.5t41 -50.5t21 -45l-148 -53q-28 64 -95 64
q-51 0 -79.5 -43.5t-28.5 -114.5t28.5 -114.5t79.5 -43.5z" />
    <glyph glyph-name="Ccircumflex.sc" horiz-adv-x="626" 
d="M394 644l-61 75l-61 -75h-149l133 166h154l130 -166h-146zM333 135q65 0 95 64l146 -52q-5 -16 -13.5 -33.5t-27.5 -41t-44 -41t-66 -30t-90 -12.5q-124 0 -200.5 82t-76.5 222q0 139 76.5 221.5t200.5 82.5q60 0 107 -17t74 -44.5t41 -50.5t21 -45l-148 -53
q-28 64 -95 64q-51 0 -79.5 -43.5t-28.5 -114.5t28.5 -114.5t79.5 -43.5z" />
    <glyph glyph-name="Cdotaccent.sc" horiz-adv-x="626" 
d="M248 645v159h170v-159h-170zM333 135q65 0 95 64l146 -52q-5 -16 -13.5 -33.5t-27.5 -41t-44 -41t-66 -30t-90 -12.5q-124 0 -200.5 82t-76.5 222q0 139 76.5 221.5t200.5 82.5q60 0 107 -17t74 -44.5t41 -50.5t21 -45l-148 -53q-28 64 -95 64q-51 0 -79.5 -43.5
t-28.5 -114.5t28.5 -114.5t79.5 -43.5z" />
    <glyph glyph-name="Ccaron.sc" horiz-adv-x="626" 
d="M121 810h148l64 -77l64 77h149l-136 -166h-154zM333 135q65 0 95 64l146 -52q-5 -16 -13.5 -33.5t-27.5 -41t-44 -41t-66 -30t-90 -12.5q-124 0 -200.5 82t-76.5 222q0 139 76.5 221.5t200.5 82.5q60 0 107 -17t74 -44.5t41 -50.5t21 -45l-148 -53q-28 64 -95 64
q-51 0 -79.5 -43.5t-28.5 -114.5t28.5 -114.5t79.5 -43.5z" />
    <glyph glyph-name="D.sc" horiz-adv-x="679" 
d="M89 0v586h221q146 0 230 -73t84 -220q0 -144 -84.5 -218.5t-229.5 -74.5h-221zM308 447h-54v-307h54q70 0 109 40t39 113q0 76 -38.5 115t-109.5 39z" />
    <glyph glyph-name="Dcaron.sc" horiz-adv-x="679" 
d="M107 810h148l64 -77l64 77h149l-136 -166h-154zM89 0v586h221q146 0 230 -73t84 -220q0 -144 -84.5 -218.5t-229.5 -74.5h-221zM308 447h-54v-307h54q70 0 109 40t39 113q0 76 -38.5 115t-109.5 39z" />
    <glyph glyph-name="E.sc" horiz-adv-x="633" 
d="M89 0v586h471v-129h-305v-87h249v-134h-249v-101h332v-135h-498z" />
    <glyph glyph-name="Egrave.sc" horiz-adv-x="633" 
d="M412 645h-167l-111 162h175zM89 0v586h471v-129h-305v-87h249v-134h-249v-101h332v-135h-498z" />
    <glyph glyph-name="Eacute.sc" horiz-adv-x="633" 
d="M239 645l103 162h175l-111 -162h-167zM89 0v586h471v-129h-305v-87h249v-134h-249v-101h332v-135h-498z" />
    <glyph glyph-name="Ecircumflex.sc" horiz-adv-x="633" 
d="M383 644l-61 75l-61 -75h-149l133 166h154l130 -166h-146zM89 0v586h471v-129h-305v-87h249v-134h-249v-101h332v-135h-498z" />
    <glyph glyph-name="Edieresis.sc" horiz-adv-x="633" 
d="M126 645v158h160v-158h-160zM358 645v158h160v-158h-160zM89 0v586h471v-129h-305v-87h249v-134h-249v-101h332v-135h-498z" />
    <glyph glyph-name="Emacron.sc" horiz-adv-x="633" 
d="M498 665h-352v122h352v-122zM89 0v586h471v-129h-305v-87h249v-134h-249v-101h332v-135h-498z" />
    <glyph glyph-name="Ebreve.sc" horiz-adv-x="633" 
d="M322 749q25 0 37.5 15t12.5 36v10h123v-13q0 -70 -44 -114.5t-129 -44.5t-129 44.5t-44 114.5v13h123v-10q0 -22 12.5 -36.5t37.5 -14.5zM89 0v586h471v-129h-305v-87h249v-134h-249v-101h332v-135h-498z" />
    <glyph glyph-name="Edotaccent.sc" horiz-adv-x="633" 
d="M237 645v159h170v-159h-170zM89 0v586h471v-129h-305v-87h249v-134h-249v-101h332v-135h-498z" />
    <glyph glyph-name="Eogonek.sc" horiz-adv-x="633" 
d="M89 0v586h471v-129h-305v-87h249v-134h-249v-101h332v-135h-75l-15 -12.5t-14 -11.5t-12 -10t-10.5 -10t-7.5 -8.5t-5.5 -8.5t-1.5 -8q0 -22 28 -22h59v-109h-143q-56 0 -89 23t-33 66q0 22 13.5 44t27.5 34.5t40 32.5h-260z" />
    <glyph glyph-name="Ecaron.sc" horiz-adv-x="633" 
d="M109 810h148l64 -77l64 77h149l-136 -166h-154zM89 0v586h471v-129h-305v-87h249v-134h-249v-101h332v-135h-498z" />
    <glyph glyph-name="F.sc" horiz-adv-x="628" 
d="M89 0v586h496v-130h-331v-98h276v-134h-276v-224h-165z" />
    <glyph glyph-name="G.sc" horiz-adv-x="682" 
d="M349 461q-59 0 -94.5 -44t-35.5 -120q0 -79 39.5 -125t112.5 -46q55 0 81 13v86h-95v127h251v-297q-30 -23 -91 -44.5t-146 -21.5q-145 0 -230 82.5t-85 225.5q0 135 81 218t210 83q61 0 109 -15t75 -38.5t40.5 -41.5t19.5 -34l-146 -53q-34 45 -96 45z" />
    <glyph glyph-name="Gcircumflex.sc" horiz-adv-x="682" 
d="M408 644l-61 75l-61 -75h-149l133 166h154l130 -166h-146zM349 461q-59 0 -94.5 -44t-35.5 -120q0 -79 39.5 -125t112.5 -46q55 0 81 13v86h-95v127h251v-297q-30 -23 -91 -44.5t-146 -21.5q-145 0 -230 82.5t-85 225.5q0 135 81 218t210 83q61 0 109 -15t75 -38.5
t40.5 -41.5t19.5 -34l-146 -53q-34 45 -96 45z" />
    <glyph glyph-name="Gbreve.sc" horiz-adv-x="682" 
d="M347 749q25 0 37.5 15t12.5 36v10h123v-13q0 -70 -44 -114.5t-129 -44.5t-129 44.5t-44 114.5v13h123v-10q0 -22 12.5 -36.5t37.5 -14.5zM349 461q-59 0 -94.5 -44t-35.5 -120q0 -79 39.5 -125t112.5 -46q55 0 81 13v86h-95v127h251v-297q-30 -23 -91 -44.5t-146 -21.5
q-145 0 -230 82.5t-85 225.5q0 135 81 218t210 83q61 0 109 -15t75 -38.5t40.5 -41.5t19.5 -34l-146 -53q-34 45 -96 45z" />
    <glyph glyph-name="Gdotaccent.sc" horiz-adv-x="682" 
d="M262 645v159h170v-159h-170zM349 461q-59 0 -94.5 -44t-35.5 -120q0 -79 39.5 -125t112.5 -46q55 0 81 13v86h-95v127h251v-297q-30 -23 -91 -44.5t-146 -21.5q-145 0 -230 82.5t-85 225.5q0 135 81 218t210 83q61 0 109 -15t75 -38.5t40.5 -41.5t19.5 -34l-146 -53
q-34 45 -96 45z" />
    <glyph glyph-name="Gcommaaccent.sc" horiz-adv-x="682" 
d="M349 461q-59 0 -94.5 -44t-35.5 -120q0 -79 39.5 -125t112.5 -46q55 0 81 13v86h-95v127h251v-297q-30 -23 -91 -44.5t-146 -21.5q-145 0 -230 82.5t-85 225.5q0 135 81 218t210 83q61 0 109 -15t75 -38.5t40.5 -41.5t19.5 -34l-146 -53q-34 45 -96 45zM430 -320h-105
q35 63 45 113h-79v140h175v-104q0 -71 -36 -149z" />
    <glyph glyph-name="H.sc" horiz-adv-x="723" 
d="M89 0v586h165v-221h214v221h165v-586h-165v221h-214v-221h-165z" />
    <glyph glyph-name="Hcircumflex.sc" horiz-adv-x="723" 
d="M422 644l-61 75l-61 -75h-149l133 166h154l130 -166h-146zM89 0v586h165v-221h214v221h165v-586h-165v221h-214v-221h-165z" />
    <glyph glyph-name="I.sc" horiz-adv-x="347" 
d="M91 0v586h165v-586h-165z" />
    <glyph glyph-name="Igrave.sc" horiz-adv-x="347" 
d="M258 645h-167l-111 162h175zM91 0v586h165v-586h-165z" />
    <glyph glyph-name="Iacute.sc" horiz-adv-x="347" 
d="M91 645l103 162h175l-111 -162h-167zM91 0v586h165v-586h-165z" />
    <glyph glyph-name="Icircumflex.sc" horiz-adv-x="347" 
d="M234 644l-61 75l-61 -75h-149l133 166h154l130 -166h-146zM91 0v586h165v-586h-165z" />
    <glyph glyph-name="Idieresis.sc" horiz-adv-x="347" 
d="M-23 645v158h160v-158h-160zM209 645v158h160v-158h-160zM91 0v586h165v-586h-165z" />
    <glyph glyph-name="Itilde.sc" horiz-adv-x="347" 
d="M178 675l-34 17q-20 10 -28 10q-14 0 -14 -20v-40h-113v87q0 45 23.5 71t66.5 26q33 0 89 -29l33 -17q19 -10 29 -10q14 0 14 20v41h113v-88q0 -44 -23.5 -70t-66.5 -26q-36 0 -89 28zM91 0v586h165v-586h-165z" />
    <glyph glyph-name="Imacron.sc" horiz-adv-x="347" 
d="M349 665h-352v122h352v-122zM91 0v586h165v-586h-165z" />
    <glyph glyph-name="Ibreve.sc" horiz-adv-x="347" 
d="M173 749q25 0 37.5 15t12.5 36v10h123v-13q0 -70 -44 -114.5t-129 -44.5t-129 44.5t-44 114.5v13h123v-10q0 -22 12.5 -36.5t37.5 -14.5zM91 0v586h165v-586h-165z" />
    <glyph glyph-name="Iogonek.sc" horiz-adv-x="347" 
d="M91 0v586h165v-586l-15 -12.5t-14 -11.5t-12 -10t-10.5 -10t-7.5 -8.5t-5.5 -8.5t-1.5 -8q0 -22 28 -22h59v-109h-143q-56 0 -88.5 23t-32.5 66q0 22 13 44t26.5 35t38.5 32z" />
    <glyph glyph-name="Idotaccent.sc" horiz-adv-x="347" 
d="M88 645v159h170v-159h-170zM91 0v586h165v-586h-165z" />
    <glyph glyph-name="J.sc" 
d="M514 191q0 -92 -59.5 -147t-170.5 -55q-107 0 -162.5 55t-55.5 147v90h155v-74q0 -33 15.5 -53t47.5 -20t48 20.5t16 52.5v379h166v-395z" />
    <glyph glyph-name="Jcircumflex.sc" 
d="M491 644l-61 75l-61 -75h-149l133 166h154l130 -166h-146zM514 191q0 -92 -59.5 -147t-170.5 -55q-107 0 -162.5 55t-55.5 147v90h155v-74q0 -33 15.5 -53t47.5 -20t48 20.5t16 52.5v379h166v-395z" />
    <glyph glyph-name="K.sc" horiz-adv-x="670" 
d="M89 0v586h165v-239l196 239h199l-228 -277l240 -309h-209l-198 250v-250h-165z" />
    <glyph glyph-name="Kcommaaccent.sc" horiz-adv-x="667" 
d="M89 0v586h165v-239l196 239h199l-228 -277l240 -309h-209l-198 250v-250h-165zM405 -320h-105q35 63 45 113h-79v140h175v-104q0 -71 -36 -149z" />
    <glyph glyph-name="L.sc" horiz-adv-x="566" 
d="M89 0v586h165v-442h273v-144h-438z" />
    <glyph glyph-name="Lacute.sc" horiz-adv-x="566" 
d="M92 645l103 162h175l-111 -162h-167zM89 0v586h165v-442h273v-144h-438z" />
    <glyph glyph-name="Lcommaaccent.sc" horiz-adv-x="566" 
d="M89 0v586h165v-442h273v-144h-438zM369 -320h-105q35 63 45 113h-79v140h175v-104q0 -71 -36 -149z" />
    <glyph glyph-name="Lcaron.sc" horiz-adv-x="566" 
d="M297 430l50 193h142l-58 -193h-134zM89 0v586h165v-442h273v-144h-438z" />
    <glyph glyph-name="M.sc" horiz-adv-x="852" 
d="M89 0v586h239l101 -319l100 319h234v-586h-158v417l-131 -417h-104l-132 416v-416h-149z" />
    <glyph glyph-name="N.sc" horiz-adv-x="722" 
d="M632 586v-589h-136l-248 360v-357h-159v586h182l206 -307v307h155z" />
    <glyph glyph-name="Ntilde.sc" horiz-adv-x="722" 
d="M372 675l-34 17q-20 10 -28 10q-14 0 -14 -20v-40h-113v87q0 45 23.5 71t66.5 26q33 0 89 -29l33 -17q19 -10 29 -10q14 0 14 20v41h113v-88q0 -44 -23.5 -70t-66.5 -26q-36 0 -89 28zM632 586v-589h-136l-248 360v-357h-159v586h182l206 -307v307h155z" />
    <glyph glyph-name="Nacute.sc" horiz-adv-x="722" 
d="M285 645l103 162h175l-111 -162h-167zM632 586v-589h-136l-248 360v-357h-159v586h182l206 -307v307h155z" />
    <glyph glyph-name="Ncommaaccent.sc" horiz-adv-x="722" 
d="M632 586v-589h-136l-248 360v-357h-159v586h182l206 -307v307h155zM423 -320h-105q35 63 45 113h-79v140h175v-104q0 -71 -36 -149z" />
    <glyph glyph-name="Ncaron.sc" horiz-adv-x="722" 
d="M155 810h148l64 -77l64 77h149l-136 -166h-154zM632 586v-589h-136l-248 360v-357h-159v586h182l206 -307v307h155z" />
    <glyph glyph-name="O.sc" horiz-adv-x="688" 
d="M343 -11q-124 0 -205.5 81.5t-81.5 222.5q0 142 81 223t206 81t206.5 -81t81.5 -223q0 -140 -81.5 -222t-206.5 -82zM343 135q57 0 88.5 44t31.5 114q0 71 -31.5 115t-88.5 44q-55 0 -87.5 -44.5t-32.5 -114.5t32 -114t88 -44z" />
    <glyph glyph-name="Ograve.sc" horiz-adv-x="688" 
d="M428 645h-167l-111 162h175zM343 -11q-124 0 -205.5 81.5t-81.5 222.5q0 142 81 223t206 81t206.5 -81t81.5 -223q0 -140 -81.5 -222t-206.5 -82zM343 135q57 0 88.5 44t31.5 114q0 71 -31.5 115t-88.5 44q-55 0 -87.5 -44.5t-32.5 -114.5t32 -114t88 -44z" />
    <glyph glyph-name="Oacute.sc" horiz-adv-x="688" 
d="M261 645l103 162h175l-111 -162h-167zM343 -11q-124 0 -205.5 81.5t-81.5 222.5q0 142 81 223t206 81t206.5 -81t81.5 -223q0 -140 -81.5 -222t-206.5 -82zM343 135q57 0 88.5 44t31.5 114q0 71 -31.5 115t-88.5 44q-55 0 -87.5 -44.5t-32.5 -114.5t32 -114t88 -44z" />
    <glyph glyph-name="Ocircumflex.sc" horiz-adv-x="688" 
d="M404 644l-61 75l-61 -75h-149l133 166h154l130 -166h-146zM343 -11q-124 0 -205.5 81.5t-81.5 222.5q0 142 81 223t206 81t206.5 -81t81.5 -223q0 -140 -81.5 -222t-206.5 -82zM343 135q57 0 88.5 44t31.5 114q0 71 -31.5 115t-88.5 44q-55 0 -87.5 -44.5t-32.5 -114.5
t32 -114t88 -44z" />
    <glyph glyph-name="Otilde.sc" horiz-adv-x="688" 
d="M348 675l-34 17q-20 10 -28 10q-14 0 -14 -20v-40h-113v87q0 45 23.5 71t66.5 26q33 0 89 -29l33 -17q19 -10 29 -10q14 0 14 20v41h113v-88q0 -44 -23.5 -70t-66.5 -26q-36 0 -89 28zM343 -11q-124 0 -205.5 81.5t-81.5 222.5q0 142 81 223t206 81t206.5 -81t81.5 -223
q0 -140 -81.5 -222t-206.5 -82zM343 135q57 0 88.5 44t31.5 114q0 71 -31.5 115t-88.5 44q-55 0 -87.5 -44.5t-32.5 -114.5t32 -114t88 -44z" />
    <glyph glyph-name="Odieresis.sc" horiz-adv-x="688" 
d="M147 645v158h160v-158h-160zM379 645v158h160v-158h-160zM343 -11q-124 0 -205.5 81.5t-81.5 222.5q0 142 81 223t206 81t206.5 -81t81.5 -223q0 -140 -81.5 -222t-206.5 -82zM343 135q57 0 88.5 44t31.5 114q0 71 -31.5 115t-88.5 44q-55 0 -87.5 -44.5t-32.5 -114.5
t32 -114t88 -44z" />
    <glyph glyph-name="Omacron.sc" horiz-adv-x="688" 
d="M519 665h-352v122h352v-122zM343 -11q-124 0 -205.5 81.5t-81.5 222.5q0 142 81 223t206 81t206.5 -81t81.5 -223q0 -140 -81.5 -222t-206.5 -82zM343 135q57 0 88.5 44t31.5 114q0 71 -31.5 115t-88.5 44q-55 0 -87.5 -44.5t-32.5 -114.5t32 -114t88 -44z" />
    <glyph glyph-name="Obreve.sc" horiz-adv-x="688" 
d="M343 749q25 0 37.5 15t12.5 36v10h123v-13q0 -70 -44 -114.5t-129 -44.5t-129 44.5t-44 114.5v13h123v-10q0 -22 12.5 -36.5t37.5 -14.5zM343 -11q-124 0 -205.5 81.5t-81.5 222.5q0 142 81 223t206 81t206.5 -81t81.5 -223q0 -140 -81.5 -222t-206.5 -82zM343 135
q57 0 88.5 44t31.5 114q0 71 -31.5 115t-88.5 44q-55 0 -87.5 -44.5t-32.5 -114.5t32 -114t88 -44z" />
    <glyph glyph-name="Ohungarumlaut.sc" horiz-adv-x="688" 
d="M378 645l77 162h154l-83 -162h-148zM161 645l73 162h155l-80 -162h-148zM343 -11q-124 0 -205.5 81.5t-81.5 222.5q0 142 81 223t206 81t206.5 -81t81.5 -223q0 -140 -81.5 -222t-206.5 -82zM343 135q57 0 88.5 44t31.5 114q0 71 -31.5 115t-88.5 44q-55 0 -87.5 -44.5
t-32.5 -114.5t32 -114t88 -44z" />
    <glyph glyph-name="P.sc" horiz-adv-x="666" 
d="M89 0v586h311q103 0 160.5 -50t57.5 -145t-57.5 -146t-160.5 -51h-146v-194h-165zM375 450h-121v-120h121q74 0 74 60t-74 60z" />
    <glyph glyph-name="Q.sc" horiz-adv-x="688" 
d="M343 -9q-124 0 -205.5 81t-81.5 221q0 142 81 223t206 81t206.5 -81t81.5 -223q0 -87 -33.5 -152.5t-92.5 -103.5l120 -162h-194l-84 116h-4zM343 134q56 0 88 44t32 115t-32 115t-88 44q-55 0 -87.5 -44.5t-32.5 -114.5q0 -71 32 -115t88 -44z" />
    <glyph glyph-name="R.sc" horiz-adv-x="688" 
d="M89 0v586h314q99 0 156.5 -50t57.5 -143q0 -118 -96 -164l133 -229h-175l-118 205h-108v-205h-164zM377 450h-124v-116h124q71 0 71 59q0 57 -71 57z" />
    <glyph glyph-name="Racute.sc" horiz-adv-x="688" 
d="M248 645l103 162h175l-111 -162h-167zM89 0v586h314q99 0 156.5 -50t57.5 -143q0 -118 -96 -164l133 -229h-175l-118 205h-108v-205h-164zM377 450h-124v-116h124q71 0 71 59q0 57 -71 57z" />
    <glyph glyph-name="Rcommaaccent.sc" horiz-adv-x="688" 
d="M89 0v586h314q99 0 156.5 -50t57.5 -143q0 -118 -96 -164l133 -229h-175l-118 205h-108v-205h-164zM377 450h-124v-116h124q71 0 71 59q0 57 -71 57zM417 -320h-105q35 63 45 113h-79v140h175v-104q0 -71 -36 -149z" />
    <glyph glyph-name="Rcaron.sc" horiz-adv-x="688" 
d="M118 810h148l64 -77l64 77h149l-136 -166h-154zM89 0v586h314q99 0 156.5 -50t57.5 -143q0 -118 -96 -164l133 -229h-175l-118 205h-108v-205h-164zM377 450h-124v-116h124q71 0 71 59q0 57 -71 57z" />
    <glyph glyph-name="S.sc" horiz-adv-x="625" 
d="M317 116q39 0 61 14t22 38q0 45 -69 54q-21 3 -51 6q-111 13 -168 58.5t-57 130.5q0 84 67.5 132.5t177.5 48.5q61 0 109.5 -12.5t77 -33.5t43.5 -38.5t24 -35.5l-149 -49q-38 43 -104 43q-77 0 -77 -46q0 -38 65 -46q3 -1 51 -7q116 -13 173 -56.5t57 -133.5
q0 -87 -67 -140.5t-186 -53.5q-65 0 -117.5 14.5t-83 37.5t-47 42.5t-25.5 39.5l156 55q40 -62 117 -62z" />
    <glyph glyph-name="Sacute.sc" horiz-adv-x="625" 
d="M223 645l103 162h175l-111 -162h-167zM317 116q39 0 61 14t22 38q0 45 -69 54q-21 3 -51 6q-111 13 -168 58.5t-57 130.5q0 84 67.5 132.5t177.5 48.5q61 0 109.5 -12.5t77 -33.5t43.5 -38.5t24 -35.5l-149 -49q-38 43 -104 43q-77 0 -77 -46q0 -38 65 -46q3 -1 51 -7
q116 -13 173 -56.5t57 -133.5q0 -87 -67 -140.5t-186 -53.5q-65 0 -117.5 14.5t-83 37.5t-47 42.5t-25.5 39.5l156 55q40 -62 117 -62z" />
    <glyph glyph-name="Scircumflex.sc" horiz-adv-x="625" 
d="M366 644l-61 75l-61 -75h-149l133 166h154l130 -166h-146zM317 116q39 0 61 14t22 38q0 45 -69 54q-21 3 -51 6q-111 13 -168 58.5t-57 130.5q0 84 67.5 132.5t177.5 48.5q61 0 109.5 -12.5t77 -33.5t43.5 -38.5t24 -35.5l-149 -49q-38 43 -104 43q-77 0 -77 -46
q0 -38 65 -46q3 -1 51 -7q116 -13 173 -56.5t57 -133.5q0 -87 -67 -140.5t-186 -53.5q-65 0 -117.5 14.5t-83 37.5t-47 42.5t-25.5 39.5l156 55q40 -62 117 -62z" />
    <glyph glyph-name="Scedilla.sc" horiz-adv-x="625" 
d="M317 116q39 0 61 14t22 38q0 45 -69 54q-21 3 -51 6q-111 13 -168 58.5t-57 130.5q0 84 67.5 132.5t177.5 48.5q61 0 109.5 -12.5t77 -33.5t43.5 -38.5t24 -35.5l-149 -49q-38 43 -104 43q-77 0 -77 -46q0 -38 65 -46q3 -1 51 -7q116 -13 173 -56.5t57 -133.5
q0 -83 -61 -136t-171 -58v-32q56 -1 87 -32t31 -86q0 -59 -33 -92.5t-98 -33.5h-124v103h99q32 0 32 27q0 26 -32 26h-77v129q-77 16 -120 52.5t-59 72.5l156 55q40 -62 117 -62z" />
    <glyph glyph-name="Scaron.sc" horiz-adv-x="625" 
d="M93 810h148l64 -77l64 77h149l-136 -166h-154zM317 116q39 0 61 14t22 38q0 45 -69 54q-21 3 -51 6q-111 13 -168 58.5t-57 130.5q0 84 67.5 132.5t177.5 48.5q61 0 109.5 -12.5t77 -33.5t43.5 -38.5t24 -35.5l-149 -49q-38 43 -104 43q-77 0 -77 -46q0 -38 65 -46
q3 -1 51 -7q116 -13 173 -56.5t57 -133.5q0 -87 -67 -140.5t-186 -53.5q-65 0 -117.5 14.5t-83 37.5t-47 42.5t-25.5 39.5l156 55q40 -62 117 -62z" />
    <glyph glyph-name="Scommaaccent.sc" horiz-adv-x="625" 
d="M317 116q39 0 61 14t22 38q0 45 -69 54q-21 3 -51 6q-111 13 -168 58.5t-57 130.5q0 84 67.5 132.5t177.5 48.5q61 0 109.5 -12.5t77 -33.5t43.5 -38.5t24 -35.5l-149 -49q-38 43 -104 43q-77 0 -77 -46q0 -38 65 -46q3 -1 51 -7q116 -13 173 -56.5t57 -133.5
q0 -87 -67 -140.5t-186 -53.5q-65 0 -117.5 14.5t-83 37.5t-47 42.5t-25.5 39.5l156 55q40 -62 117 -62zM381 -320h-105q35 63 45 113h-79v140h175v-104q0 -71 -36 -149z" />
    <glyph glyph-name="T.sc" horiz-adv-x="623" 
d="M230 0v444h-191v142h546v-142h-191v-444h-164z" />
    <glyph glyph-name="Tcommaaccent.sc" horiz-adv-x="623" 
d="M230 0v444h-191v142h546v-142h-191v-444h-164zM365 -320h-105q35 63 45 113h-79v140h175v-104q0 -71 -36 -149z" />
    <glyph glyph-name="Tcaron.sc" horiz-adv-x="623" 
d="M99 810h148l64 -77l64 77h149l-136 -166h-154zM230 0v444h-191v142h546v-142h-191v-444h-164z" />
    <glyph glyph-name="uni021A.sc" horiz-adv-x="623" 
d="M230 0v444h-191v142h546v-142h-191v-444h-164zM365 -320h-105q35 63 45 113h-79v140h175v-104q0 -71 -36 -149z" />
    <glyph glyph-name="U.sc" horiz-adv-x="708" 
d="M459 251v335h164v-345q0 -111 -70 -181.5t-198 -70.5q-130 0 -200 70t-70 182v345h166v-335q0 -52 27 -82.5t77 -30.5q49 0 76.5 30.5t27.5 82.5z" />
    <glyph glyph-name="Ugrave.sc" horiz-adv-x="708" 
d="M447 645h-167l-111 162h175zM459 251v335h164v-345q0 -111 -70 -181.5t-198 -70.5q-130 0 -200 70t-70 182v345h166v-335q0 -52 27 -82.5t77 -30.5q49 0 76.5 30.5t27.5 82.5z" />
    <glyph glyph-name="Uacute.sc" horiz-adv-x="708" 
d="M269 645l103 162h175l-111 -162h-167zM459 251v335h164v-345q0 -111 -70 -181.5t-198 -70.5q-130 0 -200 70t-70 182v345h166v-335q0 -52 27 -82.5t77 -30.5q49 0 76.5 30.5t27.5 82.5z" />
    <glyph glyph-name="Ucircumflex.sc" horiz-adv-x="708" 
d="M416 644l-61 75l-61 -75h-149l133 166h154l130 -166h-146zM459 251v335h164v-345q0 -111 -70 -181.5t-198 -70.5q-130 0 -200 70t-70 182v345h166v-335q0 -52 27 -82.5t77 -30.5q49 0 76.5 30.5t27.5 82.5z" />
    <glyph glyph-name="Udieresis.sc" horiz-adv-x="708" 
d="M159 645v158h160v-158h-160zM391 645v158h160v-158h-160zM459 251v335h164v-345q0 -111 -70 -181.5t-198 -70.5q-130 0 -200 70t-70 182v345h166v-335q0 -52 27 -82.5t77 -30.5q49 0 76.5 30.5t27.5 82.5z" />
    <glyph glyph-name="Utilde.sc" horiz-adv-x="708" 
d="M360 675l-34 17q-20 10 -28 10q-14 0 -14 -20v-40h-113v87q0 45 23.5 71t66.5 26q33 0 89 -29l33 -17q19 -10 29 -10q14 0 14 20v41h113v-88q0 -44 -23.5 -70t-66.5 -26q-36 0 -89 28zM459 251v335h164v-345q0 -111 -70 -181.5t-198 -70.5q-130 0 -200 70t-70 182v345
h166v-335q0 -52 27 -82.5t77 -30.5q49 0 76.5 30.5t27.5 82.5z" />
    <glyph glyph-name="Umacron.sc" horiz-adv-x="708" 
d="M531 665h-352v122h352v-122zM459 251v335h164v-345q0 -111 -70 -181.5t-198 -70.5q-130 0 -200 70t-70 182v345h166v-335q0 -52 27 -82.5t77 -30.5q49 0 76.5 30.5t27.5 82.5z" />
    <glyph glyph-name="Ubreve.sc" horiz-adv-x="708" 
d="M355 749q25 0 37.5 15t12.5 36v10h123v-13q0 -70 -44 -114.5t-129 -44.5t-129 44.5t-44 114.5v13h123v-10q0 -22 12.5 -36.5t37.5 -14.5zM459 251v335h164v-345q0 -111 -70 -181.5t-198 -70.5q-130 0 -200 70t-70 182v345h166v-335q0 -52 27 -82.5t77 -30.5
q49 0 76.5 30.5t27.5 82.5z" />
    <glyph glyph-name="Uring.sc" horiz-adv-x="708" 
d="M355 635q-61 0 -100.5 39t-39.5 98t39.5 98t100.5 39t101 -39t40 -98t-40 -98t-101 -39zM355 715q24 0 39.5 16t15.5 41t-15 40.5t-40 15.5t-40 -15.5t-15 -40.5t15.5 -41t39.5 -16zM459 251v335h164v-345q0 -111 -70 -181.5t-198 -70.5q-130 0 -200 70t-70 182v345h166
v-335q0 -52 27 -82.5t77 -30.5q49 0 76.5 30.5t27.5 82.5z" />
    <glyph glyph-name="Uhungarumlaut.sc" horiz-adv-x="708" 
d="M387 645l77 162h154l-83 -162h-148zM170 645l73 162h155l-80 -162h-148zM459 251v335h164v-345q0 -111 -70 -181.5t-198 -70.5q-130 0 -200 70t-70 182v345h166v-335q0 -52 27 -82.5t77 -30.5q49 0 76.5 30.5t27.5 82.5z" />
    <glyph glyph-name="Uogonek.sc" horiz-adv-x="708" 
d="M521 19q-34 -34 -48.5 -53t-14.5 -34q0 -23 29 -23h58v-109h-143q-56 0 -88.5 22.5t-32.5 64.5q0 59 90 102h-16q-130 0 -200 70t-70 182v345h166v-335q0 -52 27 -82.5t77 -30.5q49 0 76.5 30.5t27.5 82.5v335h164v-345q0 -71 -26.5 -121.5t-75.5 -100.5z" />
    <glyph glyph-name="V.sc" horiz-adv-x="652" 
d="M244 -1l-220 587h186l125 -368l123 368h171l-207 -587h-178z" />
    <glyph glyph-name="W.sc" horiz-adv-x="884" 
d="M519 587l93 -357l88 356h157l-158 -587h-164l-95 345l-95 -345h-153l-165 587h172l87 -349l92 350h141z" />
    <glyph glyph-name="Wcircumflex.sc" horiz-adv-x="884" 
d="M503 644l-61 75l-61 -75h-149l133 166h154l130 -166h-146zM519 587l93 -357l88 356h157l-158 -587h-164l-95 345l-95 -345h-153l-165 587h172l87 -349l92 350h141z" />
    <glyph glyph-name="Wgrave.sc" horiz-adv-x="884" 
d="M527 645h-167l-111 162h175zM519 587l93 -357l88 356h157l-158 -587h-164l-95 345l-95 -345h-153l-165 587h172l87 -349l92 350h141z" />
    <glyph glyph-name="Wacute.sc" horiz-adv-x="884" 
d="M360 645l103 162h175l-111 -162h-167zM519 587l93 -357l88 356h157l-158 -587h-164l-95 345l-95 -345h-153l-165 587h172l87 -349l92 350h141z" />
    <glyph glyph-name="Wdieresis.sc" horiz-adv-x="884" 
d="M246 645v158h160v-158h-160zM478 645v158h160v-158h-160zM519 587l93 -357l88 356h157l-158 -587h-164l-95 345l-95 -345h-153l-165 587h172l87 -349l92 350h141z" />
    <glyph glyph-name="X.sc" horiz-adv-x="685" 
d="M204 0h-189l230 295l-223 291h208l119 -158l123 158h190l-220 -282l228 -304h-200l-132 172z" />
    <glyph glyph-name="Y.sc" horiz-adv-x="630" 
d="M233 235l-226 351h199l120 -195l120 195h177l-215 -356v-230h-175v235z" />
    <glyph glyph-name="Yacute.sc" horiz-adv-x="630" 
d="M231 645l103 162h175l-111 -162h-167zM233 235l-226 351h199l120 -195l120 195h177l-215 -356v-230h-175v235z" />
    <glyph glyph-name="Ycircumflex.sc" horiz-adv-x="630" 
d="M387 644l-61 75l-61 -75h-149l133 166h154l130 -166h-146zM233 235l-226 351h199l120 -195l120 195h177l-215 -356v-230h-175v235z" />
    <glyph glyph-name="Ydieresis.sc" horiz-adv-x="630" 
d="M130 645v158h160v-158h-160zM362 645v158h160v-158h-160zM233 235l-226 351h199l120 -195l120 195h177l-215 -356v-230h-175v235z" />
    <glyph glyph-name="Ygrave.sc" horiz-adv-x="630" 
d="M414 645h-167l-111 162h175zM233 235l-226 351h199l120 -195l120 195h177l-215 -356v-230h-175v235z" />
    <glyph glyph-name="Z.sc" horiz-adv-x="641" 
d="M53 0v94l277 353h-269v139h509v-91l-278 -354h307v-141h-546z" />
    <glyph glyph-name="Zacute.sc" horiz-adv-x="641" 
d="M230 645l103 162h175l-111 -162h-167zM53 0v94l277 353h-269v139h509v-91l-278 -354h307v-141h-546z" />
    <glyph glyph-name="Zdotaccent.sc" horiz-adv-x="641" 
d="M230 645v159h170v-159h-170zM53 0v94l277 353h-269v139h509v-91l-278 -354h307v-141h-546z" />
    <glyph glyph-name="Zcaron.sc" horiz-adv-x="641" 
d="M103 810h148l64 -77l64 77h149l-136 -166h-154zM53 0v94l277 353h-269v139h509v-91l-278 -354h307v-141h-546z" />
    <glyph glyph-name="AE.sc" horiz-adv-x="908" 
d="M-1 0l294 586h543v-129h-275v-86h219v-134h-219v-101h302v-136h-461v109h-176l-54 -109h-173zM289 238h113v229z" />
    <glyph glyph-name="AEacute.sc" horiz-adv-x="908" 
d="M478 645l103 162h175l-111 -162h-167zM-1 0l294 586h543v-129h-275v-86h219v-134h-219v-101h302v-136h-461v109h-176l-54 -109h-173zM289 238h113v229z" />
    <glyph glyph-name="Eth.sc" horiz-adv-x="685" 
d="M96 0v231h-74v129h74v226h220q146 0 230 -73t84 -220q0 -144 -84.5 -218.5t-229.5 -74.5h-220zM373 231h-112v-94h53q70 0 109 41t39 115q0 77 -38.5 117t-109.5 40h-53v-90h112v-129z" />
    <glyph glyph-name="Oslash.sc" horiz-adv-x="688" 
d="M29 0l85 103q-58 77 -58 190q0 143 81 223.5t205 80.5q80 0 147 -38l23 27h146l-85 -102q58 -79 58 -191q0 -140 -81 -222t-205 -82q-81 0 -148 39l-24 -28h-144zM211 293q0 -37 6 -66l183 223q-26 8 -57 8q-62 0 -97 -46t-35 -119zM343 127q63 0 97.5 46t34.5 120
q0 35 -5 65l-184 -222q26 -9 57 -9z" />
    <glyph glyph-name="Oslashacute.sc" horiz-adv-x="688" 
d="M261 645l103 162h175l-111 -162h-167zM29 0l85 103q-58 77 -58 190q0 143 81 223.5t205 80.5q80 0 147 -38l23 27h146l-85 -102q58 -79 58 -191q0 -140 -81 -222t-205 -82q-81 0 -148 39l-24 -28h-144zM211 293q0 -37 6 -66l183 223q-26 8 -57 8q-62 0 -97 -46t-35 -119z
M343 127q63 0 97.5 46t34.5 120q0 35 -5 65l-184 -222q26 -9 57 -9z" />
    <glyph glyph-name="Thorn.sc" horiz-adv-x="666" 
d="M89 0v586h165v-95h152q101 0 156.5 -49.5t55.5 -142.5t-56 -142.5t-157 -49.5h-151v-107h-165zM380 355h-126v-112h126q68 0 68 56t-68 56z" />
    <glyph glyph-name="Dcroat.sc" horiz-adv-x="685" 
d="M96 0v231h-74v129h74v226h220q146 0 230 -73t84 -220q0 -144 -84.5 -218.5t-229.5 -74.5h-220zM373 231h-112v-94h53q70 0 109 41t39 115q0 77 -38.5 117t-109.5 40h-53v-90h112v-129z" />
    <glyph glyph-name="Hbar.sc" horiz-adv-x="723" 
d="M89 0v427h-70v99h70v60h165v-60h214v60h165v-60h70v-99h-70v-427h-165v221h-214v-221h-165zM254 365h214v62h-214v-62z" />
    <glyph glyph-name="IJ.sc" horiz-adv-x="947" 
d="M91 0v586h165v-586h-165zM861 191q0 -92 -59.5 -147t-170.5 -55q-107 0 -162.5 55t-55.5 147v90h155v-74q0 -33 15.5 -53t47.5 -20t48 20.5t16 52.5v379h166v-395z" />
    <glyph glyph-name="Ldot.sc" horiz-adv-x="618" 
d="M89 0v586h165v-442h273v-144h-438zM391 266v196h187v-196h-187z" />
    <glyph glyph-name="Lslash.sc" horiz-adv-x="573" 
d="M96 0v167l-75 -34v127l75 35v291h165v-214l168 78v-132l-168 -76v-98h273v-144h-438z" />
    <glyph glyph-name="Eng.sc" horiz-adv-x="722" 
d="M483 -5q0 21 -28 62l-207 300v-357h-159v586h183l205 -305v305h156v-604q0 -76 -33 -108.5t-102 -32.5h-146v117h81q50 0 50 37z" />
    <glyph glyph-name="OE.sc" horiz-adv-x="914" 
d="M375 0q-145 0 -232 76.5t-87 216.5t87 216.5t232 76.5h466v-129h-274v-86h218v-134h-218v-101h301v-136h-493zM378 140h29v307h-29q-73 0 -114 -41.5t-41 -112.5q0 -70 41 -111.5t114 -41.5z" />
    <glyph glyph-name="Tbar.sc" horiz-adv-x="623" 
d="M230 0v219h-127v120h127v105h-191v142h546v-142h-191v-105h127v-120h-127v-219h-164z" />
    <glyph glyph-name="uni018F.sc" horiz-adv-x="688" 
d="M339 458q-82 0 -114 -70l-143 52q27 68 90.5 112.5t167.5 44.5q122 0 206.5 -82.5t84.5 -221.5q0 -140 -82 -222t-208 -82q-123 0 -204 80t-81 220q0 32 5 57h407q-7 51 -41 81.5t-88 30.5zM341 128q106 0 126 100h-247q18 -100 121 -100z" />
    <glyph glyph-name="uni0402.sc" horiz-adv-x="812" 
d="M219 0v444h-180v142h546v-142h-201v-107q46 11 111 11q114 0 178.5 -57t64.5 -165q0 -99 -61 -164.5t-163 -65.5q-60 0 -103 20l61 129q15 -5 33 -5q33 0 50 22.5t17 59.5q0 87 -98 87q-24 0 -46.5 -3t-33.5 -6l-10 -3v-197h-165z" />
    <glyph glyph-name="uni0404.sc" horiz-adv-x="626" 
d="M333 128q68 0 97 70l144 -51q-5 -16 -13.5 -33.5t-27.5 -41t-44 -41t-66 -30t-90 -12.5q-124 0 -200.5 82t-76.5 222q0 139 76.5 221.5t200.5 82.5q60 0 107 -17t74 -44.5t41 -50.5t21 -45l-148 -53q-26 71 -95 71q-46 0 -73.5 -27t-36.5 -73h156v-130h-157
q8 -47 37 -73.5t74 -26.5z" />
    <glyph glyph-name="uni0405.sc" horiz-adv-x="625" 
d="M317 116q39 0 61 14t22 38q0 45 -69 54q-21 3 -51 6q-111 13 -168 58.5t-57 130.5q0 84 67.5 132.5t177.5 48.5q61 0 109.5 -12.5t77 -33.5t43.5 -38.5t24 -35.5l-149 -49q-38 43 -104 43q-77 0 -77 -46q0 -38 65 -46q3 -1 51 -7q116 -13 173 -56.5t57 -133.5
q0 -87 -67 -140.5t-186 -53.5q-65 0 -117.5 14.5t-83 37.5t-47 42.5t-25.5 39.5l156 55q40 -62 117 -62z" />
    <glyph glyph-name="uni0406.sc" horiz-adv-x="347" 
d="M91 0v586h165v-586h-165z" />
    <glyph glyph-name="uni0407.sc" horiz-adv-x="347" 
d="M-23 645v158h160v-158h-160zM209 645v158h160v-158h-160zM91 0v586h165v-586h-165z" />
    <glyph glyph-name="uni0408.sc" horiz-adv-x="607" 
d="M514 191q0 -92 -59.5 -147t-170.5 -55q-107 0 -162.5 55t-55.5 147v90h155v-74q0 -33 15.5 -53t47.5 -20t48 20.5t16 52.5v379h166v-395z" />
    <glyph glyph-name="uni0409.sc" horiz-adv-x="991" 
d="M122 270l27 316h438v-176h132q105 0 164.5 -53t59.5 -152t-59 -152t-164 -53h-298v443h-135l-16 -185q-12 -139 -57.5 -203t-153.5 -64h-10l-20 154h15q40 0 55.5 25t21.5 100zM694 274h-107v-138h107q80 0 80 69t-80 69z" />
    <glyph glyph-name="uni040A.sc" horiz-adv-x="1017" 
d="M89 0v586h165v-195h204v195h165v-195h121q106 0 165.5 -50.5t59.5 -145.5t-58.5 -145t-164.5 -50h-288v248h-204v-248h-165zM723 255h-100v-119h100q77 0 77 59q0 60 -77 60z" />
    <glyph glyph-name="uni040B.sc" horiz-adv-x="807" 
d="M219 0v444h-180v142h546v-142h-201v-107q51 11 119 11q115 0 173 -55.5t58 -180.5v-112h-165v107q0 54 -22.5 78t-70.5 24q-25 0 -48 -3t-34 -6l-10 -3v-197h-165z" />
    <glyph glyph-name="uni040F.sc" horiz-adv-x="713" 
d="M89 586h165v-442h204v442h165v-586h-193v-162h-148v162h-193v586z" />
    <glyph glyph-name="uni0410.sc" horiz-adv-x="665" 
d="M470 0l-30 88h-230l-30 -88h-158l213 587h194l214 -587h-173zM255 218h140l-69 203z" />
    <glyph glyph-name="uni04D0.sc" horiz-adv-x="665" 
d="M326 749q25 0 37.5 14.5t12.5 36.5v10l123 -14v-3q0 -69 -44 -112.5t-129 -43.5t-129 43.5t-44 112.5v3l123 14v-10q0 -22 12.5 -36.5t37.5 -14.5zM470 0l-30 88h-230l-30 -88h-158l213 587h194l214 -587h-173zM255 218h140l-69 203z" />
    <glyph glyph-name="uni0411.sc" horiz-adv-x="664" 
d="M389 370q104 0 162 -47t58 -134q0 -92 -57.5 -140.5t-161.5 -48.5h-301v586h472v-136h-307v-80h135zM364 248h-110v-119h110q76 0 76 59q0 28 -19.5 44t-56.5 16z" />
    <glyph glyph-name="uni0412.sc" horiz-adv-x="680" 
d="M89 0v586h331q91 0 140.5 -42t49.5 -113q0 -46 -25.5 -77.5t-61.5 -43.5q44 -12 73.5 -49t29.5 -94q0 -77 -54 -122t-154 -45h-329zM384 463h-133v-102h133q58 0 58 51t-58 51zM381 240h-130v-117h130q75 0 75 59q0 58 -75 58z" />
    <glyph glyph-name="uni0413.sc" horiz-adv-x="621" 
d="M89 0v586h496v-143h-331v-443h-165z" />
    <glyph glyph-name="uni0403.sc" horiz-adv-x="621" 
d="M253 645l103 162h175l-111 -162h-167zM89 0v586h496v-143h-331v-443h-165z" />
    <glyph glyph-name="uni0414.sc" horiz-adv-x="708" 
d="M138 586h456v-442h96v-306h-148v162h-387v-162h-148v306h56q42 63 56 223zM268 360q-14 -155 -45 -216h206v299h-154z" />
    <glyph glyph-name="uni0415.sc" horiz-adv-x="629" 
d="M89 0v586h471v-129h-305v-87h249v-134h-249v-101h332v-135h-498z" />
    <glyph glyph-name="uni0401.sc" horiz-adv-x="629" 
d="M126 645v158h160v-158h-160zM358 645v158h160v-158h-160zM89 0v586h471v-129h-305v-87h249v-134h-249v-101h332v-135h-498z" />
    <glyph glyph-name="uni04D6.sc" horiz-adv-x="629" 
d="M323 749q25 0 37.5 14.5t12.5 36.5v10l123 -14v-3q0 -69 -44 -112.5t-129 -43.5t-129 43.5t-44 112.5v3l123 14v-10q0 -22 12.5 -36.5t37.5 -14.5zM89 0v586h471v-129h-305v-87h249v-134h-249v-101h332v-135h-498z" />
    <glyph glyph-name="uni0416.sc" horiz-adv-x="923" 
d="M10 0l218 301l-215 285h188l176 -235v235h165v-234l175 234h184l-211 -279l223 -307h-194l-177 244v-244h-165v245l-178 -245h-189z" />
    <glyph glyph-name="uni04C1.sc" horiz-adv-x="923" 
d="M460 749q25 0 37.5 14.5t12.5 36.5v10l123 -14v-3q0 -69 -44 -112.5t-129 -43.5t-129 43.5t-44 112.5v3l123 14v-10q0 -22 12.5 -36.5t37.5 -14.5zM10 0l218 301l-215 285h188l176 -235v235h165v-234l175 234h184l-211 -279l223 -307h-194l-177 244v-244h-165v245
l-178 -245h-189z" />
    <glyph glyph-name="uni0417.sc" horiz-adv-x="631" 
d="M318 -11q-111 0 -176.5 46t-90.5 111l146 52q31 -77 121 -77q89 0 89 62q0 57 -75 57h-73v121h70q63 0 63 50q0 54 -79 54q-81 0 -111 -77l-146 53q25 67 89.5 111.5t167.5 44.5q118 0 183 -45t65 -121q0 -45 -24.5 -76t-60.5 -45q43 -12 71.5 -46.5t28.5 -86.5
q0 -86 -67 -137t-191 -51z" />
    <glyph glyph-name="uni0418.sc" horiz-adv-x="733" 
d="M89 0v586h165v-348l224 348h165v-586h-165v348l-224 -348h-165z" />
    <glyph glyph-name="uni0419.sc" horiz-adv-x="733" 
d="M366 749q25 0 37.5 14.5t12.5 36.5v10l123 -14v-3q0 -69 -44 -112.5t-129 -43.5t-129 43.5t-44 112.5v3l123 14v-10q0 -22 12.5 -36.5t37.5 -14.5zM89 0v586h165v-348l224 348h165v-586h-165v348l-224 -348h-165z" />
    <glyph glyph-name="uni04E2.sc" horiz-adv-x="733" 
d="M542 665h-352v122h352v-122zM89 0v586h165v-348l224 348h165v-586h-165v348l-224 -348h-165z" />
    <glyph glyph-name="uni041A.sc" horiz-adv-x="670" 
d="M89 0v586h165v-239l196 239h199l-228 -277l240 -309h-209l-198 250v-250h-165z" />
    <glyph glyph-name="uni040C.sc" horiz-adv-x="670" 
d="M258 645l103 162h175l-111 -162h-167zM89 0v586h165v-239l196 239h199l-228 -277l240 -309h-209l-198 250v-250h-165z" />
    <glyph glyph-name="uni041B.sc" horiz-adv-x="694" 
d="M122 270l27 316h456v-586h-165v443h-153l-16 -185q-12 -139 -57.5 -203t-153.5 -64h-10l-20 154h15q40 0 55.5 25t21.5 100z" />
    <glyph glyph-name="uni041C.sc" horiz-adv-x="852" 
d="M89 0v586h239l101 -319l100 319h234v-586h-158v417l-131 -417h-104l-132 416v-416h-149z" />
    <glyph glyph-name="uni041D.sc" horiz-adv-x="723" 
d="M89 0v586h165v-221h214v221h165v-586h-165v221h-214v-221h-165z" />
    <glyph glyph-name="uni041E.sc" horiz-adv-x="688" 
d="M343 -11q-124 0 -205.5 81.5t-81.5 222.5q0 142 81 223t206 81t206.5 -81t81.5 -223q0 -140 -81.5 -222t-206.5 -82zM343 135q57 0 88.5 44t31.5 114q0 71 -31.5 115t-88.5 44q-55 0 -87.5 -44.5t-32.5 -114.5t32 -114t88 -44z" />
    <glyph glyph-name="uni04E6.sc" horiz-adv-x="688" 
d="M147 645v158h160v-158h-160zM379 645v158h160v-158h-160zM343 -11q-124 0 -205.5 81.5t-81.5 222.5q0 142 81 223t206 81t206.5 -81t81.5 -223q0 -140 -81.5 -222t-206.5 -82zM343 135q57 0 88.5 44t31.5 114q0 71 -31.5 115t-88.5 44q-55 0 -87.5 -44.5t-32.5 -114.5
t32 -114t88 -44z" />
    <glyph glyph-name="uni041F.sc" horiz-adv-x="713" 
d="M89 0v586h534v-586h-165v443h-204v-443h-165z" />
    <glyph glyph-name="uni0420.sc" horiz-adv-x="666" 
d="M89 0v586h311q103 0 160.5 -50t57.5 -145t-57.5 -146t-160.5 -51h-146v-194h-165zM375 450h-121v-120h121q74 0 74 60t-74 60z" />
    <glyph glyph-name="uni0421.sc" horiz-adv-x="626" 
d="M333 135q65 0 95 64l146 -52q-5 -16 -13.5 -33.5t-27.5 -41t-44 -41t-66 -30t-90 -12.5q-124 0 -200.5 82t-76.5 222q0 139 76.5 221.5t200.5 82.5q60 0 107 -17t74 -44.5t41 -50.5t21 -45l-148 -53q-28 64 -95 64q-51 0 -79.5 -43.5t-28.5 -114.5t28.5 -114.5
t79.5 -43.5z" />
    <glyph glyph-name="uni0422.sc" horiz-adv-x="623" 
d="M230 0v444h-191v142h546v-142h-191v-444h-164z" />
    <glyph glyph-name="uni0423.sc" horiz-adv-x="646" 
d="M39 160v7l149 26v-31q0 -41 33 -41q17 0 26.5 11t24.5 41l-247 413h192l136 -241l115 241h170l-214 -433q-43 -87 -88.5 -126.5t-118.5 -39.5q-86 0 -132 45.5t-46 127.5z" />
    <glyph glyph-name="uni040E.sc" horiz-adv-x="646" 
d="M352 749q25 0 37.5 14.5t12.5 36.5v10l123 -14v-3q0 -69 -44 -112.5t-129 -43.5t-129 43.5t-44 112.5v3l123 14v-10q0 -22 12.5 -36.5t37.5 -14.5zM39 160v7l149 26v-31q0 -41 33 -41q17 0 26.5 11t24.5 41l-247 413h192l136 -241l115 241h170l-214 -433
q-43 -87 -88.5 -126.5t-118.5 -39.5q-86 0 -132 45.5t-46 127.5z" />
    <glyph glyph-name="uni04EE.sc" horiz-adv-x="646" 
d="M528 665h-352v122h352v-122zM39 160v7l149 26v-31q0 -41 33 -41q17 0 26.5 11t24.5 41l-247 413h192l136 -241l115 241h170l-214 -433q-43 -87 -88.5 -126.5t-118.5 -39.5q-86 0 -132 45.5t-46 127.5z" />
    <glyph glyph-name="uni04F2.sc" horiz-adv-x="646" 
d="M369 646l77 162h154l-83 -162h-148zM152 646l73 162h155l-80 -162h-148zM39 160v7l149 26v-31q0 -41 33 -41q17 0 26.5 11t24.5 41l-247 413h192l136 -241l115 241h170l-214 -433q-43 -87 -88.5 -126.5t-118.5 -39.5q-86 0 -132 45.5t-46 127.5z" />
    <glyph glyph-name="uni0424.sc" horiz-adv-x="938" 
d="M272 90q-107 0 -166.5 54t-59.5 155q0 102 59 155t166 53h116v89h164v-89h116q107 0 166 -53t59 -155q0 -101 -59.5 -155t-166.5 -54h-115v-100h-164v100h-115zM387 226v145h-90q-81 0 -81 -72q0 -73 81 -73h90zM641 371h-90v-145h90q81 0 81 73q0 72 -81 72z" />
    <glyph glyph-name="uni0425.sc" horiz-adv-x="685" 
d="M204 0h-189l230 295l-223 291h208l119 -158l123 158h190l-220 -282l228 -304h-200l-132 172z" />
    <glyph glyph-name="uni0426.sc" horiz-adv-x="735" 
d="M458 144v442h165v-442h94v-306h-149v162h-479v586h165v-442h204z" />
    <glyph glyph-name="uni0427.sc" horiz-adv-x="696" 
d="M441 0v197q-67 -10 -120 -10q-122 0 -185 61.5t-63 195.5v142h165v-142q0 -60 25.5 -87t78.5 -27q56 0 99 10v246h165v-586h-165z" />
    <glyph glyph-name="uni0428.sc" horiz-adv-x="988" 
d="M89 586h165v-442h158v442h165v-442h157v442h165v-586h-810v586z" />
    <glyph glyph-name="uni0429.sc" horiz-adv-x="1024" 
d="M89 586h165v-442h158v442h165v-442h157v442h165v-442h107v-306h-149v162h-768v586z" />
    <glyph glyph-name="uni042A.sc" horiz-adv-x="753" 
d="M37 443v143h312v-176h132q105 0 164.5 -53t59.5 -152t-59 -152t-164 -53h-298v443h-147zM456 274h-107v-138h107q79 0 79 69t-79 69z" />
    <glyph glyph-name="uni042B.sc" horiz-adv-x="926" 
d="M386 410q105 0 164 -53t59 -152t-58.5 -152t-163.5 -53h-298v586h165v-176h132zM671 0v586h165v-586h-165zM361 274h-107v-138h107q79 0 79 69t-79 69z" />
    </font>
</defs>
</svg>
