<?xml version="1.0" standalone="no"?>
<!DOCTYPE svg PUBLIC "-//W3C//DTD SVG 1.1//EN" "http://www.w3.org/Graphics/SVG/1.1/DTD/svg11.dtd" >
<svg xmlns="http://www.w3.org/2000/svg" xmlns:xlink="http://www.w3.org/1999/xlink" version="1.1">
<metadata>
Created by FontForge 20220308 at Thu Sep 27 16:56:13 2018
 By romain pradier
Copyright (c) 2018 Commercial Type, Inc.. All rights reserved.
</metadata>
<defs>
<font id="BurberryStyrene-Medium" horiz-adv-x="600" >
  <font-face 
    font-family="Burberry Styrene Medium"
    font-weight="500"
    font-stretch="normal"
    units-per-em="1000"
    panose-1="0 0 0 0 0 0 0 0 0 0"
    ascent="786"
    descent="-214"
    x-height="506"
    cap-height="710"
    bbox="-78 -322 1382 1207"
    underline-thickness="76"
    underline-position="-152"
    unicode-range="U+0020-F6D4"
  />
<missing-glyph horiz-adv-x="500" 
d="M50 -214v950h400v-950h-400zM100 -164h300v850h-300v-850z" />
    <glyph glyph-name=".notdef" horiz-adv-x="500" 
d="M50 -214v950h400v-950h-400zM100 -164h300v850h-300v-850z" />
    <glyph glyph-name=".null" horiz-adv-x="0" 
 />
    <glyph glyph-name="nonmarkingreturn" horiz-adv-x="333" 
 />
    <glyph glyph-name="space" unicode=" " horiz-adv-x="258" 
 />
    <glyph glyph-name="exclam" unicode="!" horiz-adv-x="342" 
d="M107 235v475h127v-475h-127zM94 0v159h153v-159h-153z" />
    <glyph glyph-name="quotedbl" unicode="&#x22;" horiz-adv-x="498" 
d="M202 403h-111v307h111v-307zM407 403h-111v307h111v-307z" />
    <glyph glyph-name="numbersign" unicode="#" horiz-adv-x="748" 
d="M95 0l49 179h-117v96h144l47 171h-118v96h145l46 168h109l-47 -168h143l46 168h109l-47 -168h117v-96h-143l-48 -171h118v-96h-144l-50 -179h-108l49 179h-142l-50 -179h-108zM279 275h143l47 171h-142z" />
    <glyph glyph-name="dollar" unicode="$" horiz-adv-x="607" 
d="M250 -123v125q-86 13 -134 68t-51 136l127 12q2 -48 29.5 -79.5t81.5 -31.5q52 0 80 24.5t28 64.5q0 69 -85 94q-4 1 -81 23q-87 26 -128.5 75t-41.5 133q0 76 48 126.5t127 63.5v118h110v-119q78 -13 120 -62.5t45 -123.5l-124 -14q-1 40 -26 68t-73 28q-45 0 -72 -22
t-27 -61q0 -67 86 -92q5 -2 39 -11.5t42 -12.5q86 -26 128.5 -75t42.5 -134q0 -77 -47.5 -129.5t-133.5 -66.5v-125h-110z" />
    <glyph glyph-name="percent" unicode="%" horiz-adv-x="1003" 
d="M245 348q-80 0 -134 54t-54 133t54 133t134 54t134 -54t54 -133t-54 -133t-134 -54zM186 0l512 710h119l-512 -710h-119zM245 443q39 0 63.5 26.5t24.5 65.5t-24.5 65t-63.5 26q-38 0 -62.5 -26t-24.5 -65q0 -40 24 -66t63 -26zM758 -14q-80 0 -134 54t-54 133t54 133
t134 54t134 -54t54 -133t-54 -133t-134 -54zM758 82q39 0 63.5 26t24.5 65t-24.5 65.5t-63.5 26.5q-38 0 -62.5 -26.5t-24.5 -65.5t24.5 -65t62.5 -26z" />
    <glyph glyph-name="ampersand" unicode="&#x26;" horiz-adv-x="747" 
d="M627 -8l-117 112q-55 -58 -107 -87t-125 -29q-103 0 -165.5 51.5t-62.5 138.5q0 71 43 121t117 93q-83 86 -83 162q0 72 55 120t142 48q95 0 148.5 -46t53.5 -122q0 -58 -37.5 -100t-98.5 -79l115 -113l119 129l81 -72l-122 -134l121 -119zM250 553q0 -19 12 -40t24 -34
t36 -37q41 27 62.5 52t21.5 57q0 34 -22 53.5t-57 19.5q-33 0 -55 -20t-22 -51zM180 191q0 -39 27.5 -64.5t73.5 -25.5q40 0 74 19t75 61l-147 140q-36 -25 -53 -38.5t-33.5 -38.5t-16.5 -53z" />
    <glyph glyph-name="quotesingle" unicode="'" horiz-adv-x="296" 
d="M205 403h-114v307h114v-307z" />
    <glyph glyph-name="parenleft" unicode="(" horiz-adv-x="364" 
d="M193 350q0 -107 23 -208t45 -152t56 -114h-116q-121 232 -121 474q0 240 121 472h116q-34 -64 -56 -114t-45 -150.5t-23 -207.5z" />
    <glyph glyph-name="parenright" unicode=")" horiz-adv-x="364" 
d="M171 350q0 107 -23 207.5t-45 150.5t-56 114h116q32 -62 54.5 -115t45 -153t22.5 -204q0 -240 -122 -474h-116q34 63 56 114t45 152t23 208z" />
    <glyph glyph-name="asterisk" unicode="*" horiz-adv-x="484" 
d="M196 737h92l-1 -139l131 45l30 -82l-137 -47l96 -118l-72 -54l-92 117l-93 -117l-72 54l96 118l-138 47l30 82l130 -45v139z" />
    <glyph glyph-name="plus" unicode="+" horiz-adv-x="696" 
d="M289 49v217h-209v112h209v216h118v-216h209v-112h-209v-217h-118z" />
    <glyph glyph-name="comma" unicode="," horiz-adv-x="313" 
d="M152 -225l-75 29q71 104 75 196h-72v170h153v-154q0 -132 -81 -241z" />
    <glyph glyph-name="hyphen" unicode="-" horiz-adv-x="493" 
d="M80 239v118h333v-118h-333z" />
    <glyph glyph-name="period" unicode="." horiz-adv-x="313" 
d="M80 0v170h153v-170h-153z" />
    <glyph glyph-name="slash" unicode="/" horiz-adv-x="422" 
d="M27 -70l249 830h113l-249 -830h-113z" />
    <glyph glyph-name="zero" unicode="0" horiz-adv-x="695" 
d="M348 723q120 0 190.5 -70.5t70.5 -192.5v-210q0 -124 -70.5 -193.5t-190.5 -69.5t-190.5 69.5t-70.5 193.5v210q0 122 70.5 192.5t190.5 70.5zM348 107q62 0 95.5 40t33.5 105v206q0 65 -33.5 105t-95.5 40q-63 0 -96 -40t-33 -105v-206q0 -65 33 -105t96 -40z" />
    <glyph glyph-name="one" unicode="1" horiz-adv-x="459" 
d="M351 0h-132v563l-175 -100v124l208 126h99v-713z" />
    <glyph glyph-name="two" unicode="2" horiz-adv-x="630" 
d="M592 117v-117h-526v86l253 238q54 53 77.5 89t23.5 81q0 49 -29.5 79t-81.5 30q-55 0 -82.5 -34.5t-30.5 -84.5l-129 17q5 94 68.5 157.5t173.5 63.5q113 0 178.5 -62.5t65.5 -162.5q0 -40 -10.5 -74.5t-34.5 -68t-46.5 -57.5t-61.5 -61l-126 -119h318z" />
    <glyph glyph-name="three" unicode="3" horiz-adv-x="647" 
d="M319 106q61 0 96 27.5t35 75.5q0 47 -30 72.5t-85 25.5h-73v116h69q47 0 72.5 23.5t25.5 66.5t-31.5 68t-84.5 25q-92 0 -118 -88l-126 32q5 28 20.5 55.5t43 55t74.5 44.5t106 17q118 0 183.5 -54t65.5 -146q0 -57 -29 -94.5t-67 -52.5q48 -13 83.5 -57t35.5 -118
q0 -95 -71.5 -153.5t-193.5 -58.5q-67 0 -119 19t-80.5 49.5t-43.5 56.5t-22 52l126 37q37 -96 138 -96z" />
    <glyph glyph-name="four" unicode="4" horiz-adv-x="704" 
d="M669 205h-144v-205h-129v205h-356v81l335 424h150v-392h144v-113zM193 318h203v262z" />
    <glyph glyph-name="five" unicode="5" horiz-adv-x="656" 
d="M214 308h-115v402h466v-113h-341v-170q50 52 140 52q97 0 162.5 -64t65.5 -173v-8q0 -109 -71.5 -177.5t-192.5 -68.5q-65 0 -115.5 18.5t-79 49t-44.5 59.5t-22 60l128 33q4 -13 7 -21t14 -25t23.5 -27.5t36 -19.5t52.5 -9q58 0 94.5 36t36.5 91v7q0 58 -36 92.5
t-95 34.5q-79 0 -114 -59z" />
    <glyph glyph-name="six" unicode="6" horiz-adv-x="660" 
d="M599 238q0 -109 -73 -179.5t-196 -70.5q-124 0 -196 69.5t-72 180.5q0 76 28 134.5t88 134.5l157 203h151l-204 -259q38 23 94 23q99 0 161 -65t62 -171zM466 238q0 59 -36.5 96.5t-100.5 37.5q-60 0 -97.5 -38t-37.5 -96q0 -56 37 -94t98 -38q64 0 100.5 37.5t36.5 94.5
z" />
    <glyph glyph-name="seven" unicode="7" horiz-adv-x="621" 
d="M241 0h-147l324 592h-364v118h520v-90z" />
    <glyph glyph-name="eight" unicode="8" horiz-adv-x="672" 
d="M349 722q115 0 178.5 -54.5t63.5 -142.5q0 -65 -33 -105t-76 -54q47 -16 84.5 -60t37.5 -114q0 -92 -68.5 -148t-187.5 -56h-28q-116 0 -184 56t-68 148q0 70 37 114.5t85 59.5q-43 14 -76 54t-33 105q0 88 63.5 142.5t177.5 54.5h27zM212 515q0 -45 31.5 -71.5
t82.5 -26.5h20q51 0 82.5 26.5t31.5 71.5t-31.5 71.5t-82.5 26.5h-20q-51 0 -82.5 -26.5t-31.5 -71.5zM202 203q0 -48 34 -77t88 -29h24q55 0 88.5 29t33.5 77q0 49 -33.5 78t-88.5 29h-24q-54 0 -88 -29.5t-34 -77.5z" />
    <glyph glyph-name="nine" unicode="9" horiz-adv-x="660" 
d="M62 472q0 109 72.5 179.5t195.5 70.5q124 0 196.5 -69.5t72.5 -180.5q0 -75 -28.5 -133.5t-88.5 -135.5l-157 -203h-150l204 260q-39 -24 -95 -24q-99 0 -160.5 65t-61.5 171zM194 472q0 -59 36.5 -96.5t100.5 -37.5q61 0 98 37.5t37 96.5q0 57 -36.5 94.5t-98.5 37.5
q-64 0 -100.5 -37.5t-36.5 -94.5z" />
    <glyph glyph-name="colon" unicode=":" horiz-adv-x="323" 
d="M85 331v170h153v-170h-153zM85 0v170h153v-170h-153z" />
    <glyph glyph-name="semicolon" unicode=";" horiz-adv-x="323" 
d="M85 331v170h153v-170h-153zM157 -225l-75 29q71 104 75 196h-72v170h153v-154q0 -132 -81 -241z" />
    <glyph glyph-name="less" unicode="&#x3c;" horiz-adv-x="638" 
d="M548 177v-122l-468 203v103l468 204v-124l-318 -132z" />
    <glyph glyph-name="equal" unicode="=" horiz-adv-x="701" 
d="M617 371h-532v111h532v-111zM617 151h-532v111h532v-111z" />
    <glyph glyph-name="greater" unicode="&#x3e;" horiz-adv-x="638" 
d="M558 258l-468 -203v123l318 133l-318 132v122l468 -204v-103z" />
    <glyph glyph-name="question" unicode="?" horiz-adv-x="535" 
d="M322 235h-127v18q0 45 13 69.5t59 69.5l42 42q50 50 50 95q0 39 -24.5 62t-67.5 23q-86 0 -96 -96l-124 21q7 83 64 133t156 50q105 0 162.5 -51t57.5 -141q0 -57 -22 -95.5t-76 -88.5l-39 -36q-16 -16 -22 -30.5t-6 -40.5v-4zM182 0v159h153v-159h-153z" />
    <glyph glyph-name="at" unicode="@" horiz-adv-x="1022" 
d="M746 502l-49 -287q-12 -66 44 -66q52 0 90.5 55.5t38.5 155.5q0 137 -89 219t-249 82q-163 0 -267.5 -105.5t-104.5 -277.5q0 -164 104.5 -266t277.5 -102q64 0 121.5 13t96 33t58 33t32.5 24l79 -45q-15 -19 -44 -41t-76 -47.5t-117.5 -42t-149.5 -16.5q-150 0 -261 62
t-166.5 165t-55.5 232q0 203 133.5 335.5t339.5 132.5q105 0 189 -31.5t137 -85.5t80.5 -123.5t27.5 -148.5q0 -130 -64 -213.5t-168 -83.5t-128 66q-42 -66 -128 -66q-83 0 -135.5 57t-52.5 156q0 101 57 167.5t149 66.5q89 0 124 -74l12 67h114zM511 403
q-45 0 -72.5 -36.5t-27.5 -92.5q0 -48 22.5 -77t62.5 -29q45 0 73 36.5t28 93.5q0 48 -22.5 76.5t-63.5 28.5z" />
    <glyph glyph-name="A" unicode="A" horiz-adv-x="755" 
d="M588 0l-57 146h-315l-57 -146h-134l284 713h137l284 -713h-142zM262 262h223l-111 283z" />
    <glyph glyph-name="B" unicode="B" horiz-adv-x="758" 
d="M98 0v710h363q105 0 162 -51t57 -139q0 -55 -32.5 -94t-78.5 -53q55 -15 91.5 -59t36.5 -111q0 -95 -64 -149t-185 -54h-350zM444 596h-214v-174h215q46 0 71.5 22.5t25.5 64.5q0 87 -98 87zM431 309h-201v-195h201q128 0 128 98q0 97 -128 97z" />
    <glyph glyph-name="C" unicode="C" horiz-adv-x="723" 
d="M381 -12q-144 0 -231.5 102.5t-87.5 264.5q0 161 88 264t231 103q57 0 105 -14t78 -34.5t53 -48t33.5 -49t16.5 -42.5l-125 -43q-47 108 -161 108q-85 0 -132 -69.5t-47 -174.5t47 -174.5t132 -69.5q108 0 164 108l120 -41q-6 -19 -16 -39t-32.5 -48.5t-52 -50t-78 -37
t-105.5 -15.5z" />
    <glyph glyph-name="D" unicode="D" horiz-adv-x="775" 
d="M98 0v710h248q169 0 268.5 -93.5t99.5 -261.5q0 -165 -99.5 -260t-268.5 -95h-248zM345 592h-113v-474h113q108 0 170 63.5t62 173.5q0 113 -61.5 175t-170.5 62z" />
    <glyph glyph-name="E" unicode="E" horiz-adv-x="708" 
d="M98 0v710h531v-116h-397v-162h326v-117h-326v-196h433v-119h-567z" />
    <glyph glyph-name="F" unicode="F" horiz-adv-x="699" 
d="M98 0v710h561v-117h-427v-166h356v-117h-356v-310h-134z" />
    <glyph glyph-name="G" unicode="G" horiz-adv-x="777" 
d="M697 77q-38 -36 -109 -63t-169 -27q-162 0 -259.5 102t-97.5 268q0 160 93.5 263t241.5 103q55 0 101.5 -11.5t76 -28t52.5 -39t34 -39.5t18 -34l-124 -45q-56 79 -157 79q-91 0 -144.5 -69t-53.5 -179q0 -114 58.5 -183t160.5 -69q99 0 150 34v157h-159v112h287v-331z
" />
    <glyph glyph-name="H" unicode="H" horiz-adv-x="809" 
d="M98 0v710h134v-293h344v293h135v-710h-135v297h-344v-297h-134z" />
    <glyph glyph-name="I" unicode="I" horiz-adv-x="333" 
d="M99 0v710h135v-710h-135z" />
    <glyph glyph-name="J" unicode="J" horiz-adv-x="645" 
d="M551 220q0 -110 -65 -171.5t-177 -61.5q-111 0 -173 61t-62 172v103h130v-96q0 -54 27.5 -85.5t77.5 -31.5q52 0 79.5 31.5t27.5 85.5v483h135v-490z" />
    <glyph glyph-name="K" unicode="K" horiz-adv-x="739" 
d="M98 0v710h134v-315l311 315h172l-341 -344l359 -366h-181l-320 322v-322h-134z" />
    <glyph glyph-name="L" unicode="L" horiz-adv-x="642" 
d="M98 0v710h134v-587h370v-123h-504z" />
    <glyph glyph-name="M" unicode="M" horiz-adv-x="958" 
d="M98 0v710h203l181 -501l182 501h196v-710h-130v575l-209 -578h-91l-208 573v-570h-124z" />
    <glyph glyph-name="N" unicode="N" horiz-adv-x="812" 
d="M714 710v-714h-106l-380 533v-529h-130v710h155l333 -477v477h128z" />
    <glyph glyph-name="O" unicode="O" horiz-adv-x="783" 
d="M391 -12q-147 0 -238 101.5t-91 265.5t91.5 265.5t237.5 101.5t237.5 -101.5t91.5 -265.5q0 -163 -91.5 -265t-237.5 -102zM391 110q90 0 141 69t51 176t-51 176t-141 69t-140.5 -69t-50.5 -176q0 -108 50.5 -176.5t140.5 -68.5z" />
    <glyph glyph-name="P" unicode="P" horiz-adv-x="735" 
d="M98 0v710h339q118 0 181.5 -55t63.5 -159q0 -101 -64 -158.5t-181 -57.5h-205v-280h-134zM429 590h-197v-190h197q57 0 86 25.5t29 69.5q0 95 -115 95z" />
    <glyph glyph-name="Q" unicode="Q" horiz-adv-x="783" 
d="M391 -8q-147 0 -238 100.5t-91 262.5q0 164 91.5 265.5t237.5 101.5t237.5 -101.5t91.5 -265.5q0 -113 -47 -198.5t-129 -128.5l160 -180h-166l-134 144h-13zM391 110q90 0 141 69t51 176q0 106 -51 175.5t-141 69.5q-89 0 -140 -69t-51 -176q0 -108 50.5 -176.5
t140.5 -68.5z" />
    <glyph glyph-name="R" unicode="R" horiz-adv-x="762" 
d="M98 0v710h342q116 0 179 -53.5t63 -154.5q0 -151 -140 -193l177 -309h-145l-170 295h-172v-295h-134zM431 591h-199v-179h199q113 0 113 90q0 89 -113 89z" />
    <glyph glyph-name="S" unicode="S" horiz-adv-x="708" 
d="M336 610q-64 0 -98.5 -23t-34.5 -63q0 -69 115 -86q17 -3 41 -6l40 -5q120 -16 184 -64.5t64 -152.5q0 -100 -75 -161.5t-207 -61.5q-59 0 -109.5 13t-83.5 31.5t-59.5 43.5t-40 45t-23.5 41l128 47q10 -15 14.5 -21.5t23 -26t36 -29.5t48.5 -19.5t66 -9.5q65 0 105.5 27
t40.5 72q0 44 -31 66t-90 30q-17 3 -41 6.5t-41 5.5q-117 17 -179 65.5t-62 143.5q0 94 74.5 149.5t194.5 55.5q69 0 123 -15t86.5 -40.5t50 -47.5t28.5 -47l-121 -43q-60 80 -167 80z" />
    <glyph glyph-name="T" unicode="T" horiz-adv-x="724" 
d="M295 0v590h-258v120h650v-120h-258v-590h-134z" />
    <glyph glyph-name="U" unicode="U" horiz-adv-x="794" 
d="M566 289v421h134v-431q0 -127 -79.5 -210t-222.5 -83q-147 0 -225.5 82.5t-78.5 210.5v431h135v-421q0 -81 44 -129.5t125 -48.5q79 0 123.5 49t44.5 129z" />
    <glyph glyph-name="V" unicode="V" horiz-adv-x="748" 
d="M309 -2l-280 712h151l201 -536l199 536h139l-272 -712h-138z" />
    <glyph glyph-name="W" unicode="W" horiz-adv-x="1038" 
d="M586 713l150 -507l142 504h127l-206 -713h-124l-155 506l-155 -506h-117l-215 713h141l142 -498l149 501h121z" />
    <glyph glyph-name="X" unicode="X" horiz-adv-x="789" 
d="M182 0h-160l289 367l-269 343h175l181 -233l183 233h161l-265 -336l290 -374h-168l-208 265z" />
    <glyph glyph-name="Y" unicode="Y" horiz-adv-x="704" 
d="M287 287l-279 423h167l186 -288l185 288h150l-270 -424v-286h-139v287z" />
    <glyph glyph-name="Z" unicode="Z" horiz-adv-x="718" 
d="M51 0v77l389 514h-380v119h578v-77l-393 -514h432v-119h-626z" />
    <glyph glyph-name="bracketleft" unicode="[" horiz-adv-x="385" 
d="M94 -124v946h269v-97h-158v-752h158v-97h-269z" />
    <glyph glyph-name="backslash" unicode="\" horiz-adv-x="422" 
d="M395 -70h-112l-250 830h113z" />
    <glyph glyph-name="bracketright" unicode="]" horiz-adv-x="385" 
d="M291 -124h-268v97h157v752h-157v97h268v-946z" />
    <glyph glyph-name="asciicircum" unicode="^" horiz-adv-x="585" 
d="M422 263l-131 298l-132 -298h-125l201 453h113l202 -453h-128z" />
    <glyph glyph-name="underscore" unicode="_" horiz-adv-x="617" 
d="M34 -153v93h549v-93h-549z" />
    <glyph glyph-name="grave" unicode="`" 
d="M416 580h-126l-106 187h133z" />
    <glyph glyph-name="a" unicode="a" horiz-adv-x="584" 
d="M510 146q0 -42 35 -46v-103h-40q-90 0 -111 68q-47 -76 -151 -76q-87 0 -141.5 47t-54.5 124q0 74 50 114.5t140 40.5h150v2q0 45 -28.5 72.5t-77.5 27.5q-68 0 -101 -57l-116 33q6 16 18.5 34t36.5 40.5t66 37t94 14.5q113 0 172 -55.5t59 -149.5v-168zM273 84
q47 0 80.5 25t33.5 65v53h-130q-38 0 -60.5 -16.5t-22.5 -48.5q0 -36 26.5 -57t72.5 -21z" />
    <glyph glyph-name="b" unicode="b" horiz-adv-x="626" 
d="M206 75v-75h-125v736h126v-308q8 16 22 33.5t50 37t80 19.5q93 0 153.5 -71t60.5 -194t-60.5 -193.5t-153.5 -70.5q-34 0 -63.5 10t-47.5 26t-27.5 28t-14.5 22zM205 253q0 -68 32 -110.5t87 -42.5q54 0 86.5 42.5t32.5 110.5t-32.5 110.5t-86.5 42.5q-55 0 -87 -42.5
t-32 -110.5z" />
    <glyph glyph-name="c" unicode="c" horiz-adv-x="551" 
d="M390 341q-31 66 -99 66q-50 0 -80 -43.5t-30 -110.5t30.5 -110.5t80.5 -43.5q68 0 101 69l112 -36q-4 -17 -16 -37.5t-35.5 -46.5t-67 -43.5t-97.5 -17.5q-103 0 -170.5 74.5t-67.5 191.5t67 191.5t170 74.5q53 0 94.5 -14.5t65.5 -38.5t37 -45t20 -43z" />
    <glyph glyph-name="d" unicode="d" horiz-adv-x="626" 
d="M420 76q-8 -17 -22 -33.5t-49 -35t-79 -18.5q-94 0 -155.5 71.5t-61.5 192.5q0 122 61.5 193.5t155.5 71.5q44 0 79 -18t48.5 -34.5t21.5 -31.5v302h127v-736h-126v76zM421 253q0 67 -32.5 110t-87.5 43q-54 0 -86 -43t-32 -110t32 -110t86 -43t87 43t33 110z" />
    <glyph glyph-name="e" unicode="e" horiz-adv-x="579" 
d="M292 519q109 0 174 -72t65 -193v-21h-353q3 -62 36 -100.5t88 -38.5q69 0 108 58l113 -31q-6 -19 -19.5 -39t-38 -43t-67.5 -37.5t-96 -14.5q-114 0 -182.5 74.5t-68.5 191.5q0 118 66 192t175 74zM292 421q-46 0 -75 -27.5t-37 -76.5h222q-19 104 -110 104z" />
    <glyph glyph-name="f" unicode="f" horiz-adv-x="438" 
d="M28 398v108h110v74q0 75 42 115.5t126 40.5h154v-102h-114q-80 0 -80 -79v-49h144v-108h-144v-398h-128v398h-110z" />
    <glyph glyph-name="g" unicode="g" horiz-adv-x="620" 
d="M414 79q-52 -88 -147 -88q-91 0 -152.5 71.5t-61.5 191.5t61.5 191.5t152.5 71.5q32 0 59.5 -10.5t45 -26.5t26.5 -27.5t15 -22.5v76h127v-491q0 -107 -62 -170t-183 -63q-55 0 -99 14t-70 35.5t-40 39.5t-20 34l127 29q30 -47 102 -47q58 0 88.5 33t30.5 94v65zM415 254
q0 67 -32 109.5t-83 42.5q-53 0 -85 -42t-32 -110q0 -66 32 -108.5t85 -42.5q51 0 83 42.5t32 108.5z" />
    <glyph glyph-name="h" unicode="h" horiz-adv-x="624" 
d="M81 0v736h127v-305q17 33 55 59.5t93 26.5q87 0 139 -58t52 -156v-303h-128v279q0 59 -27.5 91.5t-76.5 32.5q-50 0 -78.5 -32.5t-28.5 -91.5v-279h-127z" />
    <glyph glyph-name="i" unicode="i" horiz-adv-x="290" 
d="M79 587v152h133v-152h-133zM81 0v506h128v-506h-128z" />
    <glyph glyph-name="j" unicode="j" horiz-adv-x="291" 
d="M80 587v152h133v-152h-133zM210 -39q0 -86 -40 -127t-122 -41h-126v106h83q41 0 59 18.5t18 59.5v529h128v-545z" />
    <glyph glyph-name="k" unicode="k" horiz-adv-x="583" 
d="M81 0v736h126v-439l201 209h160l-230 -236l248 -270h-165l-214 231v-231h-126z" />
    <glyph glyph-name="l" unicode="l" horiz-adv-x="293" 
d="M83 0v736h128v-736h-128z" />
    <glyph glyph-name="m" unicode="m" horiz-adv-x="952" 
d="M81 0v506h127v-69q16 31 53 55.5t90 24.5q117 0 166 -98q19 38 59 68t105 30q89 0 141.5 -57t52.5 -149v-311h-128v288q0 53 -26.5 84t-75.5 31t-76.5 -31.5t-27.5 -83.5v-288h-128v288q0 53 -26.5 84t-75.5 31t-76 -31.5t-27 -83.5v-288h-127z" />
    <glyph glyph-name="n" unicode="n" horiz-adv-x="624" 
d="M81 0v506h127v-73q17 32 55 58t93 26q87 0 139 -57t52 -154v-306h-128v283q0 58 -27.5 89t-76.5 31q-50 0 -78.5 -31.5t-28.5 -88.5v-283h-127z" />
    <glyph glyph-name="o" unicode="o" horiz-adv-x="599" 
d="M299 519q111 0 180 -74t69 -192q0 -117 -69.5 -191.5t-179.5 -74.5t-179 74.5t-69 191.5q0 118 69 192t179 74zM299 99q57 0 88 43t31 111t-31 111t-88 43t-88 -43t-31 -111q0 -67 31.5 -110.5t87.5 -43.5z" />
    <glyph glyph-name="p" unicode="p" horiz-adv-x="626" 
d="M207 74v-281h-126v713h126v-78q8 16 22 33.5t50 37t80 19.5q93 0 153.5 -71t60.5 -194t-60.5 -193.5t-153.5 -70.5q-103 0 -152 85zM205 253q0 -68 32 -110.5t87 -42.5t87 42.5t32 110.5t-32 110.5t-87 42.5t-87 -42.5t-32 -110.5z" />
    <glyph glyph-name="q" unicode="q" horiz-adv-x="627" 
d="M419 73q-8 -16 -22 -32.5t-49 -34t-78 -17.5q-93 0 -155 71.5t-62 192.5q0 122 62 193.5t155 71.5q44 0 79 -18t48.5 -34.5t21.5 -31.5v72h127v-713h-127v280zM421 253q0 67 -32.5 110t-86.5 43q-55 0 -87 -42.5t-32 -110.5q0 -67 32 -110t87 -43q54 0 86.5 43.5
t32.5 109.5z" />
    <glyph glyph-name="r" unicode="r" horiz-adv-x="462" 
d="M208 267v-267h-127v506h127v-82q13 33 51 59t107 26h65v-127h-84q-73 0 -106 -28t-33 -87z" />
    <glyph glyph-name="s" unicode="s" horiz-adv-x="550" 
d="M303 199q-15 0 -64 7q-85 9 -134.5 48t-49.5 111q0 71 57 113t151 42q54 0 96.5 -11.5t66.5 -30.5t37 -34.5t20 -32.5l-112 -34q-37 46 -107 46q-84 0 -84 -52q0 -45 72 -54q2 0 29 -3t31 -3q97 -9 143 -49t46 -113t-57 -118t-159 -45q-57 0 -102 13t-71.5 34t-41.5 39.5
t-23 38.5l116 35q34 -61 122 -61q42 0 65.5 16t23.5 41q0 49 -71 57z" />
    <glyph glyph-name="t" unicode="t" horiz-adv-x="481" 
d="M138 162v235h-110v109h110v204h128v-204h168v-109h-168v-197q0 -46 18.5 -66t67.5 -20h82v-114h-126q-170 0 -170 162z" />
    <glyph glyph-name="u" unicode="u" horiz-adv-x="613" 
d="M308 -11q-112 0 -171.5 59.5t-59.5 160.5v297h128v-290q0 -49 26.5 -78.5t75.5 -29.5t76 29.5t27 78.5v290h126v-297q0 -97 -59.5 -158.5t-168.5 -61.5z" />
    <glyph glyph-name="v" unicode="v" horiz-adv-x="554" 
d="M539 506l-195 -512h-125l-204 512h143l126 -341l125 341h130z" />
    <glyph glyph-name="w" unicode="w" horiz-adv-x="828" 
d="M523 -3l-107 344l-108 -344h-119l-171 509h137l103 -334l104 337h119l105 -336l101 333h122l-164 -509h-122z" />
    <glyph glyph-name="x" unicode="x" horiz-adv-x="582" 
d="M160 0h-146l201 251l-201 255h164l119 -154l123 154h148l-199 -247l200 -259h-156l-125 159z" />
    <glyph glyph-name="y" unicode="y" horiz-adv-x="556" 
d="M139 -207l82 212l-206 501h142l128 -334l127 334h129l-274 -713h-128z" />
    <glyph glyph-name="z" unicode="z" horiz-adv-x="569" 
d="M49 0v71l263 328h-259v107h448v-70l-268 -328h300v-108h-484z" />
    <glyph glyph-name="braceleft" unicode="{" horiz-adv-x="399" 
d="M376 -27v-97h-120q-84 0 -122 43t-25 128l27 184q10 69 -62 69h-37v98h37q72 0 62 69l-27 184q-13 84 25 127.5t122 43.5h120v-97h-89q-39 0 -57.5 -18.5t-12.5 -53.5l26 -176q9 -57 -14.5 -88.5t-66.5 -39.5q43 -8 67 -39.5t14 -88.5l-26 -172q-12 -76 70 -76h89z" />
    <glyph glyph-name="bar" unicode="|" horiz-adv-x="326" 
d="M106 -116v938h114v-938h-114z" />
    <glyph glyph-name="braceright" unicode="}" horiz-adv-x="400" 
d="M290 47q13 -85 -25 -128t-122 -43h-120v97h89q82 0 70 76l-26 172q-10 57 14 88.5t67 39.5q-43 8 -67 39.5t-14 88.5l26 176q6 35 -12.5 53.5t-57.5 18.5h-89v97h120q84 0 122 -43.5t25 -127.5l-27 -184q-10 -69 62 -69h38v-98h-38q-72 0 -62 -69z" />
    <glyph glyph-name="asciitilde" unicode="~" horiz-adv-x="718" 
d="M432 392q31 -43 53 -43q35 0 35 49v181h122v-197q1 -78 -36.5 -123t-106.5 -45q-48 0 -81.5 23.5t-69.5 72.5l-62 85q-26 34 -38 40q-7 3 -15 3q-35 0 -35 -49v-178h-123v194q0 77 37.5 122.5t106.5 45.5q48 0 81 -23.5t70 -73.5z" />
    <glyph glyph-name="uni00A0" unicode="&#xa0;" horiz-adv-x="258" 
 />
    <glyph glyph-name="exclamdown" unicode="&#xa1;" horiz-adv-x="342" 
d="M94 506h153v-159h-153v159zM108 271h125v-475h-125v475z" />
    <glyph glyph-name="cent" unicode="&#xa2;" horiz-adv-x="580" 
d="M250 -121v113q-85 18 -138 89t-53 172q0 103 53 173t138 88v113h109v-113q72 -13 111.5 -53.5t52.5 -83.5l-115 -37q-32 67 -104 67q-52 0 -83.5 -43t-31.5 -111q0 -67 32 -110.5t84 -43.5q75 0 106 70l112 -37q-9 -36 -49.5 -80.5t-114.5 -59.5v-113h-109z" />
    <glyph glyph-name="sterling" unicode="&#xa3;" horiz-adv-x="667" 
d="M59 0v115h95v152h-95v115h95v126q0 101 57 157.5t161 56.5q106 0 162 -55t58 -155l-125 -14q-5 110 -95 110q-44 0 -68 -27t-24 -76v-123h202v-115h-202v-152h340v-115h-561z" />
    <glyph glyph-name="yen" unicode="&#xa5;" horiz-adv-x="704" 
d="M100 136v94h188v75h-188v93h181l-242 312h165l156 -208l156 208h149l-234 -312h183v-93h-189v-75h189v-94h-189v-136h-137v136h-188z" />
    <glyph glyph-name="brokenbar" unicode="&#xa6;" horiz-adv-x="326" 
d="M106 411v411h114v-411h-114zM106 -116v424h114v-424h-114z" />
    <glyph glyph-name="section" unicode="&#xa7;" horiz-adv-x="684" 
d="M553 -24v-17q0 -91 -56 -143t-153 -52q-107 0 -157 53t-51 138l124 12q2 -95 84 -95q39 0 61 24t22 65v8q0 74 -67 88l-152 33q-157 34 -157 174q0 55 35 92.5t93 46.5q-46 45 -46 136v14q0 91 56.5 143.5t152.5 52.5q99 0 152.5 -50t55.5 -139l-124 -12q-1 39 -21 66.5
t-63 27.5q-38 0 -60.5 -24t-22.5 -65v-9q0 -74 67 -88l150 -33q80 -17 118.5 -59t38.5 -114q0 -54 -32 -91t-91 -50q43 -43 43 -133zM284 342q-48 10 -77 -8t-29 -57q0 -28 18 -47t49 -25l155 -33q47 -10 76.5 8t29.5 56q0 29 -18 48t-49 25z" />
    <glyph glyph-name="dieresis" unicode="&#xa8;" 
d="M134 587v149h126v-149h-126zM340 587v149h126v-149h-126z" />
    <glyph glyph-name="copyright" unicode="&#xa9;" horiz-adv-x="867" 
d="M433 -12q-159 0 -263.5 105t-104.5 262q0 156 105.5 261.5t262.5 105.5t263 -105.5t106 -261.5t-106 -261.5t-263 -105.5zM433 68q125 0 203 82t78 205q0 122 -78 204.5t-203 82.5t-203 -82.5t-78 -204.5q0 -123 78 -205t203 -82zM349 357q0 -44 24 -74t64 -30
q59 0 82 52l90 -31q-5 -15 -14.5 -31.5t-28 -37t-52.5 -34t-77 -13.5q-83 0 -138.5 57.5t-55.5 141.5t55.5 141.5t138.5 57.5q41 0 74 -13t52 -32.5t29.5 -36.5t14.5 -31l-92 -31q-25 49 -78 49q-40 0 -64 -29.5t-24 -74.5z" />
    <glyph glyph-name="ordfeminine" unicode="&#xaa;" horiz-adv-x="561" 
d="M362 336q-7 -14 -18 -27t-39.5 -28t-64.5 -15q-80 0 -131 61.5t-51 165.5q0 105 51 166t131 61q28 0 51 -8t37 -20.5t21.5 -21.5t11.5 -18v58h120v-434h-119v60zM362 493q0 56 -24 89.5t-66 33.5q-43 0 -67 -33.5t-24 -89.5t24 -89.5t67 -33.5q42 0 66 33.5t24 89.5z" />
    <glyph glyph-name="guillemotleft" unicode="&#xab;" horiz-adv-x="578" 
d="M165 473h120l-107 -183l107 -185h-121l-104 184zM395 473h120l-109 -183l109 -185h-121l-105 184z" />
    <glyph glyph-name="registered" unicode="&#xae;" horiz-adv-x="596" 
d="M298 225q-108 0 -179.5 71.5t-71.5 177.5t72 177.5t179 71.5t179 -71.5t72 -177.5q0 -105 -72.5 -177t-178.5 -72zM298 287q83 0 133.5 53t50.5 134t-50.5 134.5t-133.5 53.5t-133.5 -53.5t-50.5 -134.5t50.5 -134t133.5 -53zM191 355v245h131q47 0 72 -21.5t25 -61.5
q0 -49 -40 -69l44 -93h-74l-38 82h-48v-82h-72zM318 539h-55v-44h55q29 0 29 22t-29 22z" />
    <glyph glyph-name="macron" unicode="&#xaf;" horiz-adv-x="500" 
d="M405 613h-310v101h310v-101z" />
    <glyph glyph-name="degree" unicode="&#xb0;" horiz-adv-x="540" 
d="M270 340q-82 0 -136.5 54.5t-54.5 136.5t54.5 136.5t136.5 54.5t136.5 -54.5t54.5 -136.5t-54.5 -136.5t-136.5 -54.5zM270 430q43 0 70 29t27 72t-27 72t-70 29t-70 -29t-27 -72t27 -72t70 -29z" />
    <glyph glyph-name="acute" unicode="&#xb4;" 
d="M184 580l99 187h133l-106 -187h-126z" />
    <glyph glyph-name="paragraph" unicode="&#xb6;" horiz-adv-x="689" 
d="M283 0v321h-31q-94 0 -153 53.5t-59 141.5t58.5 141t153.5 53h339v-710h-101v614h-105v-614h-102z" />
    <glyph glyph-name="periodcentered" unicode="&#xb7;" horiz-adv-x="313" 
d="M80 277v170h153v-170h-153z" />
    <glyph glyph-name="cedilla" unicode="&#xb8;" 
d="M311 -156q0 30 -36 30h-70v126h98v-49q56 0 85 -29.5t29 -80.5q0 -54 -31 -85.5t-93 -31.5h-110v88h92q36 0 36 32z" />
    <glyph glyph-name="ordmasculine" unicode="&#xba;" horiz-adv-x="560" 
d="M280 723q96 0 156.5 -63.5t60.5 -166.5q0 -101 -60.5 -164.5t-156.5 -63.5t-156.5 63.5t-60.5 164.5q0 103 60.5 166.5t156.5 63.5zM280 368q46 0 71 35t25 90t-25 90.5t-71 35.5t-70.5 -35t-24.5 -91q0 -55 24.5 -90t70.5 -35z" />
    <glyph glyph-name="guillemotright" unicode="&#xbb;" horiz-adv-x="578" 
d="M413 105h-120l108 183l-108 185h121l105 -184zM184 105h-121l109 183l-109 185h121l106 -184z" />
    <glyph glyph-name="onequarter" unicode="&#xbc;" horiz-adv-x="981" 
d="M259 275h-111v319l-109 -59v98l137 79h83v-437zM166 0l448 710h114l-449 -710h-113zM947 109h-84v-109h-107v109h-223v75l197 251h133v-239h84v-87zM640 196h116v151z" />
    <glyph glyph-name="onehalf" unicode="&#xbd;" horiz-adv-x="975" 
d="M259 275h-111v319l-109 -59v98l137 79h83v-437zM165 0l448 710h114l-449 -710h-113zM939 92v-92h-349v70l163 146q50 45 50 80q0 23 -14.5 37.5t-40.5 14.5q-31 0 -44.5 -18.5t-13.5 -44.5l-105 13q3 62 45.5 103t117.5 41q78 0 122 -38.5t44 -102.5q0 -46 -23 -79.5
t-73 -75.5l-62 -54h183z" />
    <glyph glyph-name="threequarters" unicode="&#xbe;" horiz-adv-x="1079" 
d="M220 359q32 0 49.5 13t17.5 36q0 45 -54 45h-56v90h50q47 0 47 40q0 22 -15.5 34t-42.5 12q-47 0 -59 -43l-106 25q8 38 48 72t117 34q80 0 124 -33t44 -92q0 -33 -17 -54.5t-40 -30.5q72 -24 72 -106q0 -61 -47.5 -97t-131.5 -36q-81 0 -123 35.5t-53 76.5l107 24
q15 -45 69 -45zM264 0l448 710h114l-449 -710h-113zM1044 109h-84v-109h-107v109h-223v75l197 251h133v-239h84v-87zM737 196h116v151z" />
    <glyph glyph-name="questiondown" unicode="&#xbf;" horiz-adv-x="535" 
d="M353 506v-159h-153v159h153zM213 271h127v-18q0 -45 -13 -69.5t-59 -69.5l-42 -42q-50 -50 -50 -95q0 -39 24.5 -62t67.5 -23q86 0 96 96l124 -21q-7 -83 -64 -133t-156 -50q-105 0 -162.5 51t-57.5 141q0 57 22 95.5t76 88.5l39 36q16 16 22 30.5t6 40.5v4z" />
    <glyph glyph-name="Agrave" unicode="&#xc0;" horiz-adv-x="755" 
d="M442 773h-135l-110 156h143zM588 0l-57 146h-315l-57 -146h-134l284 713h137l284 -713h-142zM262 262h223l-111 283z" />
    <glyph glyph-name="Aacute" unicode="&#xc1;" horiz-adv-x="755" 
d="M308 773l103 156h143l-111 -156h-135zM588 0l-57 146h-315l-57 -146h-134l284 713h137l284 -713h-142zM262 262h223l-111 283z" />
    <glyph glyph-name="Acircumflex" unicode="&#xc2;" horiz-adv-x="755" 
d="M441 771l-67 81l-67 -81h-124l132 161h118l129 -161h-121zM588 0l-57 146h-315l-57 -146h-134l284 713h137l284 -713h-142zM262 262h223l-111 283z" />
    <glyph glyph-name="Atilde" unicode="&#xc3;" horiz-adv-x="755" 
d="M375 807l-35 20q-22 12 -31 12q-16 0 -16 -22v-48h-93v77q0 45 21 70.5t63 25.5q15 0 32.5 -6t25.5 -10.5t31 -17.5l35 -19q24 -13 31 -13q16 0 16 23v48h93v-77q0 -45 -21 -70.5t-63 -25.5q-32 0 -89 33zM588 0l-57 146h-315l-57 -146h-134l284 713h137l284 -713h-142z
M262 262h223l-111 283z" />
    <glyph glyph-name="Adieresis" unicode="&#xc4;" horiz-adv-x="755" 
d="M204 773v149h127v-149h-127zM417 773v149h127v-149h-127zM588 0l-57 146h-315l-57 -146h-134l284 713h137l284 -713h-142zM262 262h223l-111 283z" />
    <glyph glyph-name="Aring" unicode="&#xc5;" horiz-adv-x="755" 
d="M374 763q-58 0 -96 37.5t-38 93.5q0 57 38 95t96 38t96.5 -38t38.5 -95q0 -56 -38.5 -93.5t-96.5 -37.5zM374 834q26 0 42.5 17t16.5 43q0 27 -16.5 44t-42.5 17t-42.5 -17t-16.5 -44q0 -26 16.5 -43t42.5 -17zM588 0l-57 146h-315l-57 -146h-134l284 713h137l284 -713
h-142zM262 262h223l-111 283z" />
    <glyph glyph-name="AE" unicode="&#xc6;" horiz-adv-x="1053" 
d="M-3 0l415 710h562v-116h-351v-162h280v-117h-280v-196h387v-119h-521v165h-250l-95 -165h-147zM305 279h184v318z" />
    <glyph glyph-name="Ccedilla" unicode="&#xc7;" horiz-adv-x="726" 
d="M413 -156q0 30 -36 30h-70v122q-113 25 -179 122.5t-66 236.5q0 161 88 264t231 103q57 0 105 -14t78 -34.5t53 -48t33.5 -49t16.5 -42.5l-125 -43q-47 108 -161 108q-85 0 -132 -69.5t-47 -174.5t47 -174.5t132 -69.5q108 0 164 108l120 -41q-7 -23 -22 -49t-43.5 -58.5
t-79.5 -55.5t-115 -26v-38q56 0 85 -29.5t29 -80.5q0 -54 -31 -85.5t-93 -31.5h-110v88h92q36 0 36 32z" />
    <glyph glyph-name="Egrave" unicode="&#xc8;" horiz-adv-x="708" 
d="M453 773h-135l-110 156h143zM98 0v710h531v-116h-397v-162h326v-117h-326v-196h433v-119h-567z" />
    <glyph glyph-name="Eacute" unicode="&#xc9;" horiz-adv-x="708" 
d="M296 773l103 156h143l-111 -156h-135zM98 0v710h531v-116h-397v-162h326v-117h-326v-196h433v-119h-567z" />
    <glyph glyph-name="Ecircumflex" unicode="&#xca;" horiz-adv-x="708" 
d="M436 771l-67 81l-67 -81h-124l132 161h118l129 -161h-121zM98 0v710h531v-116h-397v-162h326v-117h-326v-196h433v-119h-567z" />
    <glyph glyph-name="Edieresis" unicode="&#xcb;" horiz-adv-x="708" 
d="M199 773v149h127v-149h-127zM412 773v149h127v-149h-127zM98 0v710h531v-116h-397v-162h326v-117h-326v-196h433v-119h-567z" />
    <glyph glyph-name="Igrave" unicode="&#xcc;" horiz-adv-x="333" 
d="M234 773h-135l-110 156h143zM99 0v710h135v-710h-135z" />
    <glyph glyph-name="Iacute" unicode="&#xcd;" horiz-adv-x="333" 
d="M99 773l103 156h143l-111 -156h-135zM99 0v710h135v-710h-135z" />
    <glyph glyph-name="Icircumflex" unicode="&#xce;" horiz-adv-x="333" 
d="M233 771l-67 81l-67 -81h-124l132 161h118l129 -161h-121zM99 0v710h135v-710h-135z" />
    <glyph glyph-name="Idieresis" unicode="&#xcf;" horiz-adv-x="333" 
d="M-4 773v149h127v-149h-127zM209 773v149h127v-149h-127zM99 0v710h135v-710h-135z" />
    <glyph glyph-name="Eth" unicode="&#xd0;" horiz-adv-x="793" 
d="M115 0v300h-102v116h102v294h248q169 0 268.5 -93.5t99.5 -261.5q0 -165 -99.5 -260t-268.5 -95h-248zM362 592h-113v-176h187v-116h-187v-182h113q108 0 170 63.5t62 173.5q0 113 -61.5 175t-170.5 62z" />
    <glyph glyph-name="Ntilde" unicode="&#xd1;" horiz-adv-x="812" 
d="M419 807l-35 20q-22 12 -31 12q-16 0 -16 -22v-48h-93v77q0 45 21 70.5t63 25.5q15 0 32.5 -6t25.5 -10.5t31 -17.5l35 -19q24 -13 31 -13q16 0 16 23v48h93v-77q0 -45 -21 -70.5t-63 -25.5q-32 0 -89 33zM714 710v-714h-106l-380 533v-529h-130v710h155l333 -477v477
h128z" />
    <glyph glyph-name="Ograve" unicode="&#xd2;" horiz-adv-x="783" 
d="M459 773h-135l-110 156h143zM391 -12q-147 0 -238 101.5t-91 265.5t91.5 265.5t237.5 101.5t237.5 -101.5t91.5 -265.5q0 -163 -91.5 -265t-237.5 -102zM391 110q90 0 141 69t51 176t-51 176t-141 69t-140.5 -69t-50.5 -176q0 -108 50.5 -176.5t140.5 -68.5z" />
    <glyph glyph-name="Oacute" unicode="&#xd3;" horiz-adv-x="783" 
d="M319 773l103 156h143l-111 -156h-135zM391 -12q-147 0 -238 101.5t-91 265.5t91.5 265.5t237.5 101.5t237.5 -101.5t91.5 -265.5q0 -163 -91.5 -265t-237.5 -102zM391 110q90 0 141 69t51 176t-51 176t-141 69t-140.5 -69t-50.5 -176q0 -108 50.5 -176.5t140.5 -68.5z
" />
    <glyph glyph-name="Ocircumflex" unicode="&#xd4;" horiz-adv-x="783" 
d="M458 771l-67 81l-67 -81h-124l132 161h118l129 -161h-121zM391 -12q-147 0 -238 101.5t-91 265.5t91.5 265.5t237.5 101.5t237.5 -101.5t91.5 -265.5q0 -163 -91.5 -265t-237.5 -102zM391 110q90 0 141 69t51 176t-51 176t-141 69t-140.5 -69t-50.5 -176
q0 -108 50.5 -176.5t140.5 -68.5z" />
    <glyph glyph-name="Otilde" unicode="&#xd5;" horiz-adv-x="783" 
d="M392 807l-35 20q-22 12 -31 12q-16 0 -16 -22v-48h-93v77q0 45 21 70.5t63 25.5q15 0 32.5 -6t25.5 -10.5t31 -17.5l35 -19q24 -13 31 -13q16 0 16 23v48h93v-77q0 -45 -21 -70.5t-63 -25.5q-32 0 -89 33zM391 -12q-147 0 -238 101.5t-91 265.5t91.5 265.5t237.5 101.5
t237.5 -101.5t91.5 -265.5q0 -163 -91.5 -265t-237.5 -102zM391 110q90 0 141 69t51 176t-51 176t-141 69t-140.5 -69t-50.5 -176q0 -108 50.5 -176.5t140.5 -68.5z" />
    <glyph glyph-name="Odieresis" unicode="&#xd6;" horiz-adv-x="783" 
d="M221 773v149h127v-149h-127zM434 773v149h127v-149h-127zM391 -12q-147 0 -238 101.5t-91 265.5t91.5 265.5t237.5 101.5t237.5 -101.5t91.5 -265.5q0 -163 -91.5 -265t-237.5 -102zM391 110q90 0 141 69t51 176t-51 176t-141 69t-140.5 -69t-50.5 -176
q0 -108 50.5 -176.5t140.5 -68.5z" />
    <glyph glyph-name="multiply" unicode="&#xd7;" horiz-adv-x="660" 
d="M78 134l171 172l-171 171l84 83l169 -171l170 171l80 -78l-172 -173l172 -174l-82 -79l-171 171l-170 -171z" />
    <glyph glyph-name="Oslash" unicode="&#xd8;" horiz-adv-x="783" 
d="M43 0l91 116q-72 97 -72 239q0 164 91.5 265.5t237.5 101.5q100 0 180 -53l32 41h137l-92 -116q72 -99 72 -239q0 -163 -91.5 -265t-237.5 -102q-102 0 -181 54l-33 -42h-134zM196 355q0 -76 22 -134l277 353q-41 28 -104 28q-91 0 -143 -69.5t-52 -177.5zM391 108
q92 0 144 69.5t52 177.5q0 77 -23 134l-278 -353q44 -28 105 -28z" />
    <glyph glyph-name="Ugrave" unicode="&#xd9;" horiz-adv-x="794" 
d="M477 773h-135l-110 156h143zM566 289v421h134v-431q0 -127 -79.5 -210t-222.5 -83q-147 0 -225.5 82.5t-78.5 210.5v431h135v-421q0 -81 44 -129.5t125 -48.5q79 0 123.5 49t44.5 129z" />
    <glyph glyph-name="Uacute" unicode="&#xda;" horiz-adv-x="794" 
d="M321 773l103 156h143l-111 -156h-135zM566 289v421h134v-431q0 -127 -79.5 -210t-222.5 -83q-147 0 -225.5 82.5t-78.5 210.5v431h135v-421q0 -81 44 -129.5t125 -48.5q79 0 123.5 49t44.5 129z" />
    <glyph glyph-name="Ucircumflex" unicode="&#xdb;" horiz-adv-x="794" 
d="M465 771l-67 81l-67 -81h-124l132 161h118l129 -161h-121zM566 289v421h134v-431q0 -127 -79.5 -210t-222.5 -83q-147 0 -225.5 82.5t-78.5 210.5v431h135v-421q0 -81 44 -129.5t125 -48.5q79 0 123.5 49t44.5 129z" />
    <glyph glyph-name="Udieresis" unicode="&#xdc;" horiz-adv-x="794" 
d="M228 773v149h127v-149h-127zM441 773v149h127v-149h-127zM566 289v421h134v-431q0 -127 -79.5 -210t-222.5 -83q-147 0 -225.5 82.5t-78.5 210.5v431h135v-421q0 -81 44 -129.5t125 -48.5q79 0 123.5 49t44.5 129z" />
    <glyph glyph-name="Yacute" unicode="&#xdd;" horiz-adv-x="704" 
d="M284 773l103 156h143l-111 -156h-135zM287 287l-279 423h167l186 -288l185 288h150l-270 -424v-286h-139v287z" />
    <glyph glyph-name="Thorn" unicode="&#xde;" horiz-adv-x="735" 
d="M98 0v710h134v-136h208q118 0 180 -54t62 -155t-62.5 -157t-179.5 -56h-208v-152h-134zM433 455h-201v-183h201q55 0 83 24.5t28 66.5q0 92 -111 92z" />
    <glyph glyph-name="germandbls" unicode="&#xdf;" horiz-adv-x="618" 
d="M307 748q102 0 162.5 -52.5t60.5 -142.5q0 -59 -29.5 -97t-68.5 -49q57 -12 98 -62t41 -128q0 -100 -61.5 -158.5t-173.5 -58.5h-45v114h25q61 0 93.5 28.5t32.5 80.5q0 51 -32.5 80t-93.5 29h-25v112h5q49 0 77 25t28 70q0 46 -25.5 71t-68.5 25q-45 0 -70.5 -29.5
t-25.5 -86.5v-519h-128v524q0 107 58.5 165.5t165.5 58.5z" />
    <glyph glyph-name="agrave" unicode="&#xe0;" horiz-adv-x="584" 
d="M346 580h-126l-106 187h133zM510 146q0 -42 35 -46v-103h-40q-90 0 -111 68q-47 -76 -151 -76q-87 0 -141.5 47t-54.5 124q0 74 50 114.5t140 40.5h150v2q0 45 -28.5 72.5t-77.5 27.5q-68 0 -101 -57l-116 33q6 16 18.5 34t36.5 40.5t66 37t94 14.5q113 0 172 -55.5
t59 -149.5v-168zM273 84q47 0 80.5 25t33.5 65v53h-130q-38 0 -60.5 -16.5t-22.5 -48.5q0 -36 26.5 -57t72.5 -21z" />
    <glyph glyph-name="aacute" unicode="&#xe1;" horiz-adv-x="584" 
d="M218 580l99 187h133l-106 -187h-126zM510 146q0 -42 35 -46v-103h-40q-90 0 -111 68q-47 -76 -151 -76q-87 0 -141.5 47t-54.5 124q0 74 50 114.5t140 40.5h150v2q0 45 -28.5 72.5t-77.5 27.5q-68 0 -101 -57l-116 33q6 16 18.5 34t36.5 40.5t66 37t94 14.5
q113 0 172 -55.5t59 -149.5v-168zM273 84q47 0 80.5 25t33.5 65v53h-130q-38 0 -60.5 -16.5t-22.5 -48.5q0 -36 26.5 -57t72.5 -21z" />
    <glyph glyph-name="acircumflex" unicode="&#xe2;" horiz-adv-x="584" 
d="M343 578l-62 102l-62 -102h-115l121 196h112l119 -196h-113zM510 146q0 -42 35 -46v-103h-40q-90 0 -111 68q-47 -76 -151 -76q-87 0 -141.5 47t-54.5 124q0 74 50 114.5t140 40.5h150v2q0 45 -28.5 72.5t-77.5 27.5q-68 0 -101 -57l-116 33q6 16 18.5 34t36.5 40.5
t66 37t94 14.5q113 0 172 -55.5t59 -149.5v-168zM273 84q47 0 80.5 25t33.5 65v53h-130q-38 0 -60.5 -16.5t-22.5 -48.5q0 -36 26.5 -57t72.5 -21z" />
    <glyph glyph-name="atilde" unicode="&#xe3;" horiz-adv-x="584" 
d="M207 576h-90v83q0 44 21 69.5t61 25.5q24 0 41 -8.5t44 -27.5l26 -20q18 -14 28 -14q16 0 16 21v54h90v-82q0 -45 -21 -70.5t-61 -25.5q-34 0 -85 37l-26 20q-19 14 -28 14q-16 0 -16 -22v-54zM510 146q0 -42 35 -46v-103h-40q-90 0 -111 68q-47 -76 -151 -76
q-87 0 -141.5 47t-54.5 124q0 74 50 114.5t140 40.5h150v2q0 45 -28.5 72.5t-77.5 27.5q-68 0 -101 -57l-116 33q6 16 18.5 34t36.5 40.5t66 37t94 14.5q113 0 172 -55.5t59 -149.5v-168zM273 84q47 0 80.5 25t33.5 65v53h-130q-38 0 -60.5 -16.5t-22.5 -48.5
q0 -36 26.5 -57t72.5 -21z" />
    <glyph glyph-name="adieresis" unicode="&#xe4;" horiz-adv-x="584" 
d="M116 587v149h126v-149h-126zM322 587v149h126v-149h-126zM510 146q0 -42 35 -46v-103h-40q-90 0 -111 68q-47 -76 -151 -76q-87 0 -141.5 47t-54.5 124q0 74 50 114.5t140 40.5h150v2q0 45 -28.5 72.5t-77.5 27.5q-68 0 -101 -57l-116 33q6 16 18.5 34t36.5 40.5t66 37
t94 14.5q113 0 172 -55.5t59 -149.5v-168zM273 84q47 0 80.5 25t33.5 65v53h-130q-38 0 -60.5 -16.5t-22.5 -48.5q0 -36 26.5 -57t72.5 -21z" />
    <glyph glyph-name="aring" unicode="&#xe5;" horiz-adv-x="584" 
d="M280 569q-58 0 -96 37.5t-38 93.5q0 57 38 94.5t96 37.5t96 -37.5t38 -94.5q0 -56 -38 -93.5t-96 -37.5zM280 640q25 0 41.5 17t16.5 43t-16 43t-42 17t-42 -17t-16 -43t16.5 -43t41.5 -17zM510 146q0 -42 35 -46v-103h-40q-90 0 -111 68q-47 -76 -151 -76
q-87 0 -141.5 47t-54.5 124q0 74 50 114.5t140 40.5h150v2q0 45 -28.5 72.5t-77.5 27.5q-68 0 -101 -57l-116 33q6 16 18.5 34t36.5 40.5t66 37t94 14.5q113 0 172 -55.5t59 -149.5v-168zM273 84q47 0 80.5 25t33.5 65v53h-130q-38 0 -60.5 -16.5t-22.5 -48.5
q0 -36 26.5 -57t72.5 -21z" />
    <glyph glyph-name="ae" unicode="&#xe6;" horiz-adv-x="907" 
d="M631 94q72 0 106 58l114 -31q-6 -19 -19.5 -39t-38.5 -43t-67 -37.5t-95 -14.5q-69 0 -121.5 29t-80.5 75q-53 -102 -180 -102q-91 0 -146.5 46.5t-55.5 124.5q0 74 50.5 114.5t141.5 40.5h144v2q0 45 -27.5 72.5t-75.5 27.5q-70 0 -99 -57l-117 34q7 17 19 34.5t36 40
t66 36.5t94 14q60 0 106 -22t70 -58q24 36 67 58t100 22q107 0 172 -72t65 -193v-24h-349q4 -61 35.5 -98.5t85.5 -37.5zM622 421q-46 0 -74 -28t-36 -78h218q-8 51 -36 78.5t-72 27.5zM270 84q47 0 80 26.5t33 70.5v47h-124q-39 0 -62 -17t-23 -49q0 -35 26.5 -56.5
t69.5 -21.5z" />
    <glyph glyph-name="ccedilla" unicode="&#xe7;" horiz-adv-x="553" 
d="M319 -156q0 30 -37 30h-69v125q-73 25 -117.5 93t-44.5 161q0 117 67 191.5t170 74.5q53 0 94.5 -14.5t65.5 -38.5t37 -45t20 -43l-115 -37q-31 66 -99 66q-50 0 -80 -43.5t-30 -110.5t30.5 -110.5t80.5 -43.5q68 0 101 69l112 -36q-4 -16 -15 -35t-32 -44t-60 -43.5
t-87 -21.5v-37q55 0 84.5 -29.5t29.5 -80.5q0 -54 -31.5 -85.5t-93.5 -31.5h-109v88h91q37 0 37 32z" />
    <glyph glyph-name="egrave" unicode="&#xe8;" horiz-adv-x="579" 
d="M354 580h-126l-106 187h133zM292 519q109 0 174 -72t65 -193v-21h-353q3 -62 36 -100.5t88 -38.5q69 0 108 58l113 -31q-6 -19 -19.5 -39t-38 -43t-67.5 -37.5t-96 -14.5q-114 0 -182.5 74.5t-68.5 191.5q0 118 66 192t175 74zM292 421q-46 0 -75 -27.5t-37 -76.5h222
q-19 104 -110 104z" />
    <glyph glyph-name="eacute" unicode="&#xe9;" horiz-adv-x="579" 
d="M230 580l99 187h133l-106 -187h-126zM292 519q109 0 174 -72t65 -193v-21h-353q3 -62 36 -100.5t88 -38.5q69 0 108 58l113 -31q-6 -19 -19.5 -39t-38 -43t-67.5 -37.5t-96 -14.5q-114 0 -182.5 74.5t-68.5 191.5q0 118 66 192t175 74zM292 421q-46 0 -75 -27.5
t-37 -76.5h222q-19 104 -110 104z" />
    <glyph glyph-name="ecircumflex" unicode="&#xea;" horiz-adv-x="579" 
d="M354 578l-62 102l-62 -102h-115l121 196h112l119 -196h-113zM292 519q109 0 174 -72t65 -193v-21h-353q3 -62 36 -100.5t88 -38.5q69 0 108 58l113 -31q-6 -19 -19.5 -39t-38 -43t-67.5 -37.5t-96 -14.5q-114 0 -182.5 74.5t-68.5 191.5q0 118 66 192t175 74zM292 421
q-46 0 -75 -27.5t-37 -76.5h222q-19 104 -110 104z" />
    <glyph glyph-name="edieresis" unicode="&#xeb;" horiz-adv-x="579" 
d="M126 587v149h126v-149h-126zM332 587v149h126v-149h-126zM292 519q109 0 174 -72t65 -193v-21h-353q3 -62 36 -100.5t88 -38.5q69 0 108 58l113 -31q-6 -19 -19.5 -39t-38 -43t-67.5 -37.5t-96 -14.5q-114 0 -182.5 74.5t-68.5 191.5q0 118 66 192t175 74zM292 421
q-46 0 -75 -27.5t-37 -76.5h222q-19 104 -110 104z" />
    <glyph glyph-name="igrave" unicode="&#xec;" horiz-adv-x="290" 
d="M207 580h-126l-106 187h133zM81 0v506h128v-506h-128z" />
    <glyph glyph-name="iacute" unicode="&#xed;" horiz-adv-x="290" 
d="M83 580l99 187h133l-106 -187h-126zM81 0v506h128v-506h-128z" />
    <glyph glyph-name="icircumflex" unicode="&#xee;" horiz-adv-x="290" 
d="M206 578l-61 103l-61 -103h-115l119 196h114l117 -196h-113zM81 0v506h128v-506h-128z" />
    <glyph glyph-name="idieresis" unicode="&#xef;" horiz-adv-x="290" 
d="M-18 587v149h123v-149h-123zM184 587v149h123v-149h-123zM81 0v506h128v-506h-128z" />
    <glyph glyph-name="eth" unicode="&#xf0;" horiz-adv-x="599" 
d="M246 497q52 0 89 -27l-83 105l-137 -56l-30 74l115 47l-76 96h143l41 -52l122 50l31 -74l-101 -41l83 -105q55 -69 80 -128t25 -133q0 -116 -69 -191t-180 -75t-179.5 74.5t-68.5 191.5q0 106 54 175t141 69zM299 98q57 0 88 43.5t31 111.5t-31 111.5t-88 43.5t-88 -43.5
t-31 -111.5t31 -111.5t88 -43.5z" />
    <glyph glyph-name="ntilde" unicode="&#xf1;" horiz-adv-x="624" 
d="M240 576h-90v83q0 44 21 69.5t61 25.5q24 0 41 -8.5t44 -27.5l26 -20q18 -14 28 -14q16 0 16 21v54h90v-82q0 -45 -21 -70.5t-61 -25.5q-34 0 -85 37l-26 20q-19 14 -28 14q-16 0 -16 -22v-54zM81 0v506h127v-73q17 32 55 58t93 26q87 0 139 -57t52 -154v-306h-128v283
q0 58 -27.5 89t-76.5 31q-50 0 -78.5 -31.5t-28.5 -88.5v-283h-127z" />
    <glyph glyph-name="ograve" unicode="&#xf2;" horiz-adv-x="599" 
d="M362 580h-126l-106 187h133zM299 519q111 0 180 -74t69 -192q0 -117 -69.5 -191.5t-179.5 -74.5t-179 74.5t-69 191.5q0 118 69 192t179 74zM299 99q57 0 88 43t31 111t-31 111t-88 43t-88 -43t-31 -111q0 -67 31.5 -110.5t87.5 -43.5z" />
    <glyph glyph-name="oacute" unicode="&#xf3;" horiz-adv-x="599" 
d="M237 580l99 187h133l-106 -187h-126zM299 519q111 0 180 -74t69 -192q0 -117 -69.5 -191.5t-179.5 -74.5t-179 74.5t-69 191.5q0 118 69 192t179 74zM299 99q57 0 88 43t31 111t-31 111t-88 43t-88 -43t-31 -111q0 -67 31.5 -110.5t87.5 -43.5z" />
    <glyph glyph-name="ocircumflex" unicode="&#xf4;" horiz-adv-x="599" 
d="M361 578l-62 102l-62 -102h-115l121 196h112l119 -196h-113zM299 519q111 0 180 -74t69 -192q0 -117 -69.5 -191.5t-179.5 -74.5t-179 74.5t-69 191.5q0 118 69 192t179 74zM299 99q57 0 88 43t31 111t-31 111t-88 43t-88 -43t-31 -111q0 -67 31.5 -110.5t87.5 -43.5z
" />
    <glyph glyph-name="otilde" unicode="&#xf5;" horiz-adv-x="599" 
d="M226 576h-90v83q0 44 21 69.5t61 25.5q24 0 41 -8.5t44 -27.5l26 -20q18 -14 28 -14q16 0 16 21v54h90v-82q0 -45 -21 -70.5t-61 -25.5q-34 0 -85 37l-26 20q-19 14 -28 14q-16 0 -16 -22v-54zM299 519q111 0 180 -74t69 -192q0 -117 -69.5 -191.5t-179.5 -74.5
t-179 74.5t-69 191.5q0 118 69 192t179 74zM299 99q57 0 88 43t31 111t-31 111t-88 43t-88 -43t-31 -111q0 -67 31.5 -110.5t87.5 -43.5z" />
    <glyph glyph-name="odieresis" unicode="&#xf6;" horiz-adv-x="599" 
d="M133 587v149h126v-149h-126zM339 587v149h126v-149h-126zM299 519q111 0 180 -74t69 -192q0 -117 -69.5 -191.5t-179.5 -74.5t-179 74.5t-69 191.5q0 118 69 192t179 74zM299 99q57 0 88 43t31 111t-31 111t-88 43t-88 -43t-31 -111q0 -67 31.5 -110.5t87.5 -43.5z" />
    <glyph glyph-name="divide" unicode="&#xf7;" horiz-adv-x="704" 
d="M278 458v159h148v-159h-148zM622 266h-542v113h542v-113zM278 20v159h148v-159h-148z" />
    <glyph glyph-name="oslash" unicode="&#xf8;" horiz-adv-x="599" 
d="M35 0l69 84q-53 71 -53 169q0 117 69.5 191.5t179.5 74.5q71 0 133 -38l20 25h111l-69 -84q53 -71 53 -169q0 -116 -69 -191t-179 -75q-74 0 -135 39l-21 -26h-109zM173 253q0 -44 10 -74l179 219q-26 14 -62 14q-59 0 -93 -45t-34 -114zM426 253q0 44 -10 75l-180 -220
q28 -14 64 -14q59 0 92.5 45.5t33.5 113.5z" />
    <glyph glyph-name="ugrave" unicode="&#xf9;" horiz-adv-x="613" 
d="M369 580h-126l-106 187h133zM308 -11q-112 0 -171.5 59.5t-59.5 160.5v297h128v-290q0 -49 26.5 -78.5t75.5 -29.5t76 29.5t27 78.5v290h126v-297q0 -97 -59.5 -158.5t-168.5 -61.5z" />
    <glyph glyph-name="uacute" unicode="&#xfa;" horiz-adv-x="613" 
d="M238 580l99 187h133l-106 -187h-126zM308 -11q-112 0 -171.5 59.5t-59.5 160.5v297h128v-290q0 -49 26.5 -78.5t75.5 -29.5t76 29.5t27 78.5v290h126v-297q0 -97 -59.5 -158.5t-168.5 -61.5z" />
    <glyph glyph-name="ucircumflex" unicode="&#xfb;" horiz-adv-x="613" 
d="M369 578l-62 102l-62 -102h-115l121 196h112l119 -196h-113zM308 -11q-112 0 -171.5 59.5t-59.5 160.5v297h128v-290q0 -49 26.5 -78.5t75.5 -29.5t76 29.5t27 78.5v290h126v-297q0 -97 -59.5 -158.5t-168.5 -61.5z" />
    <glyph glyph-name="udieresis" unicode="&#xfc;" horiz-adv-x="613" 
d="M141 587v149h126v-149h-126zM347 587v149h126v-149h-126zM308 -11q-112 0 -171.5 59.5t-59.5 160.5v297h128v-290q0 -49 26.5 -78.5t75.5 -29.5t76 29.5t27 78.5v290h126v-297q0 -97 -59.5 -158.5t-168.5 -61.5z" />
    <glyph glyph-name="yacute" unicode="&#xfd;" horiz-adv-x="556" 
d="M213 580l99 187h133l-106 -187h-126zM139 -207l82 212l-206 501h142l128 -334l127 334h129l-274 -713h-128z" />
    <glyph glyph-name="thorn" unicode="&#xfe;" horiz-adv-x="626" 
d="M206 75v-282h-125v943h126v-308q8 16 22 33.5t50 37t80 19.5q93 0 153.5 -71t60.5 -194t-60.5 -193.5t-153.5 -70.5q-34 0 -63.5 10t-47.5 26t-27.5 28t-14.5 22zM205 253q0 -68 32 -110.5t87 -42.5q54 0 86.5 42.5t32.5 110.5t-32.5 110.5t-86.5 42.5q-55 0 -87 -42.5
t-32 -110.5z" />
    <glyph glyph-name="ydieresis" unicode="&#xff;" horiz-adv-x="556" 
d="M119 587v149h126v-149h-126zM325 587v149h126v-149h-126zM139 -207l82 212l-206 501h142l128 -334l127 334h129l-274 -713h-128z" />
    <glyph glyph-name="Amacron" unicode="&#x100;" horiz-adv-x="755" 
d="M541 801h-334v100h334v-100zM588 0l-57 146h-315l-57 -146h-134l284 713h137l284 -713h-142zM262 262h223l-111 283z" />
    <glyph glyph-name="amacron" unicode="&#x101;" horiz-adv-x="584" 
d="M436 613h-310v101h310v-101zM510 146q0 -42 35 -46v-103h-40q-90 0 -111 68q-47 -76 -151 -76q-87 0 -141.5 47t-54.5 124q0 74 50 114.5t140 40.5h150v2q0 45 -28.5 72.5t-77.5 27.5q-68 0 -101 -57l-116 33q6 16 18.5 34t36.5 40.5t66 37t94 14.5q113 0 172 -55.5
t59 -149.5v-168zM273 84q47 0 80.5 25t33.5 65v53h-130q-38 0 -60.5 -16.5t-22.5 -48.5q0 -36 26.5 -57t72.5 -21z" />
    <glyph glyph-name="Abreve" unicode="&#x102;" horiz-adv-x="755" 
d="M374 858q28 0 42.5 17.5t14.5 43.5v11h100v-13q0 -66 -40.5 -108.5t-116.5 -42.5t-116.5 42.5t-40.5 108.5v13h100v-11q0 -26 14.5 -43.5t42.5 -17.5zM588 0l-57 146h-315l-57 -146h-134l284 713h137l284 -713h-142zM262 262h223l-111 283z" />
    <glyph glyph-name="abreve" unicode="&#x103;" horiz-adv-x="584" 
d="M282 666q26 0 39 17t13 43v16h100v-19q0 -65 -39 -107t-113 -42t-113 42t-39 107v19h100v-16q0 -25 13 -42.5t39 -17.5zM510 146q0 -42 35 -46v-103h-40q-90 0 -111 68q-47 -76 -151 -76q-87 0 -141.5 47t-54.5 124q0 74 50 114.5t140 40.5h150v2q0 45 -28.5 72.5
t-77.5 27.5q-68 0 -101 -57l-116 33q6 16 18.5 34t36.5 40.5t66 37t94 14.5q113 0 172 -55.5t59 -149.5v-168zM273 84q47 0 80.5 25t33.5 65v53h-130q-38 0 -60.5 -16.5t-22.5 -48.5q0 -36 26.5 -57t72.5 -21z" />
    <glyph glyph-name="Aogonek" unicode="&#x104;" horiz-adv-x="755" 
d="M517 -116q0 34 18.5 60t52.5 56l-57 146h-315l-57 -146h-134l284 713h137l284 -713q-59 -51 -69 -66q-7 -10 -7 -19q0 -26 34 -26h62v-96h-108q-58 0 -91.5 23t-33.5 68zM262 262h223l-111 283z" />
    <glyph glyph-name="aogonek" unicode="&#x105;" horiz-adv-x="585" 
d="M334 -116q0 37 29.5 66.5t80.5 59.5q-35 18 -48 54q-47 -75 -151 -75q-87 0 -142 47t-55 124q0 74 50.5 114.5t141.5 40.5h149v2q0 45 -29 72.5t-78 27.5q-72 0 -100 -57l-117 33q6 17 19 35t37 40.5t66 36.5t94 14q112 0 172 -55.5t60 -149.5v-168q0 -42 34 -46v-100
q-60 -51 -69 -68q-6 -9 -6 -17q0 -26 33 -26h62v-96h-108q-58 0 -91.5 23t-33.5 68zM275 84q48 0 81 25t33 65v53h-129q-39 0 -62 -16.5t-23 -48.5q0 -35 27 -56.5t73 -21.5z" />
    <glyph glyph-name="Cacute" unicode="&#x106;" horiz-adv-x="723" 
d="M314 773l103 156h143l-111 -156h-135zM381 -12q-144 0 -231.5 102.5t-87.5 264.5q0 161 88 264t231 103q57 0 105 -14t78 -34.5t53 -48t33.5 -49t16.5 -42.5l-125 -43q-47 108 -161 108q-85 0 -132 -69.5t-47 -174.5t47 -174.5t132 -69.5q108 0 164 108l120 -41
q-6 -19 -16 -39t-32.5 -48.5t-52 -50t-78 -37t-105.5 -15.5z" />
    <glyph glyph-name="cacute" unicode="&#x107;" horiz-adv-x="551" 
d="M226 580l99 187h133l-106 -187h-126zM390 341q-31 66 -99 66q-50 0 -80 -43.5t-30 -110.5t30.5 -110.5t80.5 -43.5q68 0 101 69l112 -36q-4 -17 -16 -37.5t-35.5 -46.5t-67 -43.5t-97.5 -17.5q-103 0 -170.5 74.5t-67.5 191.5t67 191.5t170 74.5q53 0 94.5 -14.5
t65.5 -38.5t37 -45t20 -43z" />
    <glyph glyph-name="Ccircumflex" unicode="&#x108;" horiz-adv-x="723" 
d="M448 771l-67 81l-67 -81h-124l132 161h118l129 -161h-121zM381 -12q-144 0 -231.5 102.5t-87.5 264.5q0 161 88 264t231 103q57 0 105 -14t78 -34.5t53 -48t33.5 -49t16.5 -42.5l-125 -43q-47 108 -161 108q-85 0 -132 -69.5t-47 -174.5t47 -174.5t132 -69.5
q108 0 164 108l120 -41q-6 -19 -16 -39t-32.5 -48.5t-52 -50t-78 -37t-105.5 -15.5z" />
    <glyph glyph-name="ccircumflex" unicode="&#x109;" horiz-adv-x="551" 
d="M350 578l-62 102l-62 -102h-115l121 196h112l119 -196h-113zM390 341q-31 66 -99 66q-50 0 -80 -43.5t-30 -110.5t30.5 -110.5t80.5 -43.5q68 0 101 69l112 -36q-4 -17 -16 -37.5t-35.5 -46.5t-67 -43.5t-97.5 -17.5q-103 0 -170.5 74.5t-67.5 191.5t67 191.5t170 74.5
q53 0 94.5 -14.5t65.5 -38.5t37 -45t20 -43z" />
    <glyph glyph-name="Cdotaccent" unicode="&#x10a;" horiz-adv-x="723" 
d="M315 773v152h132v-152h-132zM381 -12q-144 0 -231.5 102.5t-87.5 264.5q0 161 88 264t231 103q57 0 105 -14t78 -34.5t53 -48t33.5 -49t16.5 -42.5l-125 -43q-47 108 -161 108q-85 0 -132 -69.5t-47 -174.5t47 -174.5t132 -69.5q108 0 164 108l120 -41q-6 -19 -16 -39
t-32.5 -48.5t-52 -50t-78 -37t-105.5 -15.5z" />
    <glyph glyph-name="cdotaccent" unicode="&#x10b;" horiz-adv-x="551" 
d="M222 587v152h132v-152h-132zM390 341q-31 66 -99 66q-50 0 -80 -43.5t-30 -110.5t30.5 -110.5t80.5 -43.5q68 0 101 69l112 -36q-4 -17 -16 -37.5t-35.5 -46.5t-67 -43.5t-97.5 -17.5q-103 0 -170.5 74.5t-67.5 191.5t67 191.5t170 74.5q53 0 94.5 -14.5t65.5 -38.5
t37 -45t20 -43z" />
    <glyph glyph-name="Ccaron" unicode="&#x10c;" horiz-adv-x="723" 
d="M188 932h124l69 -81l68 81h122l-133 -161h-116zM381 -12q-144 0 -231.5 102.5t-87.5 264.5q0 161 88 264t231 103q57 0 105 -14t78 -34.5t53 -48t33.5 -49t16.5 -42.5l-125 -43q-47 108 -161 108q-85 0 -132 -69.5t-47 -174.5t47 -174.5t132 -69.5q108 0 164 108l120 -41
q-6 -19 -16 -39t-32.5 -48.5t-52 -50t-78 -37t-105.5 -15.5z" />
    <glyph glyph-name="ccaron" unicode="&#x10d;" horiz-adv-x="551" 
d="M350 776h113l-119 -196h-112l-121 196h115l62 -102zM390 341q-31 66 -99 66q-50 0 -80 -43.5t-30 -110.5t30.5 -110.5t80.5 -43.5q68 0 101 69l112 -36q-4 -17 -16 -37.5t-35.5 -46.5t-67 -43.5t-97.5 -17.5q-103 0 -170.5 74.5t-67.5 191.5t67 191.5t170 74.5
q53 0 94.5 -14.5t65.5 -38.5t37 -45t20 -43z" />
    <glyph glyph-name="Dcaron" unicode="&#x10e;" horiz-adv-x="775" 
d="M170 932h124l69 -81l68 81h122l-133 -161h-116zM98 0v710h248q169 0 268.5 -93.5t99.5 -261.5q0 -165 -99.5 -260t-268.5 -95h-248zM345 592h-113v-474h113q108 0 170 63.5t62 173.5q0 113 -61.5 175t-170.5 62z" />
    <glyph glyph-name="dcaron" unicode="&#x10f;" horiz-adv-x="626" 
d="M597 580l50 194h115l-57 -194h-108zM420 76q-8 -17 -22 -33.5t-49 -35t-79 -18.5q-94 0 -155.5 71.5t-61.5 192.5q0 122 61.5 193.5t155.5 71.5q44 0 79 -18t48.5 -34.5t21.5 -31.5v302h127v-736h-126v76zM421 253q0 67 -32.5 110t-87.5 43q-54 0 -86 -43t-32 -110
t32 -110t86 -43t87 43t33 110z" />
    <glyph glyph-name="Dcroat" unicode="&#x110;" horiz-adv-x="793" 
d="M115 0v300h-102v116h102v294h248q169 0 268.5 -93.5t99.5 -261.5q0 -165 -99.5 -260t-268.5 -95h-248zM362 592h-113v-176h187v-116h-187v-182h113q108 0 170 63.5t62 173.5q0 113 -61.5 175t-170.5 62z" />
    <glyph glyph-name="dcroat" unicode="&#x111;" horiz-adv-x="626" 
d="M420 76q-8 -17 -22 -33.5t-49 -35t-79 -18.5q-94 0 -155.5 71.5t-61.5 192.5q0 122 61.5 193.5t155.5 71.5q44 0 79 -18t48.5 -34.5t21.5 -31.5v138h-171v91h171v73h127v-73h80v-91h-80v-572h-126v76zM421 253q0 67 -32.5 110t-87.5 43q-54 0 -86 -43t-32 -110t32 -110
t86 -43t87 43t33 110z" />
    <glyph glyph-name="Emacron" unicode="&#x112;" horiz-adv-x="708" 
d="M536 801h-334v100h334v-100zM98 0v710h531v-116h-397v-162h326v-117h-326v-196h433v-119h-567z" />
    <glyph glyph-name="emacron" unicode="&#x113;" horiz-adv-x="579" 
d="M448 613h-310v101h310v-101zM292 519q109 0 174 -72t65 -193v-21h-353q3 -62 36 -100.5t88 -38.5q69 0 108 58l113 -31q-6 -19 -19.5 -39t-38 -43t-67.5 -37.5t-96 -14.5q-114 0 -182.5 74.5t-68.5 191.5q0 118 66 192t175 74zM292 421q-46 0 -75 -27.5t-37 -76.5h222
q-19 104 -110 104z" />
    <glyph glyph-name="Ebreve" unicode="&#x114;" horiz-adv-x="708" 
d="M369 858q28 0 42.5 17.5t14.5 43.5v11h100v-13q0 -66 -40.5 -108.5t-116.5 -42.5t-116.5 42.5t-40.5 108.5v13h100v-11q0 -26 14.5 -43.5t42.5 -17.5zM98 0v710h531v-116h-397v-162h326v-117h-326v-196h433v-119h-567z" />
    <glyph glyph-name="ebreve" unicode="&#x115;" horiz-adv-x="579" 
d="M292 666q26 0 39 17t13 43v16h100v-19q0 -65 -39 -107t-113 -42t-113 42t-39 107v19h100v-16q0 -25 13 -42.5t39 -17.5zM292 519q109 0 174 -72t65 -193v-21h-353q3 -62 36 -100.5t88 -38.5q69 0 108 58l113 -31q-6 -19 -19.5 -39t-38 -43t-67.5 -37.5t-96 -14.5
q-114 0 -182.5 74.5t-68.5 191.5q0 118 66 192t175 74zM292 421q-46 0 -75 -27.5t-37 -76.5h222q-19 104 -110 104z" />
    <glyph glyph-name="Edotaccent" unicode="&#x116;" horiz-adv-x="708" 
d="M303 773v152h132v-152h-132zM98 0v710h531v-116h-397v-162h326v-117h-326v-196h433v-119h-567z" />
    <glyph glyph-name="edotaccent" unicode="&#x117;" horiz-adv-x="579" 
d="M226 587v152h132v-152h-132zM292 519q109 0 174 -72t65 -193v-21h-353q3 -62 36 -100.5t88 -38.5q69 0 108 58l113 -31q-6 -19 -19.5 -39t-38 -43t-67.5 -37.5t-96 -14.5q-114 0 -182.5 74.5t-68.5 191.5q0 118 66 192t175 74zM292 421q-46 0 -75 -27.5t-37 -76.5h222
q-19 104 -110 104z" />
    <glyph glyph-name="Eogonek" unicode="&#x118;" horiz-adv-x="708" 
d="M98 0v710h531v-116h-397v-162h326v-117h-326v-196h433v-119h-102q-60 -51 -69 -68q-6 -9 -6 -17q0 -26 33 -26h62v-96h-108q-58 0 -91.5 23t-33.5 68q0 23 15 46.5t27 34t43 35.5h-337z" />
    <glyph glyph-name="eogonek" unicode="&#x119;" horiz-adv-x="579" 
d="M523 121q-14 -46 -78 -107q-45 -41 -62 -61.5t-17 -36.5q0 -27 33 -27h63v-96h-107q-58 0 -91.5 22t-33.5 65q0 57 86 107h-14q-114 0 -182.5 74.5t-68.5 191.5q0 118 66 192t175 74t174 -72t65 -193v-21h-353q3 -62 36 -100.5t88 -38.5q69 0 108 58zM292 421
q-46 0 -75 -27.5t-37 -76.5h222q-19 104 -110 104z" />
    <glyph glyph-name="Ecaron" unicode="&#x11a;" horiz-adv-x="708" 
d="M176 932h124l69 -81l68 81h122l-133 -161h-116zM98 0v710h531v-116h-397v-162h326v-117h-326v-196h433v-119h-567z" />
    <glyph glyph-name="ecaron" unicode="&#x11b;" horiz-adv-x="579" 
d="M354 776h113l-119 -196h-112l-121 196h115l62 -102zM292 519q109 0 174 -72t65 -193v-21h-353q3 -62 36 -100.5t88 -38.5q69 0 108 58l113 -31q-6 -19 -19.5 -39t-38 -43t-67.5 -37.5t-96 -14.5q-114 0 -182.5 74.5t-68.5 191.5q0 118 66 192t175 74zM292 421
q-46 0 -75 -27.5t-37 -76.5h222q-19 104 -110 104z" />
    <glyph glyph-name="Gcircumflex" unicode="&#x11c;" horiz-adv-x="777" 
d="M464 771l-67 81l-67 -81h-124l132 161h118l129 -161h-121zM697 77q-38 -36 -109 -63t-169 -27q-162 0 -259.5 102t-97.5 268q0 160 93.5 263t241.5 103q55 0 101.5 -11.5t76 -28t52.5 -39t34 -39.5t18 -34l-124 -45q-56 79 -157 79q-91 0 -144.5 -69t-53.5 -179
q0 -114 58.5 -183t160.5 -69q99 0 150 34v157h-159v112h287v-331z" />
    <glyph glyph-name="gcircumflex" unicode="&#x11d;" horiz-adv-x="620" 
d="M361 578l-62 102l-62 -102h-115l121 196h112l119 -196h-113zM414 79q-52 -88 -147 -88q-91 0 -152.5 71.5t-61.5 191.5t61.5 191.5t152.5 71.5q32 0 59.5 -10.5t45 -26.5t26.5 -27.5t15 -22.5v76h127v-491q0 -107 -62 -170t-183 -63q-55 0 -99 14t-70 35.5t-40 39.5
t-20 34l127 29q30 -47 102 -47q58 0 88.5 33t30.5 94v65zM415 254q0 67 -32 109.5t-83 42.5q-53 0 -85 -42t-32 -110q0 -66 32 -108.5t85 -42.5q51 0 83 42.5t32 108.5z" />
    <glyph glyph-name="Gbreve" unicode="&#x11e;" horiz-adv-x="777" 
d="M397 858q28 0 42.5 17.5t14.5 43.5v11h100v-13q0 -66 -40.5 -108.5t-116.5 -42.5t-116.5 42.5t-40.5 108.5v13h100v-11q0 -26 14.5 -43.5t42.5 -17.5zM697 77q-38 -36 -109 -63t-169 -27q-162 0 -259.5 102t-97.5 268q0 160 93.5 263t241.5 103q55 0 101.5 -11.5t76 -28
t52.5 -39t34 -39.5t18 -34l-124 -45q-56 79 -157 79q-91 0 -144.5 -69t-53.5 -179q0 -114 58.5 -183t160.5 -69q99 0 150 34v157h-159v112h287v-331z" />
    <glyph glyph-name="gbreve" unicode="&#x11f;" horiz-adv-x="620" 
d="M299 666q26 0 39 17t13 43v16h100v-19q0 -65 -39 -107t-113 -42t-113 42t-39 107v19h100v-16q0 -25 13 -42.5t39 -17.5zM414 79q-52 -88 -147 -88q-91 0 -152.5 71.5t-61.5 191.5t61.5 191.5t152.5 71.5q32 0 59.5 -10.5t45 -26.5t26.5 -27.5t15 -22.5v76h127v-491
q0 -107 -62 -170t-183 -63q-55 0 -99 14t-70 35.5t-40 39.5t-20 34l127 29q30 -47 102 -47q58 0 88.5 33t30.5 94v65zM415 254q0 67 -32 109.5t-83 42.5q-53 0 -85 -42t-32 -110q0 -66 32 -108.5t85 -42.5q51 0 83 42.5t32 108.5z" />
    <glyph glyph-name="Gdotaccent" unicode="&#x120;" horiz-adv-x="777" 
d="M331 773v152h132v-152h-132zM697 77q-38 -36 -109 -63t-169 -27q-162 0 -259.5 102t-97.5 268q0 160 93.5 263t241.5 103q55 0 101.5 -11.5t76 -28t52.5 -39t34 -39.5t18 -34l-124 -45q-56 79 -157 79q-91 0 -144.5 -69t-53.5 -179q0 -114 58.5 -183t160.5 -69
q99 0 150 34v157h-159v112h287v-331z" />
    <glyph glyph-name="gdotaccent" unicode="&#x121;" horiz-adv-x="620" 
d="M233 587v152h132v-152h-132zM414 79q-52 -88 -147 -88q-91 0 -152.5 71.5t-61.5 191.5t61.5 191.5t152.5 71.5q32 0 59.5 -10.5t45 -26.5t26.5 -27.5t15 -22.5v76h127v-491q0 -107 -62 -170t-183 -63q-55 0 -99 14t-70 35.5t-40 39.5t-20 34l127 29q30 -47 102 -47
q58 0 88.5 33t30.5 94v65zM415 254q0 67 -32 109.5t-83 42.5q-53 0 -85 -42t-32 -110q0 -66 32 -108.5t85 -42.5q51 0 83 42.5t32 108.5z" />
    <glyph glyph-name="Gcommaaccent" unicode="&#x122;" horiz-adv-x="777" 
d="M697 77q-38 -36 -109 -63t-169 -27q-162 0 -259.5 102t-97.5 268q0 160 93.5 263t241.5 103q55 0 101.5 -11.5t76 -28t52.5 -39t34 -39.5t18 -34l-124 -45q-56 79 -157 79q-91 0 -144.5 -69t-53.5 -179q0 -114 58.5 -183t160.5 -69q99 0 150 34v157h-159v112h287v-331z
M464 -322h-87q34 62 40 114h-66v127h145v-101q0 -68 -32 -140z" />
    <glyph glyph-name="gcommaaccent" unicode="&#x123;" horiz-adv-x="620" 
d="M245 828h87q-34 -62 -40 -114h66v-127h-145v101q0 68 32 140zM414 79q-52 -88 -147 -88q-91 0 -152.5 71.5t-61.5 191.5t61.5 191.5t152.5 71.5q32 0 59.5 -10.5t45 -26.5t26.5 -27.5t15 -22.5v76h127v-491q0 -107 -62 -170t-183 -63q-55 0 -99 14t-70 35.5t-40 39.5
t-20 34l127 29q30 -47 102 -47q58 0 88.5 33t30.5 94v65zM415 254q0 67 -32 109.5t-83 42.5q-53 0 -85 -42t-32 -110q0 -66 32 -108.5t85 -42.5q51 0 83 42.5t32 108.5z" />
    <glyph glyph-name="Hcircumflex" unicode="&#x124;" horiz-adv-x="809" 
d="M471 771l-67 81l-67 -81h-124l132 161h118l129 -161h-121zM98 0v710h134v-293h344v293h135v-710h-135v297h-344v-297h-134z" />
    <glyph glyph-name="hcircumflex" unicode="&#x125;" horiz-adv-x="624" 
d="M380 797l-67 81l-67 -81h-124l132 161h118l129 -161h-121zM81 0v736h127v-305q17 33 55 59.5t93 26.5q87 0 139 -58t52 -156v-303h-128v279q0 59 -27.5 91.5t-76.5 32.5q-50 0 -78.5 -32.5t-28.5 -91.5v-279h-127z" />
    <glyph glyph-name="Hbar" unicode="&#x126;" horiz-adv-x="809" 
d="M98 0v515h-88v93h88v102h134v-102h344v102h135v-102h88v-93h-88v-515h-135v297h-344v-297h-134zM232 417h344v98h-344v-98z" />
    <glyph glyph-name="hbar" unicode="&#x127;" horiz-adv-x="624" 
d="M81 0v572h-81v91h81v73h127v-73h170v-91h-170v-141q17 33 55 59.5t93 26.5q87 0 139 -58t52 -156v-303h-128v279q0 59 -27.5 91.5t-76.5 32.5q-50 0 -78.5 -32.5t-28.5 -91.5v-279h-127z" />
    <glyph glyph-name="Itilde" unicode="&#x128;" horiz-adv-x="333" 
d="M167 807l-35 20q-22 12 -31 12q-16 0 -16 -22v-48h-93v77q0 45 21 70.5t63 25.5q15 0 32.5 -6t25.5 -10.5t31 -17.5l35 -19q24 -13 31 -13q16 0 16 23v48h93v-77q0 -45 -21 -70.5t-63 -25.5q-32 0 -89 33zM99 0v710h135v-710h-135z" />
    <glyph glyph-name="itilde" unicode="&#x129;" horiz-adv-x="290" 
d="M75 576h-90v83q0 44 21 69.5t62 25.5q37 0 82 -36l24 -20q18 -14 26 -14q16 0 16 21v54h90v-82q0 -45 -21.5 -70.5t-61.5 -25.5q-23 0 -40 8.5t-42 28.5l-24 20q-19 14 -26 14q-16 0 -16 -22v-54zM81 0v506h128v-506h-128z" />
    <glyph glyph-name="Imacron" unicode="&#x12a;" horiz-adv-x="333" 
d="M333 801h-334v100h334v-100zM99 0v710h135v-710h-135z" />
    <glyph glyph-name="imacron" unicode="&#x12b;" horiz-adv-x="290" 
d="M292 613h-293v101h293v-101zM81 0v506h128v-506h-128z" />
    <glyph glyph-name="Ibreve" unicode="&#x12c;" horiz-adv-x="333" 
d="M166 858q28 0 42.5 17.5t14.5 43.5v11h100v-13q0 -66 -40.5 -108.5t-116.5 -42.5t-116.5 42.5t-40.5 108.5v13h100v-11q0 -26 14.5 -43.5t42.5 -17.5zM99 0v710h135v-710h-135z" />
    <glyph glyph-name="ibreve" unicode="&#x12d;" horiz-adv-x="290" 
d="M145 666q26 0 39 17t13 43v16h99v-19q0 -65 -38.5 -107t-112.5 -42t-112.5 42t-38.5 107v19h99v-16q0 -25 13 -42.5t39 -17.5zM81 0v506h128v-506h-128z" />
    <glyph glyph-name="Iogonek" unicode="&#x12e;" horiz-adv-x="333" 
d="M99 0v710h135v-710q-59 -51 -69 -66q-7 -10 -7 -19q0 -26 33 -26h63v-96h-108q-58 0 -92 23t-34 68q0 23 13.5 46t26 35t39.5 35z" />
    <glyph glyph-name="iogonek" unicode="&#x12f;" horiz-adv-x="290" 
d="M79 587v152h133v-152h-133zM81 0v506h128v-506h-1q-60 -51 -69 -68q-6 -9 -6 -17q0 -26 33 -26h62v-96h-108q-58 0 -91.5 23t-33.5 68q0 23 15 46.5t27 34t43 35.5h1z" />
    <glyph glyph-name="Idotaccent" unicode="&#x130;" horiz-adv-x="333" 
d="M100 773v152h132v-152h-132zM99 0v710h135v-710h-135z" />
    <glyph glyph-name="dotlessi" unicode="&#x131;" horiz-adv-x="290" 
d="M81 0v506h128v-506h-128z" />
    <glyph glyph-name="IJ" unicode="&#x132;" horiz-adv-x="983" 
d="M99 0v710h135v-710h-135zM884 220q0 -110 -65 -171.5t-177 -61.5q-111 0 -173 61t-62 172v103h130v-96q0 -54 27.5 -85.5t77.5 -31.5q52 0 79.5 31.5t27.5 85.5v483h135v-490z" />
    <glyph glyph-name="ij" unicode="&#x133;" horiz-adv-x="582" 
d="M79 587v152h133v-152h-133zM370 587v152h133v-152h-133zM81 0v506h128v-506h-128zM500 -39q0 -86 -40 -127t-122 -41h-126v106h83q41 0 59 18.5t18 59.5v529h128v-545z" />
    <glyph glyph-name="Jcircumflex" unicode="&#x134;" horiz-adv-x="645" 
d="M549 771l-67 81l-67 -81h-124l132 161h118l129 -161h-121zM551 220q0 -110 -65 -171.5t-177 -61.5q-111 0 -173 61t-62 172v103h130v-96q0 -54 27.5 -85.5t77.5 -31.5q52 0 79.5 31.5t27.5 85.5v483h135v-490z" />
    <glyph glyph-name="jcircumflex" unicode="&#x135;" horiz-adv-x="291" 
d="M207 578l-61 103l-62 -103h-115l120 196h113l117 -196h-112zM210 -39q0 -86 -40 -127t-122 -41h-126v106h83q41 0 59 18.5t18 59.5v529h128v-545z" />
    <glyph glyph-name="Kcommaaccent" unicode="&#x136;" horiz-adv-x="739" 
d="M98 0v710h134v-315l311 315h172l-341 -344l359 -366h-181l-320 322v-322h-134zM426 -322h-87q34 62 40 114h-66v127h145v-101q0 -68 -32 -140z" />
    <glyph glyph-name="kcommaaccent" unicode="&#x137;" horiz-adv-x="583" 
d="M81 0v736h126v-439l201 209h160l-230 -236l248 -270h-165l-214 231v-231h-126zM354 -322h-87q34 62 40 114h-66v127h145v-101q0 -68 -32 -140z" />
    <glyph glyph-name="Lacute" unicode="&#x139;" horiz-adv-x="642" 
d="M100 773l103 156h143l-111 -156h-135zM98 0v710h134v-587h370v-123h-504z" />
    <glyph glyph-name="lacute" unicode="&#x13a;" horiz-adv-x="293" 
d="M80 799l103 156h143l-111 -156h-135zM83 0v736h128v-736h-128z" />
    <glyph glyph-name="Lcommaaccent" unicode="&#x13b;" horiz-adv-x="640" 
d="M98 0v710h134v-587h370v-123h-504zM410 -322h-87q34 62 40 114h-66v127h145v-101q0 -68 -32 -140z" />
    <glyph glyph-name="lcommaaccent" unicode="&#x13c;" horiz-adv-x="293" 
d="M83 0v736h128v-736h-128zM190 -322h-87q34 62 40 114h-66v127h145v-101q0 -68 -32 -140z" />
    <glyph glyph-name="Lcaron" unicode="&#x13d;" horiz-adv-x="642" 
d="M286 580l50 194h115l-57 -194h-108zM98 0v710h134v-587h370v-123h-504z" />
    <glyph glyph-name="lcaron" unicode="&#x13e;" horiz-adv-x="293" 
d="M262 580l50 194h115l-57 -194h-108zM83 0v736h128v-736h-128z" />
    <glyph glyph-name="Ldot" unicode="&#x13f;" horiz-adv-x="653" 
d="M98 0v710h134v-587h370v-123h-504zM419 318v170h153v-170h-153z" />
    <glyph glyph-name="ldot" unicode="&#x140;" horiz-adv-x="491" 
d="M83 0v736h128v-736h-128zM316 285v170h153v-170h-153z" />
    <glyph glyph-name="Lslash" unicode="&#x141;" horiz-adv-x="648" 
d="M106 0v214l-90 -47v114l90 48v381h134v-311l234 124v-118l-234 -122v-160h370v-123h-504z" />
    <glyph glyph-name="lslash" unicode="&#x142;" horiz-adv-x="365" 
d="M117 0v301l-96 -46v111l96 47v323h128v-260l98 48v-114l-98 -47v-363h-128z" />
    <glyph glyph-name="Nacute" unicode="&#x143;" horiz-adv-x="812" 
d="M351 773l103 156h143l-111 -156h-135zM714 710v-714h-106l-380 533v-529h-130v710h155l333 -477v477h128z" />
    <glyph glyph-name="nacute" unicode="&#x144;" horiz-adv-x="624" 
d="M249 580l99 187h133l-106 -187h-126zM81 0v506h127v-73q17 32 55 58t93 26q87 0 139 -57t52 -154v-306h-128v283q0 58 -27.5 89t-76.5 31q-50 0 -78.5 -31.5t-28.5 -88.5v-283h-127z" />
    <glyph glyph-name="Ncommaaccent" unicode="&#x145;" horiz-adv-x="812" 
d="M714 710v-714h-106l-380 533v-529h-130v710h155l333 -477v477h128zM454 -322h-87q34 62 40 114h-66v127h145v-101q0 -68 -32 -140z" />
    <glyph glyph-name="ncommaaccent" unicode="&#x146;" horiz-adv-x="624" 
d="M81 0v506h127v-73q17 32 55 58t93 26q87 0 139 -57t52 -154v-306h-128v283q0 58 -27.5 89t-76.5 31q-50 0 -78.5 -31.5t-28.5 -88.5v-283h-127zM359 -322h-87q34 62 40 114h-66v127h145v-101q0 -68 -32 -140z" />
    <glyph glyph-name="Ncaron" unicode="&#x147;" horiz-adv-x="812" 
d="M224 932h124l69 -81l68 81h122l-133 -161h-116zM714 710v-714h-106l-380 533v-529h-130v710h155l333 -477v477h128z" />
    <glyph glyph-name="ncaron" unicode="&#x148;" horiz-adv-x="624" 
d="M369 776h113l-119 -196h-112l-121 196h115l62 -102zM81 0v506h127v-73q17 32 55 58t93 26q87 0 139 -57t52 -154v-306h-128v283q0 58 -27.5 89t-76.5 31q-50 0 -78.5 -31.5t-28.5 -88.5v-283h-127z" />
    <glyph glyph-name="napostrophe" unicode="&#x149;" horiz-adv-x="873" 
d="M143 369l-75 27q60 100 63 185h-71v155h151v-138q0 -125 -68 -229zM330 0v506h127v-73q17 32 55 58t93 26q87 0 139 -57t52 -154v-306h-128v283q0 58 -27.5 89t-76.5 31q-50 0 -78.5 -31.5t-28.5 -88.5v-283h-127z" />
    <glyph glyph-name="Eng" unicode="&#x14a;" horiz-adv-x="814" 
d="M592 -24q0 39 -49 109l-315 447v-532h-130v710h156l333 -477v477h129v-740q0 -177 -171 -177h-115v108h73q89 0 89 75z" />
    <glyph glyph-name="eng" unicode="&#x14b;" horiz-adv-x="624" 
d="M81 0v506h127v-73q17 32 55 58t93 26q87 0 139 -57t52 -154v-345q0 -168 -162 -168h-122v106h78q41 0 59.5 19t18.5 59v306q0 58 -27.5 89t-76.5 31q-50 0 -78.5 -31.5t-28.5 -88.5v-283h-127z" />
    <glyph glyph-name="Omacron" unicode="&#x14c;" horiz-adv-x="783" 
d="M558 801h-334v100h334v-100zM391 -12q-147 0 -238 101.5t-91 265.5t91.5 265.5t237.5 101.5t237.5 -101.5t91.5 -265.5q0 -163 -91.5 -265t-237.5 -102zM391 110q90 0 141 69t51 176t-51 176t-141 69t-140.5 -69t-50.5 -176q0 -108 50.5 -176.5t140.5 -68.5z" />
    <glyph glyph-name="omacron" unicode="&#x14d;" horiz-adv-x="599" 
d="M455 613h-310v101h310v-101zM299 519q111 0 180 -74t69 -192q0 -117 -69.5 -191.5t-179.5 -74.5t-179 74.5t-69 191.5q0 118 69 192t179 74zM299 99q57 0 88 43t31 111t-31 111t-88 43t-88 -43t-31 -111q0 -67 31.5 -110.5t87.5 -43.5z" />
    <glyph glyph-name="Obreve" unicode="&#x14e;" horiz-adv-x="783" 
d="M391 858q28 0 42.5 17.5t14.5 43.5v11h100v-13q0 -66 -40.5 -108.5t-116.5 -42.5t-116.5 42.5t-40.5 108.5v13h100v-11q0 -26 14.5 -43.5t42.5 -17.5zM391 -12q-147 0 -238 101.5t-91 265.5t91.5 265.5t237.5 101.5t237.5 -101.5t91.5 -265.5q0 -163 -91.5 -265
t-237.5 -102zM391 110q90 0 141 69t51 176t-51 176t-141 69t-140.5 -69t-50.5 -176q0 -108 50.5 -176.5t140.5 -68.5z" />
    <glyph glyph-name="obreve" unicode="&#x14f;" horiz-adv-x="599" 
d="M299 666q26 0 39 17t13 43v16h100v-19q0 -65 -39 -107t-113 -42t-113 42t-39 107v19h100v-16q0 -25 13 -42.5t39 -17.5zM299 519q111 0 180 -74t69 -192q0 -117 -69.5 -191.5t-179.5 -74.5t-179 74.5t-69 191.5q0 118 69 192t179 74zM299 99q57 0 88 43t31 111t-31 111
t-88 43t-88 -43t-31 -111q0 -67 31.5 -110.5t87.5 -43.5z" />
    <glyph glyph-name="Ohungarumlaut" unicode="&#x150;" horiz-adv-x="783" 
d="M430 773l77 156h124l-84 -156h-117zM233 773l76 156h124l-82 -156h-118zM391 -12q-147 0 -238 101.5t-91 265.5t91.5 265.5t237.5 101.5t237.5 -101.5t91.5 -265.5q0 -163 -91.5 -265t-237.5 -102zM391 110q90 0 141 69t51 176t-51 176t-141 69t-140.5 -69t-50.5 -176
q0 -108 50.5 -176.5t140.5 -68.5z" />
    <glyph glyph-name="ohungarumlaut" unicode="&#x151;" horiz-adv-x="599" 
d="M343 580l72 187h112l-77 -187h-107zM159 580l72 187h112l-77 -187h-107zM299 519q111 0 180 -74t69 -192q0 -117 -69.5 -191.5t-179.5 -74.5t-179 74.5t-69 191.5q0 118 69 192t179 74zM299 99q57 0 88 43t31 111t-31 111t-88 43t-88 -43t-31 -111q0 -67 31.5 -110.5
t87.5 -43.5z" />
    <glyph glyph-name="OE" unicode="&#x152;" horiz-adv-x="1057" 
d="M429 0q-166 0 -267 96.5t-101 258.5q0 161 101.5 258t266.5 97h550v-116h-351v-162h279v-117h-279v-196h386v-119h-585zM431 119h63v472h-63q-108 0 -170.5 -65.5t-62.5 -170.5t62.5 -170.5t170.5 -65.5z" />
    <glyph glyph-name="oe" unicode="&#x153;" horiz-adv-x="942" 
d="M666 -13q-65 0 -114.5 27.5t-75.5 69.5q-23 -43 -69.5 -70t-110.5 -27q-108 0 -176.5 74.5t-68.5 191.5q0 118 68 192t177 74q66 0 112.5 -26.5t70.5 -67.5q24 42 70.5 68t107.5 26q107 0 172 -72t65 -193v-24h-350q4 -61 36 -98.5t86 -37.5q72 0 104 54l119 -13
q-5 -21 -17.5 -42.5t-37 -47t-68.5 -42t-100 -16.5zM656 421q-46 0 -74 -28t-36 -78h218q-8 51 -36 78.5t-72 27.5zM299 98q56 0 87 43.5t31 111.5t-31 111.5t-87 43.5q-55 0 -87 -44t-32 -111q0 -68 31.5 -111.5t87.5 -43.5z" />
    <glyph glyph-name="Racute" unicode="&#x154;" horiz-adv-x="762" 
d="M302 773l103 156h143l-111 -156h-135zM98 0v710h342q116 0 179 -53.5t63 -154.5q0 -151 -140 -193l177 -309h-145l-170 295h-172v-295h-134zM431 591h-199v-179h199q113 0 113 90q0 89 -113 89z" />
    <glyph glyph-name="racute" unicode="&#x155;" horiz-adv-x="462" 
d="M202 580l99 187h133l-106 -187h-126zM208 267v-267h-127v506h127v-82q13 33 51 59t107 26h65v-127h-84q-73 0 -106 -28t-33 -87z" />
    <glyph glyph-name="Rcommaaccent" unicode="&#x156;" horiz-adv-x="762" 
d="M98 0v710h342q116 0 179 -53.5t63 -154.5q0 -151 -140 -193l177 -309h-145l-170 295h-172v-295h-134zM431 591h-199v-179h199q113 0 113 90q0 89 -113 89zM433 -322h-87q34 62 40 114h-66v127h145v-101q0 -68 -32 -140z" />
    <glyph glyph-name="rcommaaccent" unicode="&#x157;" horiz-adv-x="462" 
d="M208 267v-267h-127v506h127v-82q13 33 51 59t107 26h65v-127h-84q-73 0 -106 -28t-33 -87zM187 -322h-87q34 62 40 114h-66v127h145v-101q0 -68 -32 -140z" />
    <glyph glyph-name="Rcaron" unicode="&#x158;" horiz-adv-x="762" 
d="M176 932h124l69 -81l68 81h122l-133 -161h-116zM98 0v710h342q116 0 179 -53.5t63 -154.5q0 -151 -140 -193l177 -309h-145l-170 295h-172v-295h-134zM431 591h-199v-179h199q113 0 113 90q0 89 -113 89z" />
    <glyph glyph-name="rcaron" unicode="&#x159;" horiz-adv-x="462" 
d="M327 776h113l-119 -196h-112l-121 196h115l62 -102zM208 267v-267h-127v506h127v-82q13 33 51 59t107 26h65v-127h-84q-73 0 -106 -28t-33 -87z" />
    <glyph glyph-name="Sacute" unicode="&#x15a;" horiz-adv-x="707" 
d="M278 773l103 156h143l-111 -156h-135zM336 610q-64 0 -98.5 -23t-34.5 -63q0 -69 115 -86q17 -3 41 -6l40 -5q120 -16 184 -64.5t64 -152.5q0 -100 -75 -161.5t-207 -61.5q-59 0 -109.5 13t-83.5 31.5t-59.5 43.5t-40 45t-23.5 41l128 47q10 -15 14.5 -21.5t23 -26
t36 -29.5t48.5 -19.5t66 -9.5q65 0 105.5 27t40.5 72q0 44 -31 66t-90 30q-17 3 -41 6.5t-41 5.5q-117 17 -179 65.5t-62 143.5q0 94 74.5 149.5t194.5 55.5q69 0 123 -15t86.5 -40.5t50 -47.5t28.5 -47l-121 -43q-60 80 -167 80z" />
    <glyph glyph-name="sacute" unicode="&#x15b;" horiz-adv-x="550" 
d="M202 580l99 187h133l-106 -187h-126zM303 199q-15 0 -64 7q-85 9 -134.5 48t-49.5 111q0 71 57 113t151 42q54 0 96.5 -11.5t66.5 -30.5t37 -34.5t20 -32.5l-112 -34q-37 46 -107 46q-84 0 -84 -52q0 -45 72 -54q2 0 29 -3t31 -3q97 -9 143 -49t46 -113t-57 -118
t-159 -45q-57 0 -102 13t-71.5 34t-41.5 39.5t-23 38.5l116 35q34 -61 122 -61q42 0 65.5 16t23.5 41q0 49 -71 57z" />
    <glyph glyph-name="Scircumflex" unicode="&#x15c;" horiz-adv-x="707" 
d="M411 771l-67 81l-67 -81h-124l132 161h118l129 -161h-121zM336 610q-64 0 -98.5 -23t-34.5 -63q0 -69 115 -86q17 -3 41 -6l40 -5q120 -16 184 -64.5t64 -152.5q0 -100 -75 -161.5t-207 -61.5q-59 0 -109.5 13t-83.5 31.5t-59.5 43.5t-40 45t-23.5 41l128 47
q10 -15 14.5 -21.5t23 -26t36 -29.5t48.5 -19.5t66 -9.5q65 0 105.5 27t40.5 72q0 44 -31 66t-90 30q-17 3 -41 6.5t-41 5.5q-117 17 -179 65.5t-62 143.5q0 94 74.5 149.5t194.5 55.5q69 0 123 -15t86.5 -40.5t50 -47.5t28.5 -47l-121 -43q-60 80 -167 80z" />
    <glyph glyph-name="scircumflex" unicode="&#x15d;" horiz-adv-x="550" 
d="M334 578l-62 102l-62 -102h-115l121 196h112l119 -196h-113zM303 199q-15 0 -64 7q-85 9 -134.5 48t-49.5 111q0 71 57 113t151 42q54 0 96.5 -11.5t66.5 -30.5t37 -34.5t20 -32.5l-112 -34q-37 46 -107 46q-84 0 -84 -52q0 -45 72 -54q2 0 29 -3t31 -3q97 -9 143 -49
t46 -113t-57 -118t-159 -45q-57 0 -102 13t-71.5 34t-41.5 39.5t-23 38.5l116 35q34 -61 122 -61q42 0 65.5 16t23.5 41q0 49 -71 57z" />
    <glyph glyph-name="Scedilla" unicode="&#x15e;" horiz-adv-x="708" 
d="M375 -156q0 30 -36 30h-70v122q-63 13 -112.5 45.5t-71.5 61t-36 58.5l128 47q10 -15 14.5 -21.5t23 -26t36 -29.5t48.5 -19.5t66 -9.5q65 0 105.5 27t40.5 72q0 44 -31 66t-90 30q-17 3 -41 6.5t-41 5.5q-117 17 -179 65.5t-62 143.5q0 94 74.5 149.5t194.5 55.5
q69 0 123 -15t86.5 -40.5t50 -47.5t28.5 -47l-121 -43q-60 80 -167 80q-64 0 -98.5 -23t-34.5 -63q0 -69 115 -86q17 -3 41 -6l40 -5q120 -16 184 -64.5t64 -152.5q0 -100 -75 -161.5t-205 -61.5v-36q56 0 85 -29.5t29 -80.5q0 -54 -31 -85.5t-93 -31.5h-110v88h92
q36 0 36 32z" />
    <glyph glyph-name="scedilla" unicode="&#x15f;" horiz-adv-x="550" 
d="M303 -156q0 30 -36 30h-69v121q-114 27 -151 116l116 35q34 -61 122 -61q42 0 65.5 16t23.5 41q0 49 -71 57q-15 0 -64 7q-85 9 -134.5 48t-49.5 111q0 71 57 113t151 42q54 0 96.5 -11.5t66.5 -30.5t37 -34.5t20 -32.5l-112 -34q-37 46 -107 46q-84 0 -84 -52
q0 -45 72 -54q2 0 29 -3t31 -3q97 -9 143 -49t46 -113q0 -71 -54 -115.5t-151 -47.5v-35q55 0 84 -29.5t29 -80.5q0 -54 -31 -85.5t-93 -31.5h-110v88h92q36 0 36 32z" />
    <glyph glyph-name="Scaron" unicode="&#x160;" horiz-adv-x="707" 
d="M152 932h124l69 -81l68 81h122l-133 -161h-116zM336 610q-64 0 -98.5 -23t-34.5 -63q0 -69 115 -86q17 -3 41 -6l40 -5q120 -16 184 -64.5t64 -152.5q0 -100 -75 -161.5t-207 -61.5q-59 0 -109.5 13t-83.5 31.5t-59.5 43.5t-40 45t-23.5 41l128 47q10 -15 14.5 -21.5
t23 -26t36 -29.5t48.5 -19.5t66 -9.5q65 0 105.5 27t40.5 72q0 44 -31 66t-90 30q-17 3 -41 6.5t-41 5.5q-117 17 -179 65.5t-62 143.5q0 94 74.5 149.5t194.5 55.5q69 0 123 -15t86.5 -40.5t50 -47.5t28.5 -47l-121 -43q-60 80 -167 80z" />
    <glyph glyph-name="scaron" unicode="&#x161;" horiz-adv-x="550" 
d="M331 776h113l-119 -196h-112l-121 196h115l62 -102zM303 199q-15 0 -64 7q-85 9 -134.5 48t-49.5 111q0 71 57 113t151 42q54 0 96.5 -11.5t66.5 -30.5t37 -34.5t20 -32.5l-112 -34q-37 46 -107 46q-84 0 -84 -52q0 -45 72 -54q2 0 29 -3t31 -3q97 -9 143 -49t46 -113
t-57 -118t-159 -45q-57 0 -102 13t-71.5 34t-41.5 39.5t-23 38.5l116 35q34 -61 122 -61q42 0 65.5 16t23.5 41q0 49 -71 57z" />
    <glyph glyph-name="Tcommaaccent" unicode="&#x162;" horiz-adv-x="724" 
d="M295 0v590h-258v120h650v-120h-258v-590h-134zM406 -322h-87q34 62 40 114h-66v127h145v-101q0 -68 -32 -140z" />
    <glyph glyph-name="tcommaaccent" unicode="&#x163;" horiz-adv-x="481" 
d="M138 162v235h-110v109h110v204h128v-204h168v-109h-168v-197q0 -46 18.5 -66t67.5 -20h82v-114h-126q-170 0 -170 162zM320 -322h-87q34 62 40 114h-66v127h145v-101q0 -68 -32 -140z" />
    <glyph glyph-name="Tcaron" unicode="&#x164;" horiz-adv-x="724" 
d="M169 932h124l69 -81l68 81h122l-133 -161h-116zM295 0v590h-258v120h650v-120h-258v-590h-134z" />
    <glyph glyph-name="tcaron" unicode="&#x165;" horiz-adv-x="481" 
d="M318 580l50 194h115l-57 -194h-108zM138 162v235h-110v109h110v204h128v-204h168v-109h-168v-197q0 -46 18.5 -66t67.5 -20h82v-114h-126q-170 0 -170 162z" />
    <glyph glyph-name="Tbar" unicode="&#x166;" horiz-adv-x="724" 
d="M295 0v311h-173v108h173v171h-258v120h650v-120h-258v-171h173v-108h-173v-311h-134z" />
    <glyph glyph-name="tbar" unicode="&#x167;" horiz-adv-x="503" 
d="M152 162v74h-110v86h110v79h-110v105h110v204h127v-204h168v-105h-168v-79h168v-86h-168v-40q0 -43 18 -62.5t63 -19.5h87v-114h-126q-169 0 -169 162z" />
    <glyph glyph-name="Utilde" unicode="&#x168;" horiz-adv-x="794" 
d="M399 807l-35 20q-22 12 -31 12q-16 0 -16 -22v-48h-93v77q0 45 21 70.5t63 25.5q15 0 32.5 -6t25.5 -10.5t31 -17.5l35 -19q24 -13 31 -13q16 0 16 23v48h93v-77q0 -45 -21 -70.5t-63 -25.5q-32 0 -89 33zM566 289v421h134v-431q0 -127 -79.5 -210t-222.5 -83
q-147 0 -225.5 82.5t-78.5 210.5v431h135v-421q0 -81 44 -129.5t125 -48.5q79 0 123.5 49t44.5 129z" />
    <glyph glyph-name="utilde" unicode="&#x169;" horiz-adv-x="613" 
d="M234 576h-90v83q0 44 21 69.5t61 25.5q24 0 41 -8.5t44 -27.5l26 -20q17 -14 28 -14q16 0 16 21v54h90v-82q0 -45 -21 -70.5t-61 -25.5q-34 0 -85 37l-26 20q-19 14 -28 14q-16 0 -16 -22v-54zM308 -11q-112 0 -171.5 59.5t-59.5 160.5v297h128v-290q0 -49 26.5 -78.5
t75.5 -29.5t76 29.5t27 78.5v290h126v-297q0 -97 -59.5 -158.5t-168.5 -61.5z" />
    <glyph glyph-name="Umacron" unicode="&#x16a;" horiz-adv-x="794" 
d="M565 801h-334v100h334v-100zM566 289v421h134v-431q0 -127 -79.5 -210t-222.5 -83q-147 0 -225.5 82.5t-78.5 210.5v431h135v-421q0 -81 44 -129.5t125 -48.5q79 0 123.5 49t44.5 129z" />
    <glyph glyph-name="umacron" unicode="&#x16b;" horiz-adv-x="613" 
d="M463 613h-310v101h310v-101zM308 -11q-112 0 -171.5 59.5t-59.5 160.5v297h128v-290q0 -49 26.5 -78.5t75.5 -29.5t76 29.5t27 78.5v290h126v-297q0 -97 -59.5 -158.5t-168.5 -61.5z" />
    <glyph glyph-name="Ubreve" unicode="&#x16c;" horiz-adv-x="794" 
d="M398 858q28 0 42.5 17.5t14.5 43.5v11h100v-13q0 -66 -40.5 -108.5t-116.5 -42.5t-116.5 42.5t-40.5 108.5v13h100v-11q0 -26 14.5 -43.5t42.5 -17.5zM566 289v421h134v-431q0 -127 -79.5 -210t-222.5 -83q-147 0 -225.5 82.5t-78.5 210.5v431h135v-421q0 -81 44 -129.5
t125 -48.5q79 0 123.5 49t44.5 129z" />
    <glyph glyph-name="ubreve" unicode="&#x16d;" horiz-adv-x="613" 
d="M307 666q26 0 39 17t13 43v16h100v-19q0 -65 -39 -107t-113 -42t-113 42t-39 107v19h100v-16q0 -25 13 -42.5t39 -17.5zM308 -11q-112 0 -171.5 59.5t-59.5 160.5v297h128v-290q0 -49 26.5 -78.5t75.5 -29.5t76 29.5t27 78.5v290h126v-297q0 -97 -59.5 -158.5
t-168.5 -61.5z" />
    <glyph glyph-name="Uring" unicode="&#x16e;" horiz-adv-x="794" 
d="M398 763q-58 0 -96 37.5t-38 93.5q0 57 38 95t96 38t96.5 -38t38.5 -95q0 -56 -38.5 -93.5t-96.5 -37.5zM398 834q26 0 42.5 17t16.5 43q0 27 -16.5 44t-42.5 17t-42.5 -17t-16.5 -44q0 -26 16.5 -43t42.5 -17zM566 289v421h134v-431q0 -127 -79.5 -210t-222.5 -83
q-147 0 -225.5 82.5t-78.5 210.5v431h135v-421q0 -81 44 -129.5t125 -48.5q79 0 123.5 49t44.5 129z" />
    <glyph glyph-name="uring" unicode="&#x16f;" horiz-adv-x="613" 
d="M307 569q-58 0 -96 37.5t-38 93.5q0 57 38 94.5t96 37.5t96 -37.5t38 -94.5q0 -56 -38 -93.5t-96 -37.5zM307 640q25 0 41.5 17t16.5 43t-16 43t-42 17t-42 -17t-16 -43t16.5 -43t41.5 -17zM308 -11q-112 0 -171.5 59.5t-59.5 160.5v297h128v-290q0 -49 26.5 -78.5
t75.5 -29.5t76 29.5t27 78.5v290h126v-297q0 -97 -59.5 -158.5t-168.5 -61.5z" />
    <glyph glyph-name="Uhungarumlaut" unicode="&#x170;" horiz-adv-x="794" 
d="M436 773l77 156h124l-84 -156h-117zM239 773l76 156h124l-82 -156h-118zM566 289v421h134v-431q0 -127 -79.5 -210t-222.5 -83q-147 0 -225.5 82.5t-78.5 210.5v431h135v-421q0 -81 44 -129.5t125 -48.5q79 0 123.5 49t44.5 129z" />
    <glyph glyph-name="uhungarumlaut" unicode="&#x171;" horiz-adv-x="613" 
d="M342 580l72 187h112l-77 -187h-107zM158 580l72 187h112l-77 -187h-107zM308 -11q-112 0 -171.5 59.5t-59.5 160.5v297h128v-290q0 -49 26.5 -78.5t75.5 -29.5t76 29.5t27 78.5v290h126v-297q0 -97 -59.5 -158.5t-168.5 -61.5z" />
    <glyph glyph-name="Uogonek" unicode="&#x172;" horiz-adv-x="794" 
d="M572 17q-49 -43 -67.5 -63.5t-18.5 -37.5q0 -27 34 -27h62v-96h-109q-58 0 -91.5 23t-33.5 67q0 55 82 105q-20 -2 -32 -2q-147 0 -225.5 82.5t-78.5 210.5v431h135v-421q0 -81 44 -129.5t125 -48.5q79 0 123.5 49t44.5 129v421h134v-431q0 -150 -128 -262z" />
    <glyph glyph-name="uogonek" unicode="&#x173;" horiz-adv-x="613" 
d="M449 14q-42 -42 -57 -61.5t-15 -36.5q0 -27 33 -27h63v-96h-108q-58 0 -91.5 22.5t-33.5 67.5q0 32 22.5 56.5t64.5 50.5q-6 -1 -19 -1q-112 0 -171.5 59.5t-59.5 160.5v297h128v-290q0 -49 26.5 -78.5t75.5 -29.5t76 29.5t27 78.5v290h126v-297q0 -104 -87 -195z" />
    <glyph glyph-name="Wcircumflex" unicode="&#x174;" horiz-adv-x="1038" 
d="M588 771l-67 81l-67 -81h-124l132 161h118l129 -161h-121zM586 713l150 -507l142 504h127l-206 -713h-124l-155 506l-155 -506h-117l-215 713h141l142 -498l149 501h121z" />
    <glyph glyph-name="wcircumflex" unicode="&#x175;" horiz-adv-x="828" 
d="M479 578l-62 102l-62 -102h-115l121 196h112l119 -196h-113zM523 -3l-107 344l-108 -344h-119l-171 509h137l103 -334l104 337h119l105 -336l101 333h122l-164 -509h-122z" />
    <glyph glyph-name="Ycircumflex" unicode="&#x176;" horiz-adv-x="704" 
d="M428 771l-67 81l-67 -81h-124l132 161h118l129 -161h-121zM287 287l-279 423h167l186 -288l185 288h150l-270 -424v-286h-139v287z" />
    <glyph glyph-name="ycircumflex" unicode="&#x177;" horiz-adv-x="556" 
d="M347 578l-62 102l-62 -102h-115l121 196h112l119 -196h-113zM139 -207l82 212l-206 501h142l128 -334l127 334h129l-274 -713h-128z" />
    <glyph glyph-name="Ydieresis" unicode="&#x178;" horiz-adv-x="704" 
d="M191 773v149h127v-149h-127zM404 773v149h127v-149h-127zM287 287l-279 423h167l186 -288l185 288h150l-270 -424v-286h-139v287z" />
    <glyph glyph-name="Zacute" unicode="&#x179;" horiz-adv-x="718" 
d="M278 773l103 156h143l-111 -156h-135zM51 0v77l389 514h-380v119h578v-77l-393 -514h432v-119h-626z" />
    <glyph glyph-name="zacute" unicode="&#x17a;" horiz-adv-x="569" 
d="M210 580l99 187h133l-106 -187h-126zM49 0v71l263 328h-259v107h448v-70l-268 -328h300v-108h-484z" />
    <glyph glyph-name="Zdotaccent" unicode="&#x17b;" horiz-adv-x="718" 
d="M281 773v152h132v-152h-132zM51 0v77l389 514h-380v119h578v-77l-393 -514h432v-119h-626z" />
    <glyph glyph-name="zdotaccent" unicode="&#x17c;" horiz-adv-x="569" 
d="M211 587v152h132v-152h-132zM49 0v71l263 328h-259v107h448v-70l-268 -328h300v-108h-484z" />
    <glyph glyph-name="Zcaron" unicode="&#x17d;" horiz-adv-x="718" 
d="M154 932h124l69 -81l68 81h122l-133 -161h-116zM51 0v77l389 514h-380v119h578v-77l-393 -514h432v-119h-626z" />
    <glyph glyph-name="zcaron" unicode="&#x17e;" horiz-adv-x="569" 
d="M337 776h113l-119 -196h-112l-121 196h115l62 -102zM49 0v71l263 328h-259v107h448v-70l-268 -328h300v-108h-484z" />
    <glyph glyph-name="uni018F" unicode="&#x18f;" horiz-adv-x="754" 
d="M367 599q-121 0 -168 -108l-118 41q25 81 97.5 135.5t189.5 54.5q145 0 234.5 -103t89.5 -264q0 -164 -87.5 -265.5t-231.5 -101.5q-138 0 -224.5 99.5t-86.5 260.5q0 22 3 52h489q-9 90 -57 144.5t-130 54.5zM373 106q77 0 122 49.5t57 136.5h-351q9 -83 54 -134.5
t118 -51.5z" />
    <glyph glyph-name="florin" unicode="&#x192;" horiz-adv-x="581" 
d="M35 328v108h155l17 116q13 82 54 120t131 38h172v-107h-140q-46 0 -65.5 -17.5t-26.5 -61.5l-13 -88h164v-108h-181l-81 -535h-128l80 535h-138z" />
    <glyph glyph-name="Aringacute" unicode="&#x1fa;" horiz-adv-x="755" 
d="M315 1063l95 144h138l-103 -144h-130zM374 763q-58 0 -96 37.5t-38 93.5q0 57 38 95t96 38t96.5 -38t38.5 -95q0 -56 -38.5 -93.5t-96.5 -37.5zM374 834q26 0 42.5 17t16.5 43q0 27 -16.5 44t-42.5 17t-42.5 -17t-16.5 -44q0 -26 16.5 -43t42.5 -17zM588 0l-57 146h-315
l-57 -146h-134l284 713h137l284 -713h-142zM262 262h223l-111 283z" />
    <glyph glyph-name="aringacute" unicode="&#x1fb;" horiz-adv-x="584" 
d="M222 869l88 154h130l-95 -154h-123zM281 569q-58 0 -96 37.5t-38 93.5q0 57 38 94.5t96 37.5t96 -37.5t38 -94.5q0 -56 -38 -93.5t-96 -37.5zM281 640q25 0 41.5 17t16.5 43t-16 43t-42 17t-42 -17t-16 -43t16.5 -43t41.5 -17zM510 146q0 -42 35 -46v-103h-40
q-90 0 -111 68q-47 -76 -151 -76q-87 0 -141.5 47t-54.5 124q0 74 50 114.5t140 40.5h150v2q0 45 -28.5 72.5t-77.5 27.5q-68 0 -101 -57l-116 33q6 16 18.5 34t36.5 40.5t66 37t94 14.5q113 0 172 -55.5t59 -149.5v-168zM273 84q47 0 80.5 25t33.5 65v53h-130
q-38 0 -60.5 -16.5t-22.5 -48.5q0 -36 26.5 -57t72.5 -21z" />
    <glyph glyph-name="AEacute" unicode="&#x1fc;" horiz-adv-x="1053" 
d="M623 773l103 156h143l-111 -156h-135zM-3 0l415 710h562v-116h-351v-162h280v-117h-280v-196h387v-119h-521v165h-250l-95 -165h-147zM305 279h184v318z" />
    <glyph glyph-name="aeacute" unicode="&#x1fd;" horiz-adv-x="907" 
d="M390 580l99 187h133l-106 -187h-126zM631 94q72 0 106 58l114 -31q-6 -19 -19.5 -39t-38.5 -43t-67 -37.5t-95 -14.5q-69 0 -121.5 29t-80.5 75q-53 -102 -180 -102q-91 0 -146.5 46.5t-55.5 124.5q0 74 50.5 114.5t141.5 40.5h144v2q0 45 -27.5 72.5t-75.5 27.5
q-70 0 -99 -57l-117 34q7 17 19 34.5t36 40t66 36.5t94 14q60 0 106 -22t70 -58q24 36 67 58t100 22q107 0 172 -72t65 -193v-24h-349q4 -61 35.5 -98.5t85.5 -37.5zM622 421q-46 0 -74 -28t-36 -78h218q-8 51 -36 78.5t-72 27.5zM270 84q47 0 80 26.5t33 70.5v47h-124
q-39 0 -62 -17t-23 -49q0 -35 26.5 -56.5t69.5 -21.5z" />
    <glyph glyph-name="Oslashacute" unicode="&#x1fe;" horiz-adv-x="783" 
d="M325 773l103 156h143l-111 -156h-135zM43 0l91 116q-72 97 -72 239q0 164 91.5 265.5t237.5 101.5q100 0 180 -53l32 41h137l-92 -116q72 -99 72 -239q0 -163 -91.5 -265t-237.5 -102q-102 0 -181 54l-33 -42h-134zM196 355q0 -76 22 -134l277 353q-41 28 -104 28
q-91 0 -143 -69.5t-52 -177.5zM391 108q92 0 144 69.5t52 177.5q0 77 -23 134l-278 -353q44 -28 105 -28z" />
    <glyph glyph-name="oslashacute" unicode="&#x1ff;" horiz-adv-x="599" 
d="M237 580l99 187h133l-106 -187h-126zM35 0l69 84q-53 71 -53 169q0 117 69.5 191.5t179.5 74.5q71 0 133 -38l20 25h111l-69 -84q53 -71 53 -169q0 -116 -69 -191t-179 -75q-74 0 -135 39l-21 -26h-109zM173 253q0 -44 10 -74l179 219q-26 14 -62 14q-59 0 -93 -45
t-34 -114zM426 253q0 44 -10 75l-180 -220q28 -14 64 -14q59 0 92.5 45.5t33.5 113.5z" />
    <glyph glyph-name="Scommaaccent" unicode="&#x218;" horiz-adv-x="707" 
d="M336 610q-64 0 -98.5 -23t-34.5 -63q0 -69 115 -86q17 -3 41 -6l40 -5q120 -16 184 -64.5t64 -152.5q0 -100 -75 -161.5t-207 -61.5q-59 0 -109.5 13t-83.5 31.5t-59.5 43.5t-40 45t-23.5 41l128 47q10 -15 14.5 -21.5t23 -26t36 -29.5t48.5 -19.5t66 -9.5q65 0 105.5 27
t40.5 72q0 44 -31 66t-90 30q-17 3 -41 6.5t-41 5.5q-117 17 -179 65.5t-62 143.5q0 94 74.5 149.5t194.5 55.5q69 0 123 -15t86.5 -40.5t50 -47.5t28.5 -47l-121 -43q-60 80 -167 80zM416 -322h-87q34 62 40 114h-66v127h145v-101q0 -68 -32 -140z" />
    <glyph glyph-name="scommaaccent" unicode="&#x219;" horiz-adv-x="550" 
d="M303 199q-15 0 -64 7q-85 9 -134.5 48t-49.5 111q0 71 57 113t151 42q54 0 96.5 -11.5t66.5 -30.5t37 -34.5t20 -32.5l-112 -34q-37 46 -107 46q-84 0 -84 -52q0 -45 72 -54q2 0 29 -3t31 -3q97 -9 143 -49t46 -113t-57 -118t-159 -45q-57 0 -102 13t-71.5 34t-41.5 39.5
t-23 38.5l116 35q34 -61 122 -61q42 0 65.5 16t23.5 41q0 49 -71 57zM327 -322h-87q34 62 40 114h-66v127h145v-101q0 -68 -32 -140z" />
    <glyph glyph-name="uni021A" unicode="&#x21a;" horiz-adv-x="724" 
d="M295 0v590h-258v120h650v-120h-258v-590h-134zM406 -322h-87q34 62 40 114h-66v127h145v-101q0 -68 -32 -140z" />
    <glyph glyph-name="uni021B" unicode="&#x21b;" horiz-adv-x="496" 
d="M138 162v235h-110v109h110v204h128v-204h168v-109h-168v-197q0 -46 18.5 -66t67.5 -20h82v-114h-126q-170 0 -170 162zM330 -322h-87q34 62 40 114h-66v127h145v-101q0 -68 -32 -140z" />
    <glyph glyph-name="dotlessj" unicode="&#x237;" horiz-adv-x="291" 
d="M210 -39q0 -86 -40 -127t-122 -41h-126v106h83q41 0 59 18.5t18 59.5v529h128v-545z" />
    <glyph glyph-name="uni0259" unicode="&#x259;" horiz-adv-x="582" 
d="M290 -12q-109 0 -174 72t-65 193v21h353q-3 62 -36 100.5t-88 38.5q-69 0 -108 -58l-113 31q6 19 19.5 39t38 43t67.5 37.5t96 14.5q114 0 182.5 -74.5t68.5 -191.5q0 -118 -66 -192t-175 -74zM290 86q46 0 75 27.5t37 76.5h-222q19 -104 110 -104z" />
    <glyph glyph-name="uni02BC" unicode="&#x2bc;" horiz-adv-x="311" 
d="M162 369l-75 27q60 100 63 185h-71v155h151v-138q0 -125 -68 -229z" />
    <glyph glyph-name="circumflex" unicode="&#x2c6;" 
d="M322 578l-62 102l-62 -102h-115l121 196h112l119 -196h-113z" />
    <glyph glyph-name="caron" unicode="&#x2c7;" 
d="M321 776h113l-119 -196h-112l-121 196h115l62 -102z" />
    <glyph glyph-name="breve" unicode="&#x2d8;" 
d="M300 666q26 0 39 17t13 43v16h100v-19q0 -65 -39 -107t-113 -42t-113 42t-39 107v19h100v-16q0 -25 13 -42.5t39 -17.5z" />
    <glyph glyph-name="dotaccent" unicode="&#x2d9;" 
d="M234 587v152h132v-152h-132z" />
    <glyph glyph-name="ring" unicode="&#x2da;" 
d="M300 569q-58 0 -96 37.5t-38 93.5q0 57 38 94.5t96 37.5t96 -37.5t38 -94.5q0 -56 -38 -93.5t-96 -37.5zM300 640q25 0 41.5 17t16.5 43t-16 43t-42 17t-42 -17t-16 -43t16.5 -43t41.5 -17z" />
    <glyph glyph-name="ogonek" unicode="&#x2db;" 
d="M206 -116q0 23 15 46.5t27 34t43 35.5h128q-60 -51 -69 -68q-6 -9 -6 -17q0 -26 33 -26h62v-96h-108q-58 0 -91.5 23t-33.5 68z" />
    <glyph glyph-name="tilde" unicode="&#x2dc;" 
d="M227 576h-90v83q0 44 21 69.5t61 25.5q24 0 41 -8.5t44 -27.5l26 -20q18 -14 28 -14q16 0 16 21v54h90v-82q0 -45 -21 -70.5t-61 -25.5q-34 0 -85 37l-26 20q-19 14 -28 14q-16 0 -16 -22v-54z" />
    <glyph glyph-name="hungarumlaut" unicode="&#x2dd;" 
d="M299 580l72 187h112l-77 -187h-107zM115 580l72 187h112l-77 -187h-107z" />
    <glyph glyph-name="uni0401" unicode="&#x401;" horiz-adv-x="708" 
d="M199 773v149h127v-149h-127zM412 773v149h127v-149h-127zM98 0v710h531v-116h-397v-162h326v-117h-326v-196h433v-119h-567z" />
    <glyph glyph-name="uni0402" unicode="&#x402;" horiz-adv-x="922" 
d="M283 0v590h-246v120h650v-120h-270v-181q72 21 148 21q133 0 205 -65t72 -191q0 -105 -63 -179t-165 -74q-54 0 -107 21l51 113q30 -10 53 -10q48 0 72.5 37t24.5 91q0 140 -149 140q-33 0 -68.5 -5.5t-54.5 -11.5l-19 -5v-291h-134z" />
    <glyph glyph-name="uni0403" unicode="&#x403;" horiz-adv-x="688" 
d="M292 773l103 156h143l-111 -156h-135zM98 0v710h554v-120h-420v-590h-134z" />
    <glyph glyph-name="uni0404" unicode="&#x404;" horiz-adv-x="723" 
d="M381 -12q-144 0 -231.5 102.5t-87.5 264.5q0 161 88 264t231 103q57 0 105 -14t78 -34.5t53 -48t33.5 -49t16.5 -42.5l-125 -43q-47 108 -161 108q-72 0 -117 -51t-58 -134h231v-114h-231q12 -85 57.5 -137t117.5 -52q108 0 164 108l120 -41q-6 -19 -16 -39t-32.5 -48.5
t-52 -50t-78 -37t-105.5 -15.5z" />
    <glyph glyph-name="uni0405" unicode="&#x405;" horiz-adv-x="708" 
d="M336 610q-64 0 -98.5 -23t-34.5 -63q0 -69 115 -86q17 -3 41 -6l40 -5q120 -16 184 -64.5t64 -152.5q0 -100 -75 -161.5t-207 -61.5q-59 0 -109.5 13t-83.5 31.5t-59.5 43.5t-40 45t-23.5 41l128 47q10 -15 14.5 -21.5t23 -26t36 -29.5t48.5 -19.5t66 -9.5q65 0 105.5 27
t40.5 72q0 44 -31 66t-90 30q-17 3 -41 6.5t-41 5.5q-117 17 -179 65.5t-62 143.5q0 94 74.5 149.5t194.5 55.5q69 0 123 -15t86.5 -40.5t50 -47.5t28.5 -47l-121 -43q-60 80 -167 80z" />
    <glyph glyph-name="uni0406" unicode="&#x406;" horiz-adv-x="333" 
d="M99 0v710h135v-710h-135z" />
    <glyph glyph-name="uni0407" unicode="&#x407;" horiz-adv-x="332" 
d="M-4 773v149h127v-149h-127zM209 773v149h127v-149h-127zM99 0v710h135v-710h-135z" />
    <glyph glyph-name="uni0408" unicode="&#x408;" horiz-adv-x="649" 
d="M551 220q0 -110 -65 -171.5t-177 -61.5q-111 0 -173 61t-62 172v103h130v-96q0 -54 27.5 -85.5t77.5 -31.5q52 0 79.5 31.5t27.5 85.5v483h135v-490z" />
    <glyph glyph-name="uni0409" unicode="&#x409;" horiz-adv-x="1174" 
d="M291 293q-15 -159 -64 -229.5t-163 -70.5h-10l-17 133h13q58 0 82 39t34 140l36 405h482v-247h179q124 0 191.5 -61.5t67.5 -171.5q0 -111 -67 -170.5t-192 -59.5h-313v590h-233zM855 343h-171v-223h171q129 0 129 111q0 52 -33 82t-96 30z" />
    <glyph glyph-name="uni040A" unicode="&#x40a;" horiz-adv-x="1184" 
d="M98 0v710h134v-267h330v267h134v-267h179q123 0 190 -59t67 -163q0 -107 -66.5 -164t-190.5 -57h-313v322h-330v-322h-134zM867 323h-171v-203h171q127 0 127 102q0 46 -32.5 73.5t-94.5 27.5z" />
    <glyph glyph-name="uni040B" unicode="&#x40b;" horiz-adv-x="922" 
d="M283 0v590h-246v120h650v-120h-270v-181q75 21 157 21q134 0 201 -64.5t67 -205.5v-160h-134v158q0 83 -36.5 119t-112.5 36q-33 0 -68.5 -5.5t-54.5 -11.5l-19 -5v-291h-134z" />
    <glyph glyph-name="uni040C" unicode="&#x40c;" horiz-adv-x="739" 
d="M282 773l103 156h143l-111 -156h-135zM98 0v710h134v-315l311 315h172l-341 -344l359 -366h-181l-320 322v-322h-134z" />
    <glyph glyph-name="uni040E" unicode="&#x40e;" horiz-adv-x="718" 
d="M384 858q28 0 42.5 17.5t14.5 43.5v11l100 -12v-3q0 -66 -40.5 -107.5t-116.5 -41.5t-116.5 41.5t-40.5 107.5v4l100 11v-11q0 -26 14 -43.5t43 -17.5zM63 155v11l128 23v-30q0 -50 43 -50q23 0 37.5 15t34.5 55l8 16l-294 515h158l206 -372l184 372h142l-280 -558
q-44 -86 -86.5 -125t-116.5 -39q-79 0 -121.5 44t-42.5 123z" />
    <glyph glyph-name="uni040F" unicode="&#x40f;" horiz-adv-x="799" 
d="M98 710h134v-590h334v590h135v-710h-241v-161h-121v161h-241v710z" />
    <glyph glyph-name="uni0410" unicode="&#x410;" horiz-adv-x="755" 
d="M588 0l-57 146h-315l-57 -146h-134l284 713h137l284 -713h-142zM262 262h223l-111 283z" />
    <glyph glyph-name="uni0411" unicode="&#x411;" horiz-adv-x="730" 
d="M412 432q124 0 191 -57t67 -158q0 -105 -66.5 -161t-191.5 -56h-314v710h514v-120h-380v-158h180zM405 318h-173v-198h173q127 0 127 98q0 46 -32.5 73t-94.5 27z" />
    <glyph glyph-name="uni0412" unicode="&#x412;" horiz-adv-x="758" 
d="M98 0v710h363q105 0 162 -51t57 -139q0 -55 -32.5 -94t-78.5 -53q55 -15 91.5 -59t36.5 -111q0 -95 -64 -149t-185 -54h-350zM444 596h-214v-174h215q46 0 71.5 22.5t25.5 64.5q0 87 -98 87zM431 309h-201v-195h201q128 0 128 98q0 97 -128 97z" />
    <glyph glyph-name="uni0413" unicode="&#x413;" horiz-adv-x="688" 
d="M98 0v710h554v-120h-420v-590h-134z" />
    <glyph glyph-name="uni0414" unicode="&#x414;" horiz-adv-x="795" 
d="M172 710h502v-590h106v-281h-121v161h-532v-161h-120v281h78q40 63 54 224zM539 120v470h-252l-22 -253q-13 -152 -45 -217h319z" />
    <glyph glyph-name="uni0415" unicode="&#x415;" horiz-adv-x="708" 
d="M98 0v710h531v-116h-397v-162h326v-117h-326v-196h433v-119h-567z" />
    <glyph glyph-name="uni0416" unicode="&#x416;" horiz-adv-x="1072" 
d="M6 0l330 363l-318 347h168l283 -314v314h131v-314l283 314h165l-314 -344l332 -366h-174l-292 321v-321h-131v321l-293 -321h-170z" />
    <glyph glyph-name="uni0417" unicode="&#x417;" horiz-adv-x="715" 
d="M360 722q129 0 201.5 -53.5t72.5 -140.5q0 -60 -32 -100.5t-78 -54.5q55 -14 91 -56.5t36 -105.5q0 -104 -74.5 -163.5t-209.5 -59.5q-131 0 -207.5 54.5t-102.5 135.5l120 41q17 -45 63 -77.5t125 -32.5q71 0 110 28t39 80q0 92 -126 92h-99v113h99q109 0 109 89
q0 90 -138 90q-75 0 -118.5 -32t-61.5 -78l-119 41q26 82 103.5 136t196.5 54z" />
    <glyph glyph-name="uni0418" unicode="&#x418;" horiz-adv-x="819" 
d="M98 0v710h134v-515l354 515h135v-710h-135v515l-354 -515h-134z" />
    <glyph glyph-name="uni0419" unicode="&#x419;" horiz-adv-x="819" 
d="M410 858q28 0 42.5 17.5t14.5 43.5v11l100 -12v-3q0 -66 -40.5 -107.5t-116.5 -41.5t-116.5 41.5t-40.5 107.5v4l100 11v-11q0 -26 14 -43.5t43 -17.5zM98 0v710h134v-515l354 515h135v-710h-135v515l-354 -515h-134z" />
    <glyph glyph-name="uni041A" unicode="&#x41a;" horiz-adv-x="739" 
d="M98 0v710h134v-315l311 315h172l-341 -344l359 -366h-181l-320 322v-322h-134z" />
    <glyph glyph-name="uni041B" unicode="&#x41b;" horiz-adv-x="799" 
d="M291 293q-15 -159 -64 -229.5t-163 -70.5h-10l-17 133h13q58 0 82 39t34 140l36 405h499v-710h-135v590h-249z" />
    <glyph glyph-name="uni041C" unicode="&#x41c;" horiz-adv-x="958" 
d="M98 0v710h203l181 -501l182 501h196v-710h-130v575l-209 -578h-91l-208 573v-570h-124z" />
    <glyph glyph-name="uni041D" unicode="&#x41d;" horiz-adv-x="809" 
d="M98 0v710h134v-293h344v293h135v-710h-135v297h-344v-297h-134z" />
    <glyph glyph-name="uni041E" unicode="&#x41e;" horiz-adv-x="783" 
d="M391 -12q-147 0 -238 101.5t-91 265.5t91.5 265.5t237.5 101.5t237.5 -101.5t91.5 -265.5q0 -163 -91.5 -265t-237.5 -102zM391 110q90 0 141 69t51 176t-51 176t-141 69t-140.5 -69t-50.5 -176q0 -108 50.5 -176.5t140.5 -68.5z" />
    <glyph glyph-name="uni041F" unicode="&#x41f;" horiz-adv-x="799" 
d="M98 0v710h603v-710h-135v590h-334v-590h-134z" />
    <glyph glyph-name="uni0420" unicode="&#x420;" horiz-adv-x="735" 
d="M98 0v710h339q118 0 181.5 -55t63.5 -159q0 -101 -64 -158.5t-181 -57.5h-205v-280h-134zM429 590h-197v-190h197q57 0 86 25.5t29 69.5q0 95 -115 95z" />
    <glyph glyph-name="uni0421" unicode="&#x421;" horiz-adv-x="723" 
d="M381 -12q-144 0 -231.5 102.5t-87.5 264.5q0 161 88 264t231 103q57 0 105 -14t78 -34.5t53 -48t33.5 -49t16.5 -42.5l-125 -43q-47 108 -161 108q-85 0 -132 -69.5t-47 -174.5t47 -174.5t132 -69.5q108 0 164 108l120 -41q-6 -19 -16 -39t-32.5 -48.5t-52 -50t-78 -37
t-105.5 -15.5z" />
    <glyph glyph-name="uni0422" unicode="&#x422;" horiz-adv-x="724" 
d="M295 0v590h-258v120h650v-120h-258v-590h-134z" />
    <glyph glyph-name="uni0423" unicode="&#x423;" horiz-adv-x="718" 
d="M63 155v11l128 23v-30q0 -50 43 -50q23 0 37.5 15t34.5 55l8 16l-294 515h158l206 -372l184 372h142l-280 -558q-44 -86 -86.5 -125t-116.5 -39q-79 0 -121.5 44t-42.5 123z" />
    <glyph glyph-name="uni0424" unicode="&#x424;" horiz-adv-x="1040" 
d="M327 119q-133 0 -204 65t-71 181q0 117 70.5 179.5t203.5 62.5h127v113h134v-113h126q134 0 204 -62.5t70 -179.5q0 -116 -70.5 -181t-203.5 -65h-126v-129h-134v129h-126zM453 239v249h-120q-142 0 -142 -125q0 -57 36.5 -90.5t105.5 -33.5h120zM706 488h-119v-249h119
q70 0 106.5 33.5t36.5 90.5q0 125 -143 125z" />
    <glyph glyph-name="uni0425" unicode="&#x425;" horiz-adv-x="789" 
d="M182 0h-160l289 367l-269 343h175l181 -233l183 233h161l-265 -336l290 -374h-168l-208 265z" />
    <glyph glyph-name="uni0426" unicode="&#x426;" horiz-adv-x="822" 
d="M566 120v590h135v-590h106v-281h-121v161h-588v710h134v-590h334z" />
    <glyph glyph-name="uni0427" unicode="&#x427;" horiz-adv-x="770" 
d="M538 0v277q-86 -21 -180 -21q-139 0 -208.5 64t-69.5 206v184h134v-182q0 -83 37.5 -118.5t116.5 -35.5q40 0 82.5 5t65.5 11l22 5v315h135v-710h-135z" />
    <glyph glyph-name="uni0428" unicode="&#x428;" horiz-adv-x="1094" 
d="M98 710h134v-590h248v590h134v-590h248v590h134v-710h-898v710z" />
    <glyph glyph-name="uni0429" unicode="&#x429;" horiz-adv-x="1118" 
d="M98 710h134v-590h248v590h134v-590h248v590h134v-590h107v-281h-121v161h-884v710z" />
    <glyph glyph-name="uni042A" unicode="&#x42a;" horiz-adv-x="845" 
d="M36 590v120h319v-247h179q124 0 191.5 -61.5t67.5 -171.5q0 -111 -67 -170.5t-192 -59.5h-313v590h-185zM526 343h-171v-223h171q129 0 129 111q0 52 -33 82t-96 30z" />
    <glyph glyph-name="uni042B" unicode="&#x42b;" horiz-adv-x="989" 
d="M411 463q124 0 191.5 -61.5t67.5 -171.5q0 -111 -67 -170.5t-192 -59.5h-313v710h134v-247h179zM757 0v710h135v-710h-135zM403 343h-171v-223h171q129 0 129 111q0 52 -33 82t-96 30z" />
    <glyph glyph-name="uni042C" unicode="&#x42c;" horiz-adv-x="722" 
d="M411 463q124 0 191.5 -61.5t67.5 -171.5q0 -111 -67 -170.5t-192 -59.5h-313v710h134v-247h179zM403 343h-171v-223h171q129 0 129 111q0 52 -33 82t-96 30z" />
    <glyph glyph-name="uni042D" unicode="&#x42d;" horiz-adv-x="723" 
d="M342 -12q-57 0 -105.5 15.5t-78 37t-52 50t-32.5 48.5t-16 39l120 41q56 -108 164 -108q72 0 117.5 52t57.5 137h-231v114h231q4 -25 4 -59q0 -31 -4 -55h48v114h-48q-13 83 -58 134t-117 51q-114 0 -161 -108l-125 43q6 21 16.5 42.5t33.5 49t53 48t78 34.5t105 14
q143 0 231 -103t88 -264q0 -162 -87.5 -264.5t-231.5 -102.5z" />
    <glyph glyph-name="uni042E" unicode="&#x42e;" horiz-adv-x="1030" 
d="M98 0v710h134v-293h98q17 138 103 221.5t214 83.5q142 0 231.5 -101.5t89.5 -265.5q0 -163 -89.5 -265t-231.5 -102q-130 0 -216 84t-102 225h-97v-297h-134zM647 110q86 0 134.5 69t48.5 176t-48.5 176t-134.5 69t-134.5 -69t-48.5 -176q0 -108 48.5 -176.5t134.5 -68.5
z" />
    <glyph glyph-name="uni042F" unicode="&#x42f;" horiz-adv-x="769" 
d="M198 0h-145l176 296q-68 20 -105 70.5t-37 125.5q0 106 63.5 162t181.5 56h339v-710h-134v275h-175zM341 392h196v199h-196q-116 0 -116 -99q0 -100 116 -100z" />
    <glyph glyph-name="uni0430" unicode="&#x430;" horiz-adv-x="602" 
d="M510 146q0 -42 35 -46v-103h-40q-90 0 -111 68q-47 -76 -151 -76q-87 0 -141.5 47t-54.5 124q0 74 50 114.5t140 40.5h150v2q0 45 -28.5 72.5t-77.5 27.5q-68 0 -101 -57l-116 33q6 16 18.5 34t36.5 40.5t66 37t94 14.5q113 0 172 -55.5t59 -149.5v-168zM273 84
q47 0 80.5 25t33.5 65v53h-130q-38 0 -60.5 -16.5t-22.5 -48.5q0 -36 26.5 -57t72.5 -21z" />
    <glyph glyph-name="uni0431" unicode="&#x431;" horiz-adv-x="607" 
d="M60 269q0 62 5 132q12 136 75 207t208 99q117 22 162 39l17 -109q-42 -19 -174 -44q-91 -18 -129.5 -56.5t-48.5 -123.5q49 79 156 79q102 0 163.5 -68.5t61.5 -182.5q0 -112 -69 -183t-179 -71q-115 0 -181.5 75t-66.5 207zM308 99q57 0 88 39.5t31 101.5
q0 61 -31.5 100.5t-87.5 39.5t-87.5 -39.5t-31.5 -100.5q0 -62 31 -101.5t88 -39.5z" />
    <glyph glyph-name="uni0432" unicode="&#x432;" horiz-adv-x="587" 
d="M81 0v506h270q78 0 125 -35t47 -99q0 -43 -22.5 -71.5t-53.5 -38.5q39 -11 65 -40.5t26 -75.5q0 -67 -50 -106.5t-136 -39.5h-271zM328 409h-120v-106h120q69 0 69 55q0 51 -69 51zM333 210h-125v-113h125q75 0 75 56q0 57 -75 57z" />
    <glyph glyph-name="uni0433" unicode="&#x433;" horiz-adv-x="472" 
d="M81 0v506h356v-109h-229v-397h-127z" />
    <glyph glyph-name="uni0434" unicode="&#x434;" horiz-adv-x="615" 
d="M120 -149h-114v258h57q40 60 54 222l16 175h382v-397h88v-258h-113v149h-370v-149zM388 109v288h-149l-7 -73q-16 -164 -45 -215h201z" />
    <glyph glyph-name="uni0435" unicode="&#x435;" horiz-adv-x="579" 
d="M292 519q109 0 174 -72t65 -193v-21h-353q3 -62 36 -100.5t88 -38.5q69 0 108 58l113 -31q-6 -19 -19.5 -39t-38 -43t-67.5 -37.5t-96 -14.5q-114 0 -182.5 74.5t-68.5 191.5q0 118 66 192t175 74zM292 421q-46 0 -75 -27.5t-37 -76.5h222q-19 104 -110 104z" />
    <glyph glyph-name="uni0436" unicode="&#x436;" horiz-adv-x="830" 
d="M351 0v225l-195 -225h-158l229 262l-213 244h155l182 -213v213h126v-213l181 213h154l-211 -243l231 -263h-161l-194 225v-225h-126z" />
    <glyph glyph-name="uni0437" unicode="&#x437;" horiz-adv-x="553" 
d="M279 91q98 0 98 61q0 26 -18.5 41.5t-55.5 15.5h-80v95h76q31 0 49.5 14t18.5 40q0 56 -85 56q-84 0 -116 -73l-111 36q20 58 77 100t151 42q100 0 155.5 -40t55.5 -109q0 -42 -22.5 -70t-54.5 -38q38 -11 64 -40.5t26 -75.5q0 -73 -61.5 -116t-166.5 -43
q-56 0 -100.5 14.5t-70.5 38.5t-40 46.5t-22 45.5l111 36q32 -77 122 -77z" />
    <glyph glyph-name="uni0438" unicode="&#x438;" horiz-adv-x="632" 
d="M81 0v506h125v-329l219 329h126v-506h-126v331l-219 -331h-125z" />
    <glyph glyph-name="uni0439" unicode="&#x439;" horiz-adv-x="632" 
d="M316 666q26 0 39 17t13 43v16l100 -10v-9q0 -65 -39 -107t-113 -42t-113 42t-39 107v9l100 10v-16q0 -25 13 -42.5t39 -17.5zM81 0v506h125v-329l219 329h126v-506h-126v331l-219 -331h-125z" />
    <glyph glyph-name="uni043A" unicode="&#x43a;" horiz-adv-x="583" 
d="M81 0v506h126v-214l201 214h158l-229 -241l249 -265h-165l-214 226v-226h-126z" />
    <glyph glyph-name="uni043B" unicode="&#x43b;" horiz-adv-x="605" 
d="M121 230l27 276h376v-506h-127v397h-144l-17 -180q-11 -118 -49 -171.5t-125 -53.5h-16l-18 116h12q44 0 59 24.5t22 97.5z" />
    <glyph glyph-name="uni043C" unicode="&#x43c;" horiz-adv-x="782" 
d="M81 0v506h191l122 -318l121 318h186v-506h-124v389l-147 -391h-85l-146 386v-384h-118z" />
    <glyph glyph-name="uni043D" unicode="&#x43d;" horiz-adv-x="622" 
d="M81 0v506h127v-193h206v193h127v-506h-127v204h-206v-204h-127z" />
    <glyph glyph-name="uni043E" unicode="&#x43e;" horiz-adv-x="599" 
d="M299 519q111 0 180 -74t69 -192q0 -117 -69.5 -191.5t-179.5 -74.5t-179 74.5t-69 191.5q0 118 69 192t179 74zM299 99q57 0 88 43t31 111t-31 111t-88 43t-88 -43t-31 -111q0 -67 31.5 -110.5t87.5 -43.5z" />
    <glyph glyph-name="uni043F" unicode="&#x43f;" horiz-adv-x="613" 
d="M81 0v506h452v-506h-128v397h-197v-397h-127z" />
    <glyph glyph-name="uni0440" unicode="&#x440;" horiz-adv-x="626" 
d="M207 74v-281h-126v713h126v-78q8 16 22 33.5t50 37t80 19.5q93 0 153.5 -71t60.5 -194t-60.5 -193.5t-153.5 -70.5q-103 0 -152 85zM205 253q0 -68 32 -110.5t87 -42.5t87 42.5t32 110.5t-32 110.5t-87 42.5t-87 -42.5t-32 -110.5z" />
    <glyph glyph-name="uni0441" unicode="&#x441;" horiz-adv-x="553" 
d="M390 341q-31 66 -99 66q-50 0 -80 -43.5t-30 -110.5t30.5 -110.5t80.5 -43.5q68 0 101 69l112 -36q-4 -17 -16 -37.5t-35.5 -46.5t-67 -43.5t-97.5 -17.5q-103 0 -170.5 74.5t-67.5 191.5t67 191.5t170 74.5q53 0 94.5 -14.5t65.5 -38.5t37 -45t20 -43z" />
    <glyph glyph-name="uni0442" unicode="&#x442;" horiz-adv-x="530" 
d="M201 0v397h-166v109h460v-109h-166v-397h-128z" />
    <glyph glyph-name="uni0443" unicode="&#x443;" horiz-adv-x="556" 
d="M139 -207l82 212l-206 501h142l128 -334l127 334h129l-274 -713h-128z" />
    <glyph glyph-name="uni0444" unicode="&#x444;" horiz-adv-x="767" 
d="M319 -207v195q-120 7 -194 80.5t-74 184.5q0 112 74 184.5t194 80.5v218h128v-218q121 -6 195 -79t74 -186q0 -112 -74.5 -185.5t-194.5 -79.5v-195h-128zM587 253q0 62 -36.5 104.5t-103.5 48.5v-306q67 6 103.5 48.5t36.5 104.5zM180 253q0 -62 36 -104t103 -49v306
q-67 -7 -103 -49t-36 -104z" />
    <glyph glyph-name="uni0445" unicode="&#x445;" horiz-adv-x="582" 
d="M160 0h-146l201 251l-201 255h164l119 -154l123 154h148l-199 -247l200 -259h-156l-125 159z" />
    <glyph glyph-name="uni0446" unicode="&#x446;" horiz-adv-x="632" 
d="M405 109v397h128v-397h88v-258h-114v149h-426v506h127v-397h197z" />
    <glyph glyph-name="uni0447" unicode="&#x447;" horiz-adv-x="596" 
d="M388 0v179q-45 -11 -109 -11q-106 0 -158.5 47.5t-52.5 155.5v135h127v-128q0 -54 21.5 -78t77.5 -24q25 0 48.5 2.5t34.5 5.5l11 2v220h127v-506h-127z" />
    <glyph glyph-name="uni0448" unicode="&#x448;" horiz-adv-x="875" 
d="M81 506h127v-397h166v397h127v-397h166v397h128v-506h-714v506z" />
    <glyph glyph-name="uni0449" unicode="&#x449;" horiz-adv-x="894" 
d="M81 506h127v-397h166v397h127v-397h166v397h128v-397h88v-258h-114v149h-688v506z" />
    <glyph glyph-name="uni044A" unicode="&#x44a;" horiz-adv-x="647" 
d="M33 506h267v-157h115q102 0 152 -47.5t50 -125.5q0 -75 -50.5 -125.5t-150.5 -50.5h-243v397h-140v109zM396 245h-96v-142h96q90 0 90 73q0 33 -23.5 51t-66.5 18z" />
    <glyph glyph-name="uni044B" unicode="&#x44b;" horiz-adv-x="801" 
d="M323 349q102 0 152 -47.5t50 -125.5q0 -75 -50.5 -125.5t-150.5 -50.5h-243v506h127v-157h115zM592 0v506h128v-506h-128zM304 245h-96v-142h96q90 0 90 73q0 33 -23.5 51t-66.5 18z" />
    <glyph glyph-name="uni044C" unicode="&#x44c;" horiz-adv-x="555" 
d="M323 349q102 0 152 -47.5t50 -125.5q0 -75 -50.5 -125.5t-150.5 -50.5h-243v506h127v-157h115zM304 245h-96v-142h96q90 0 90 73q0 33 -23.5 51t-66.5 18z" />
    <glyph glyph-name="uni044D" unicode="&#x44d;" horiz-adv-x="551" 
d="M159 341l-113 37q6 22 19 43t37 45t66 38.5t95 14.5q102 0 169.5 -74.5t67.5 -191.5t-68 -191.5t-171 -74.5q-54 0 -97 17.5t-66.5 43.5t-35.5 47t-16 37l109 35q33 -75 104 -75q43 0 72 31.5t37 81.5h-153v102h152q-8 48 -37 77.5t-70 29.5q-69 0 -101 -73z" />
    <glyph glyph-name="uni044E" unicode="&#x44e;" horiz-adv-x="826" 
d="M81 0v506h127v-193h80q17 93 82 149.5t159 56.5q109 0 177.5 -74.5t68.5 -191.5t-68.5 -191.5t-177.5 -74.5q-97 0 -162.5 59.5t-79.5 157.5h-79v-204h-127zM529 99q56 0 86.5 43.5t30.5 110.5q0 68 -30.5 111t-86.5 43q-55 0 -86 -43t-31 -111q0 -67 30.5 -110.5
t86.5 -43.5z" />
    <glyph glyph-name="uni044F" unicode="&#x44f;" horiz-adv-x="590" 
d="M509 0h-127v172h-87l-111 -172h-142l126 192q-109 31 -109 145q0 73 47 121t140 48h263v-506zM266 275h116v128h-116q-77 0 -77 -66q0 -29 20 -45.5t57 -16.5z" />
    <glyph glyph-name="uni0451" unicode="&#x451;" horiz-adv-x="579" 
d="M126 587v149h126v-149h-126zM332 587v149h126v-149h-126zM292 519q109 0 174 -72t65 -193v-21h-353q3 -62 36 -100.5t88 -38.5q69 0 108 58l113 -31q-6 -19 -19.5 -39t-38 -43t-67.5 -37.5t-96 -14.5q-114 0 -182.5 74.5t-68.5 191.5q0 118 66 192t175 74zM292 421
q-46 0 -75 -27.5t-37 -76.5h222q-19 104 -110 104z" />
    <glyph glyph-name="uni0452" unicode="&#x452;" horiz-adv-x="624" 
d="M81 0v572h-81v91h81v73h127v-73h170v-91h-170v-139q17 32 55 58t93 26q87 0 139 -57t52 -154v-345q0 -86 -40 -127t-122 -41h-135v106h91q41 0 59.5 19t18.5 59v306q0 58 -27.5 89t-76.5 31q-50 0 -78.5 -31.5t-28.5 -88.5v-283h-127z" />
    <glyph glyph-name="uni0453" unicode="&#x453;" horiz-adv-x="472" 
d="M197 580l99 187h133l-106 -187h-126zM81 0v506h356v-109h-229v-397h-127z" />
    <glyph glyph-name="uni0454" unicode="&#x454;" horiz-adv-x="551" 
d="M392 341q-35 73 -101 73q-41 0 -69.5 -30t-37.5 -77h152v-102h-153q7 -49 36.5 -81t72.5 -32q71 0 104 75l109 -35q-4 -17 -16 -37.5t-35.5 -46.5t-67 -43.5t-97.5 -17.5q-103 0 -170.5 74.5t-67.5 191.5t67 191.5t170 74.5q53 0 94.5 -14.5t65.5 -38.5t37 -45t20 -43z
" />
    <glyph glyph-name="uni0455" unicode="&#x455;" horiz-adv-x="550" 
d="M303 199q-15 0 -64 7q-85 9 -134.5 48t-49.5 111q0 71 57 113t151 42q54 0 96.5 -11.5t66.5 -30.5t37 -34.5t20 -32.5l-112 -34q-37 46 -107 46q-84 0 -84 -52q0 -45 72 -54q2 0 29 -3t31 -3q97 -9 143 -49t46 -113t-57 -118t-159 -45q-57 0 -102 13t-71.5 34t-41.5 39.5
t-23 38.5l116 35q34 -61 122 -61q42 0 65.5 16t23.5 41q0 49 -71 57z" />
    <glyph glyph-name="uni0456" unicode="&#x456;" horiz-adv-x="290" 
d="M79 587v152h133v-152h-133zM81 0v506h128v-506h-128z" />
    <glyph glyph-name="uni0457" unicode="&#x457;" horiz-adv-x="290" 
d="M17 587v152h106v-152h-106zM167 587v152h106v-152h-106zM81 0v506h128v-506h-128z" />
    <glyph glyph-name="uni0458" unicode="&#x458;" horiz-adv-x="292" 
d="M81 587v152h133v-152h-133zM211 -39q0 -86 -40 -127t-122 -41h-126v106h83q41 0 59 18.5t18 59.5v529h128v-545z" />
    <glyph glyph-name="uni0459" unicode="&#x459;" horiz-adv-x="851" 
d="M121 230l27 276h360v-157h111q103 0 152.5 -47.5t49.5 -125.5q0 -75 -50 -125.5t-151 -50.5h-240v397h-127l-17 -180q-11 -118 -49 -171.5t-125 -53.5h-16l-18 116h12q44 0 59 24.5t22 97.5zM600 245h-92v-142h92q90 0 90 73q0 33 -23 51t-67 18z" />
    <glyph glyph-name="uni045A" unicode="&#x45a;" horiz-adv-x="884" 
d="M81 0v506h127v-166h206v166h127v-166h119q98 0 146 -46t48 -121q0 -73 -48.5 -123t-144.5 -50h-247v231h-206v-231h-127zM641 237h-100v-134h100q83 0 83 70q0 30 -22 47t-61 17z" />
    <glyph glyph-name="uni045B" unicode="&#x45b;" horiz-adv-x="624" 
d="M81 0v572h-81v91h81v73h127v-73h170v-91h-170v-141q17 33 55 59.5t93 26.5q87 0 139 -58t52 -156v-303h-128v279q0 59 -27.5 91.5t-76.5 32.5q-50 0 -78.5 -32.5t-28.5 -91.5v-279h-127z" />
    <glyph glyph-name="uni045C" unicode="&#x45c;" horiz-adv-x="583" 
d="M236 580l99 187h133l-106 -187h-126zM81 0v506h126v-214l201 214h158l-229 -241l249 -265h-165l-214 226v-226h-126z" />
    <glyph glyph-name="uni045E" unicode="&#x45e;" horiz-adv-x="556" 
d="M284 669q26 0 39 17t13 43v16l100 -10v-9q0 -65 -39 -107t-113 -42t-113 42t-39 107v9l100 10v-16q0 -25 13 -42.5t39 -17.5zM139 -207l82 212l-206 501h142l128 -334l127 334h129l-274 -713h-128z" />
    <glyph glyph-name="uni045F" unicode="&#x45f;" horiz-adv-x="613" 
d="M250 -149v149h-169v506h127v-397h197v397h128v-506h-169v-149h-114z" />
    <glyph glyph-name="uni0490" unicode="&#x490;" horiz-adv-x="688" 
d="M98 0v710h433v165h121v-285h-420v-590h-134z" />
    <glyph glyph-name="uni0491" unicode="&#x491;" horiz-adv-x="472" 
d="M81 0v506h242v149h114v-258h-229v-397h-127z" />
    <glyph glyph-name="uni0492" unicode="&#x492;" horiz-adv-x="705" 
d="M115 0v297h-102v115h102v298h554v-120h-420v-178h230v-115h-230v-297h-134z" />
    <glyph glyph-name="uni0493" unicode="&#x493;" horiz-adv-x="478" 
d="M88 0v182h-72v104h72v220h356v-109h-229v-111h137v-104h-137v-182h-127z" />
    <glyph glyph-name="uni0496" unicode="&#x496;" horiz-adv-x="1074" 
d="M6 0l330 363l-318 347h168l283 -314v314h131v-314l283 314h165l-314 -344l223 -246h109v-281h-120v161h-54l-292 321v-321h-131v321l-293 -321h-170z" />
    <glyph glyph-name="uni0497" unicode="&#x497;" horiz-adv-x="833" 
d="M351 0v225l-195 -225h-158l227 259l-214 247h158l182 -213v213h126v-213l181 213h157l-212 -244l134 -153h114v-258h-114v149h-66l-194 225v-225h-126z" />
    <glyph glyph-name="uni0498" unicode="&#x498;" horiz-adv-x="715" 
d="M360 722q129 0 201.5 -53.5t72.5 -140.5q0 -60 -32 -100.5t-78 -54.5q55 -14 91 -56.5t36 -105.5q0 -90 -56 -147t-160 -72v-153h-120v152q-107 10 -171 62.5t-87 124.5l120 41q17 -45 63 -77.5t125 -32.5q71 0 110 28t39 80q0 92 -126 92h-99v113h99q109 0 109 89
q0 90 -138 90q-75 0 -118.5 -32t-61.5 -78l-119 41q26 82 103.5 136t196.5 54z" />
    <glyph glyph-name="uni0499" unicode="&#x499;" horiz-adv-x="553" 
d="M228 -149v139q-81 12 -124 53.5t-58 88.5l111 36q32 -77 122 -77q98 0 98 61q0 26 -18.5 41.5t-55.5 15.5h-80v95h76q31 0 49.5 14t18.5 40q0 56 -85 56q-84 0 -116 -73l-111 36q20 58 77 100t151 42q100 0 155.5 -40t55.5 -109q0 -42 -22.5 -70t-54.5 -38
q38 -11 64 -40.5t26 -75.5q0 -61 -44 -101.5t-121 -52.5v-141h-114z" />
    <glyph glyph-name="uni049A" unicode="&#x49a;" horiz-adv-x="739" 
d="M98 0v710h134v-315l311 315h172l-341 -344l241 -246h131v-281h-120v161h-74l-320 322v-322h-134z" />
    <glyph glyph-name="uni049B" unicode="&#x49b;" horiz-adv-x="584" 
d="M81 0v506h126v-214l201 214h160l-230 -242l146 -155h121v-258h-114v149h-70l-214 226v-226h-126z" />
    <glyph glyph-name="uni049C" unicode="&#x49c;" horiz-adv-x="801" 
d="M98 0v710h134v-710h-134zM407 157h-110v395h110v-151l223 309h145l-249 -339l269 -371h-156l-232 316v-159z" />
    <glyph glyph-name="uni049D" unicode="&#x49d;" horiz-adv-x="648" 
d="M337 98h-93v322h93v-119l151 205h141l-183 -240l204 -266h-149l-164 218v-120zM81 0v506h126v-506h-126z" />
    <glyph glyph-name="uni04A0" unicode="&#x4a0;" horiz-adv-x="968" 
d="M327 0v590h-291v120h425v-315l311 315h172l-341 -344l359 -366h-181l-320 322v-322h-134z" />
    <glyph glyph-name="uni04A1" unicode="&#x4a1;" horiz-adv-x="707" 
d="M205 0v397h-170v109h296v-214l201 214h158l-229 -241l249 -265h-165l-214 226v-226h-126z" />
    <glyph glyph-name="uni04A2" unicode="&#x4a2;" horiz-adv-x="832" 
d="M98 0v710h134v-293h344v293h135v-590h106v-281h-121v161h-120v297h-344v-297h-134z" />
    <glyph glyph-name="uni04A3" unicode="&#x4a3;" horiz-adv-x="641" 
d="M81 0v506h127v-193h206v193h127v-397h88v-258h-114v149h-101v204h-206v-204h-127z" />
    <glyph glyph-name="uni04AA" unicode="&#x4aa;" horiz-adv-x="723" 
d="M665 178q-5 -16 -13 -33.5t-25.5 -42t-40 -44.5t-58 -38t-77.5 -26v-155h-121v153q-123 18 -195.5 117t-72.5 246q0 161 88 264t231 103q57 0 105 -14t78 -34.5t53 -48t33.5 -49t16.5 -42.5l-125 -43q-47 108 -161 108q-85 0 -132 -69.5t-47 -174.5t47 -174.5t132 -69.5
q108 0 164 108z" />
    <glyph glyph-name="uni04AB" unicode="&#x4ab;" horiz-adv-x="551" 
d="M238 -149v141q-84 18 -135.5 89t-51.5 172q0 117 67 191.5t170 74.5q53 0 94.5 -14.5t65.5 -38.5t37 -45t20 -43l-115 -37q-31 66 -99 66q-50 0 -80 -43.5t-30 -110.5t30.5 -110.5t80.5 -43.5q68 0 101 69l112 -36q-5 -20 -18 -43.5t-49.5 -53.5t-85.5 -41v-143h-114z
" />
    <glyph glyph-name="uni04AE" unicode="&#x4ae;" horiz-adv-x="704" 
d="M287 287l-279 423h167l186 -288l185 288h150l-270 -424v-286h-139v287z" />
    <glyph glyph-name="uni04AF" unicode="&#x4af;" horiz-adv-x="554" 
d="M218 -207v206l-203 507h143l126 -344l125 344h130l-194 -507v-206h-127z" />
    <glyph glyph-name="uni04B0" unicode="&#x4b0;" horiz-adv-x="704" 
d="M96 173v115h190l-278 422h167l186 -288l185 288h150l-269 -422h183v-115h-184v-173h-139v173h-191z" />
    <glyph glyph-name="uni04B1" unicode="&#x4b1;" horiz-adv-x="554" 
d="M86 0h132l-203 506h143l126 -344l125 344h130l-194 -506h132v-97h-132v-110h-127v110h-132v97z" />
    <glyph glyph-name="uni04B2" unicode="&#x4b2;" horiz-adv-x="789" 
d="M182 0h-160l289 367l-269 343h175l181 -233l183 233h161l-265 -336l197 -254h115v-281h-120v161h-70l-208 265z" />
    <glyph glyph-name="uni04B3" unicode="&#x4b3;" horiz-adv-x="582" 
d="M160 0h-146l201 251l-201 255h164l119 -154l123 154h148l-199 -247l116 -150h110v-258h-114v149h-68l-125 159z" />
    <glyph glyph-name="uni04B6" unicode="&#x4b6;" horiz-adv-x="794" 
d="M538 0v277q-86 -21 -180 -21q-139 0 -208.5 64t-69.5 206v184h134v-182q0 -83 37.5 -118.5t116.5 -35.5q40 0 82.5 5t65.5 11l22 5v315h135v-590h106v-281h-121v161h-120z" />
    <glyph glyph-name="uni04B7" unicode="&#x4b7;" horiz-adv-x="615" 
d="M388 286v220h127v-397h88v-258h-114v149h-101v179q-45 -11 -109 -11q-106 0 -158.5 47.5t-52.5 155.5v135h127v-128q0 -54 21.5 -78t77.5 -24q25 0 48.5 2.5t34.5 5.5z" />
    <glyph glyph-name="uni04B8" unicode="&#x4b8;" horiz-adv-x="777" 
d="M438 126h-109v131q-125 6 -187 70t-62 197v186h134v-187q0 -72 27.5 -107.5t87.5 -40.5v157h109v-157q24 2 51 6.5t41 8.5l15 3v317h134v-710h-134v276q-46 -10 -107 -16v-134z" />
    <glyph glyph-name="uni04B9" unicode="&#x4b9;" horiz-adv-x="622" 
d="M355 68h-94v101q-97 7 -145 54.5t-48 147.5v135h127v-132q0 -44 15 -67t51 -29v112h94v-113l60 9v220h127v-506h-127v179q-23 -5 -60 -8v-103z" />
    <glyph glyph-name="uni04BA" unicode="&#x4ba;" horiz-adv-x="770" 
d="M232 710v-277q86 21 180 21q139 0 208.5 -64t69.5 -206v-184h-134v182q0 83 -37.5 118.5t-116.5 35.5q-40 0 -82.5 -5t-65.5 -11l-22 -5v-315h-135v710h135z" />
    <glyph glyph-name="uni04BB" unicode="&#x4bb;" horiz-adv-x="624" 
d="M81 0v736h127v-305q17 33 55 59.5t93 26.5q87 0 139 -58t52 -156v-303h-128v279q0 59 -27.5 91.5t-76.5 32.5q-50 0 -78.5 -32.5t-28.5 -91.5v-279h-127z" />
    <glyph glyph-name="uni04C0" unicode="&#x4c0;" horiz-adv-x="333" 
d="M99 0v710h135v-710h-135z" />
    <glyph glyph-name="uni04C1" unicode="&#x4c1;" horiz-adv-x="1072" 
d="M534 858q28 0 42.5 17.5t14.5 43.5v11l100 -12v-3q0 -66 -40.5 -107.5t-116.5 -41.5t-116.5 41.5t-40.5 107.5v4l100 11v-11q0 -26 14 -43.5t43 -17.5zM6 0l330 363l-318 347h168l283 -314v314h131v-314l283 314h165l-314 -344l332 -366h-174l-292 321v-321h-131v321
l-293 -321h-170z" />
    <glyph glyph-name="uni04C2" unicode="&#x4c2;" horiz-adv-x="830" 
d="M415 666q26 0 39 17t13 43v16l100 -10v-9q0 -65 -39 -107t-113 -42t-113 42t-39 107v9l100 10v-16q0 -25 13 -42.5t39 -17.5zM351 0v225l-195 -225h-158l229 262l-213 244h155l182 -213v213h126v-213l181 213h154l-211 -243l231 -263h-161l-194 225v-225h-126z" />
    <glyph glyph-name="uni04CF" unicode="&#x4cf;" horiz-adv-x="257" 
d="M83 0v736h128v-736h-128z" />
    <glyph glyph-name="uni04D0" unicode="&#x4d0;" horiz-adv-x="755" 
d="M373 858q28 0 42.5 17.5t14.5 43.5v11l100 -12v-3q0 -66 -40.5 -107.5t-116.5 -41.5t-116.5 41.5t-40.5 107.5v4l100 11v-11q0 -26 14 -43.5t43 -17.5zM588 0l-57 146h-315l-57 -146h-134l284 713h137l284 -713h-142zM262 262h223l-111 283z" />
    <glyph glyph-name="uni04D1" unicode="&#x4d1;" horiz-adv-x="602" 
d="M290 666q26 0 39 17t13 43v16l100 -10v-9q0 -65 -39 -107t-113 -42t-113 42t-39 107v9l100 10v-16q0 -25 13 -42.5t39 -17.5zM510 146q0 -42 35 -46v-103h-40q-90 0 -111 68q-47 -76 -151 -76q-87 0 -141.5 47t-54.5 124q0 74 50 114.5t140 40.5h150v2q0 45 -28.5 72.5
t-77.5 27.5q-68 0 -101 -57l-116 33q6 16 18.5 34t36.5 40.5t66 37t94 14.5q113 0 172 -55.5t59 -149.5v-168zM273 84q47 0 80.5 25t33.5 65v53h-130q-38 0 -60.5 -16.5t-22.5 -48.5q0 -36 26.5 -57t72.5 -21z" />
    <glyph glyph-name="uni04D6" unicode="&#x4d6;" horiz-adv-x="708" 
d="M370 858q28 0 42.5 17.5t14.5 43.5v11l100 -12v-3q0 -66 -40.5 -107.5t-116.5 -41.5t-116.5 41.5t-40.5 107.5v4l100 11v-11q0 -26 14 -43.5t43 -17.5zM98 0v710h531v-116h-397v-162h326v-117h-326v-196h433v-119h-567z" />
    <glyph glyph-name="uni04D7" unicode="&#x4d7;" horiz-adv-x="579" 
d="M292 666q26 0 39 17t13 43v16l100 -10v-9q0 -65 -39 -107t-113 -42t-113 42t-39 107v9l100 10v-16q0 -25 13 -42.5t39 -17.5zM292 519q109 0 174 -72t65 -193v-21h-353q3 -62 36 -100.5t88 -38.5q69 0 108 58l113 -31q-6 -19 -19.5 -39t-38 -43t-67.5 -37.5t-96 -14.5
q-114 0 -182.5 74.5t-68.5 191.5q0 118 66 192t175 74zM292 421q-46 0 -75 -27.5t-37 -76.5h222q-19 104 -110 104z" />
    <glyph glyph-name="uni04D8" unicode="&#x4d8;" horiz-adv-x="754" 
d="M367 599q-121 0 -168 -108l-118 41q25 81 97.5 135.5t189.5 54.5q145 0 234.5 -103t89.5 -264q0 -164 -87.5 -265.5t-231.5 -101.5q-138 0 -224.5 99.5t-86.5 260.5q0 22 3 52h489q-9 90 -57 144.5t-130 54.5zM373 106q77 0 122 49.5t57 136.5h-351q9 -83 54 -134.5
t118 -51.5z" />
    <glyph glyph-name="uni04D9" unicode="&#x4d9;" horiz-adv-x="582" 
d="M290 -12q-109 0 -174 72t-65 193v21h353q-3 62 -36 100.5t-88 38.5q-69 0 -108 -58l-113 31q6 19 19.5 39t38 43t67.5 37.5t96 14.5q114 0 182.5 -74.5t68.5 -191.5q0 -118 -66 -192t-175 -74zM290 86q46 0 75 27.5t37 76.5h-222q19 -104 110 -104z" />
    <glyph glyph-name="uni04E2" unicode="&#x4e2;" horiz-adv-x="819" 
d="M577 801h-334v100h334v-100zM98 0v710h134v-515l354 515h135v-710h-135v515l-354 -515h-134z" />
    <glyph glyph-name="uni04E3" unicode="&#x4e3;" horiz-adv-x="632" 
d="M471 613h-310v101h310v-101zM81 0v506h125v-329l219 329h126v-506h-126v331l-219 -331h-125z" />
    <glyph glyph-name="uni04E6" unicode="&#x4e6;" horiz-adv-x="783" 
d="M221 773v149h127v-149h-127zM434 773v149h127v-149h-127zM391 -12q-147 0 -238 101.5t-91 265.5t91.5 265.5t237.5 101.5t237.5 -101.5t91.5 -265.5q0 -163 -91.5 -265t-237.5 -102zM391 110q90 0 141 69t51 176t-51 176t-141 69t-140.5 -69t-50.5 -176
q0 -108 50.5 -176.5t140.5 -68.5z" />
    <glyph glyph-name="uni04E7" unicode="&#x4e7;" horiz-adv-x="599" 
d="M133 587v149h126v-149h-126zM339 587v149h126v-149h-126zM299 519q111 0 180 -74t69 -192q0 -117 -69.5 -191.5t-179.5 -74.5t-179 74.5t-69 191.5q0 118 69 192t179 74zM299 99q57 0 88 43t31 111t-31 111t-88 43t-88 -43t-31 -111q0 -67 31.5 -110.5t87.5 -43.5z" />
    <glyph glyph-name="uni04E8" unicode="&#x4e8;" horiz-adv-x="783" 
d="M391 -12q-147 0 -238 101.5t-91 265.5t91.5 265.5t237.5 101.5t237.5 -101.5t91.5 -265.5q0 -163 -91.5 -265t-237.5 -102zM391 604q-77 0 -127.5 -52t-63.5 -138h382q-12 85 -62.5 137.5t-128.5 52.5zM391 106q79 0 129 53t62 141h-382q12 -88 62 -141t129 -53z" />
    <glyph glyph-name="uni04E9" unicode="&#x4e9;" horiz-adv-x="599" 
d="M299 519q111 0 180 -74.5t69 -191.5t-69.5 -191.5t-179.5 -74.5t-179 74.5t-69 191.5t69 191.5t179 74.5zM299 411q-49 0 -80 -29t-39 -79h239q-8 49 -39.5 78.5t-80.5 29.5zM299 96q51 0 82 30.5t39 82.5h-241q8 -53 38.5 -83t81.5 -30z" />
    <glyph glyph-name="uni04EE" unicode="&#x4ee;" horiz-adv-x="718" 
d="M550 801h-334v100h334v-100zM63 155v11l128 23v-30q0 -50 43 -50q23 0 37.5 15t34.5 55l8 16l-294 515h158l206 -372l184 372h142l-280 -558q-44 -86 -86.5 -125t-116.5 -39q-79 0 -121.5 44t-42.5 123z" />
    <glyph glyph-name="uni04EF" unicode="&#x4ef;" horiz-adv-x="556" 
d="M439 610h-310v101h310v-101zM139 -207l82 212l-206 501h142l128 -334l127 334h129l-274 -713h-128z" />
    <glyph glyph-name="uni04F2" unicode="&#x4f2;" horiz-adv-x="718" 
d="M413 773l77 156h124l-84 -156h-117zM216 773l76 156h124l-82 -156h-118zM63 155v11l128 23v-30q0 -50 43 -50q23 0 37.5 15t34.5 55l8 16l-294 515h158l206 -372l184 372h142l-280 -558q-44 -86 -86.5 -125t-116.5 -39q-79 0 -121.5 44t-42.5 123z" />
    <glyph glyph-name="uni04F3" unicode="&#x4f3;" horiz-adv-x="556" 
d="M321 580l72 187h112l-77 -187h-107zM137 580l72 187h112l-77 -187h-107zM139 -207l82 212l-206 501h142l128 -334l127 334h129l-274 -713h-128z" />
    <glyph glyph-name="Wgrave" unicode="&#x1e80;" horiz-adv-x="1038" 
d="M589 773h-135l-110 156h143zM586 713l150 -507l142 504h127l-206 -713h-124l-155 506l-155 -506h-117l-215 713h141l142 -498l149 501h121z" />
    <glyph glyph-name="wgrave" unicode="&#x1e81;" horiz-adv-x="828" 
d="M480 580h-126l-106 187h133zM523 -3l-107 344l-108 -344h-119l-171 509h137l103 -334l104 337h119l105 -336l101 333h122l-164 -509h-122z" />
    <glyph glyph-name="Wacute" unicode="&#x1e82;" horiz-adv-x="1038" 
d="M458 773l103 156h143l-111 -156h-135zM586 713l150 -507l142 504h127l-206 -713h-124l-155 506l-155 -506h-117l-215 713h141l142 -498l149 501h121z" />
    <glyph glyph-name="wacute" unicode="&#x1e83;" horiz-adv-x="828" 
d="M355 580l99 187h133l-106 -187h-126zM523 -3l-107 344l-108 -344h-119l-171 509h137l103 -334l104 337h119l105 -336l101 333h122l-164 -509h-122z" />
    <glyph glyph-name="Wdieresis" unicode="&#x1e84;" horiz-adv-x="1038" 
d="M351 773v149h127v-149h-127zM564 773v149h127v-149h-127zM586 713l150 -507l142 504h127l-206 -713h-124l-155 506l-155 -506h-117l-215 713h141l142 -498l149 501h121z" />
    <glyph glyph-name="wdieresis" unicode="&#x1e85;" horiz-adv-x="828" 
d="M251 587v149h126v-149h-126zM457 587v149h126v-149h-126zM523 -3l-107 344l-108 -344h-119l-171 509h137l103 -334l104 337h119l105 -336l101 333h122l-164 -509h-122z" />
    <glyph glyph-name="Ygrave" unicode="&#x1ef2;" horiz-adv-x="704" 
d="M437 773h-135l-110 156h143zM287 287l-279 423h167l186 -288l185 288h150l-270 -424v-286h-139v287z" />
    <glyph glyph-name="ygrave" unicode="&#x1ef3;" horiz-adv-x="556" 
d="M352 580h-126l-106 187h133zM139 -207l82 212l-206 501h142l128 -334l127 334h129l-274 -713h-128z" />
    <glyph glyph-name="thinspace" unicode="&#x2009;" horiz-adv-x="166" 
 />
    <glyph glyph-name="hairspace" unicode="&#x200a;" horiz-adv-x="83" 
 />
    <glyph glyph-name="endash" unicode="&#x2013;" horiz-adv-x="708" 
d="M80 251v93h548v-93h-548z" />
    <glyph glyph-name="emdash" unicode="&#x2014;" horiz-adv-x="1013" 
d="M80 251v93h853v-93h-853z" />
    <glyph glyph-name="quoteleft" unicode="&#x2018;" horiz-adv-x="311" 
d="M149 748l74 -26q-59 -103 -63 -186h72v-155h-151v138q0 130 68 229z" />
    <glyph glyph-name="quoteright" unicode="&#x2019;" horiz-adv-x="311" 
d="M162 369l-75 27q60 100 63 185h-71v155h151v-138q0 -125 -68 -229z" />
    <glyph glyph-name="quotesinglbase" unicode="&#x201a;" horiz-adv-x="310" 
d="M162 -212l-75 27q60 100 63 185h-71v155h151v-138q0 -125 -68 -229z" />
    <glyph glyph-name="quotedblleft" unicode="&#x201c;" horiz-adv-x="540" 
d="M379 748l75 -26q-59 -103 -63 -186h70v-155h-150v138q0 127 68 229zM149 748l74 -26q-59 -103 -63 -186h70v-155h-149v138q0 130 68 229z" />
    <glyph glyph-name="quotedblright" unicode="&#x201d;" horiz-adv-x="540" 
d="M161 369l-75 27q59 101 63 185h-70v155h150v-138q0 -125 -68 -229zM391 369l-74 27q59 101 63 185h-70v155h149v-138q0 -128 -68 -229z" />
    <glyph glyph-name="quotedblbase" unicode="&#x201e;" horiz-adv-x="539" 
d="M161 -212l-75 27q59 101 63 185h-70v155h150v-138q0 -125 -68 -229zM391 -212l-74 27q59 101 63 185h-70v155h149v-138q0 -128 -68 -229z" />
    <glyph glyph-name="dagger" unicode="&#x2020;" horiz-adv-x="522" 
d="M200 0v422h-154v115h154v173h123v-173h153v-115h-153v-422h-123z" />
    <glyph glyph-name="daggerdbl" unicode="&#x2021;" horiz-adv-x="519" 
d="M48 169v111h150v151h-150v111h150v168h123v-168h150v-111h-150v-151h150v-111h-150v-169h-123v169h-150z" />
    <glyph glyph-name="bullet" unicode="&#x2022;" 
d="M300 526q88 0 149 -61.5t61 -148.5q0 -88 -61 -149t-149 -61t-149 61t-61 149q0 87 61 148.5t149 61.5z" />
    <glyph glyph-name="ellipsis" unicode="&#x2026;" horiz-adv-x="849" 
d="M80 0v170h153v-170h-153zM348 0v170h153v-170h-153zM616 0v170h153v-170h-153z" />
    <glyph glyph-name="perthousand" unicode="&#x2030;" horiz-adv-x="1440" 
d="M245 348q-80 0 -134 54t-54 133t54 133t134 54t134 -54t54 -133t-54 -133t-134 -54zM186 0l512 710h119l-512 -710h-119zM245 443q39 0 63.5 26.5t24.5 65.5t-24.5 65t-63.5 26q-38 0 -62.5 -26t-24.5 -65q0 -40 24 -66t63 -26zM758 -14q-80 0 -134 54t-54 133t54 133
t134 54t134 -54t54 -133t-54 -133t-134 -54zM1194 -14q-80 0 -134 54t-54 133t54 133t134 54t134 -54t54 -133t-54 -133t-134 -54zM758 82q39 0 63.5 26t24.5 65t-24.5 65.5t-63.5 26.5q-38 0 -62.5 -26.5t-24.5 -65.5t24.5 -65t62.5 -26zM1194 82q39 0 63.5 26t24.5 65
t-24.5 65.5t-63.5 26.5q-38 0 -62.5 -26.5t-24.5 -65.5t24.5 -65t62.5 -26z" />
    <glyph glyph-name="minute" unicode="&#x2032;" horiz-adv-x="301" 
d="M160 403h-117l97 307h117z" />
    <glyph glyph-name="second" unicode="&#x2033;" horiz-adv-x="505" 
d="M157 403h-114l97 307h114zM362 403h-113l98 307h115z" />
    <glyph glyph-name="guilsinglleft" unicode="&#x2039;" horiz-adv-x="353" 
d="M169 473h121l-111 -183l111 -185h-122l-108 184z" />
    <glyph glyph-name="guilsinglright" unicode="&#x203a;" horiz-adv-x="353" 
d="M184 105h-121l111 183l-111 185h122l108 -184z" />
    <glyph glyph-name="fraction" unicode="&#x2044;" horiz-adv-x="562" 
d="M0 0l448 710h114l-449 -710h-113z" />
    <glyph glyph-name="won" unicode="&#x20a9;" horiz-adv-x="1054" 
d="M55 304v102h117l-81 304h136l71 -309h98l68 312h136l69 -312h98l70 309h125l-75 -304h111v-102h-136l-77 -307h-135l-70 311h-95l-69 -311h-136l-81 307h-144zM501 401h61l-31 149zM318 308l31 -148l28 148h-59zM688 308l29 -153l31 153h-60z" />
    <glyph glyph-name="Euro" unicode="&#x20ac;" horiz-adv-x="687" 
d="M43 227v94h97v75h-97v94h97q2 108 66 170t175 62q109 0 173 -58t71 -153l-126 -15q-2 18 -8 34.5t-18.5 35.5t-36 30t-55.5 11q-55 0 -86.5 -33.5t-31.5 -83.5h159v-94h-159v-75h159v-94h-159q1 -57 32.5 -90t86.5 -33q106 0 119 116l122 -15q-6 -99 -68.5 -157.5
t-173.5 -58.5q-112 0 -176.5 63t-64.5 175h-97z" />
    <glyph glyph-name="uni20B4" unicode="&#x20b4;" horiz-adv-x="627" 
d="M45 388v93h357q12 18 12 45q0 38 -27 60.5t-72 22.5q-46 0 -72 -22t-27 -59v-1l-123 16q5 81 61 127.5t161 46.5q100 0 163.5 -52t63.5 -137q0 -26 -7 -47h47v-93h-537zM81 190q0 27 8 49h-44v94h537v-94h-359q-12 -19 -12 -46q0 -42 28.5 -67t79.5 -25t81 24.5t30 68.5
v2l126 -19q-4 -83 -66 -134.5t-171 -51.5q-110 0 -174 56t-64 143z" />
    <glyph glyph-name="uni20B8" unicode="&#x20b8;" horiz-adv-x="636" 
d="M37 616v94h562v-94h-562zM251 0v422h-214v119h562v-119h-214v-422h-134z" />
    <glyph glyph-name="uni20BD" unicode="&#x20bd;" horiz-adv-x="750" 
d="M30 126v94h131v75h-131v93h131v322h291q119 0 182.5 -54t63.5 -154q0 -97 -64 -152t-182 -55h-157v-75h246v-94h-246v-126h-134v126h-131zM445 590h-150v-196h150q56 0 85.5 27.5t29.5 73.5q0 95 -115 95z" />
    <glyph glyph-name="uni2116" unicode="&#x2116;" horiz-adv-x="1161" 
d="M944 319q-80 0 -127.5 55t-47.5 146q0 92 47.5 147t127.5 55q79 0 126.5 -55t47.5 -147q0 -91 -47.5 -146t-126.5 -55zM714 710v-714h-106l-380 533v-529h-130v710h155l333 -477v477h128zM944 409q33 0 52 29.5t19 81.5t-19 82t-52 30q-34 0 -53 -30t-19 -82t19 -81.5
t53 -29.5zM786 157v118h317v-118h-317z" />
    <glyph glyph-name="trademark" unicode="&#x2122;" horiz-adv-x="1026" 
d="M161 311v306h-132v93h373v-93h-133v-306h-108zM471 311v399h153l91 -249l92 249h147v-399h-97v304l-110 -306h-73l-109 308v-306h-94z" />
    <glyph glyph-name="onethird" unicode="&#x2153;" horiz-adv-x="985" 
d="M259 275h-111v319l-109 -59v98l137 79h83v-437zM166 0l448 710h114l-449 -710h-113zM757 84q32 0 49.5 13t17.5 36q0 45 -54 45h-50v90h44q47 0 47 40q0 22 -15.5 34t-42.5 12q-47 0 -59 -43l-106 25q8 38 48 72t117 34q80 0 124 -33t44 -92q0 -33 -17 -54.5t-40 -30.5
q72 -24 72 -106q0 -61 -47.5 -97t-131.5 -36q-81 0 -123 35.5t-53 76.5l107 24q15 -45 69 -45z" />
    <glyph glyph-name="twothirds" unicode="&#x2154;" horiz-adv-x="1106" 
d="M403 367v-92h-349v70l163 146q50 45 50 80q0 23 -14.5 37.5t-40.5 14.5q-31 0 -44.5 -18.5t-13.5 -44.5l-105 13q3 62 45.5 103t117.5 41q78 0 122 -38.5t44 -102.5q0 -46 -23 -79.5t-73 -75.5l-62 -54h183zM287 0l448 710h114l-449 -710h-113zM877 84q32 0 49.5 13
t17.5 36q0 45 -54 45h-50v90h44q47 0 47 40q0 22 -15.5 34t-42.5 12q-47 0 -59 -43l-106 25q8 38 48 72t117 34q80 0 124 -33t44 -92q0 -33 -17 -54.5t-40 -30.5q72 -24 72 -106q0 -61 -47.5 -97t-131.5 -36q-81 0 -123 35.5t-53 76.5l107 24q15 -45 69 -45z" />
    <glyph glyph-name="oneeighth" unicode="&#x215b;" horiz-adv-x="1002" 
d="M259 275h-111v319l-109 -59v98l137 79h83v-437zM166 0l448 710h114l-449 -710h-113zM781 442q77 0 120 -33t43 -88q0 -40 -20.5 -64.5t-46.5 -33.5q29 -9 51.5 -35.5t22.5 -69.5q0 -57 -45.5 -91t-124.5 -34h-19q-79 0 -124 34t-45 91q0 43 22.5 69.5t51.5 35.5
q-26 9 -46.5 33.5t-20.5 64.5q0 55 43 88t120 33h18zM710 311q0 -23 16 -36.5t42 -13.5h8q26 0 42 13.5t16 36.5q0 24 -16 37t-42 13h-8q-26 0 -42 -13t-16 -37zM705 128q0 -25 17.5 -39.5t43.5 -14.5h12q27 0 44 14.5t17 39.5t-17 39.5t-44 14.5h-12q-26 0 -43.5 -14.5
t-17.5 -39.5z" />
    <glyph glyph-name="threeeighths" unicode="&#x215c;" horiz-adv-x="1100" 
d="M220 359q32 0 49.5 13t17.5 36q0 45 -54 45h-56v90h50q47 0 47 40q0 22 -15.5 34t-42.5 12q-47 0 -59 -43l-106 25q8 38 48 72t117 34q80 0 124 -33t44 -92q0 -33 -17 -54.5t-40 -30.5q72 -24 72 -106q0 -61 -47.5 -97t-131.5 -36q-81 0 -123 35.5t-53 76.5l107 24
q15 -45 69 -45zM264 0l448 710h114l-449 -710h-113zM879 442q77 0 120 -33t43 -88q0 -40 -20.5 -64.5t-46.5 -33.5q29 -9 51.5 -35.5t22.5 -69.5q0 -57 -45.5 -91t-124.5 -34h-19q-79 0 -124 34t-45 91q0 43 22.5 69.5t51.5 35.5q-26 9 -46.5 33.5t-20.5 64.5q0 55 43 88
t120 33h18zM808 311q0 -23 16 -36.5t42 -13.5h8q26 0 42 13.5t16 36.5q0 24 -16 37t-42 13h-8q-26 0 -42 -13t-16 -37zM803 128q0 -25 17.5 -39.5t43.5 -14.5h12q27 0 44 14.5t17 39.5t-17 39.5t-44 14.5h-12q-26 0 -43.5 -14.5t-17.5 -39.5z" />
    <glyph glyph-name="fiveeighths" unicode="&#x215d;" horiz-adv-x="1096" 
d="M167 457h-98v253h316v-86h-213v-84q30 32 85 32q63 0 104 -39.5t41 -106.5v-2q0 -69 -47.5 -112.5t-129.5 -43.5q-83 0 -124.5 35.5t-50.5 78.5l107 27q3 -10 8.5 -19.5t21.5 -20t38 -10.5q29 0 47.5 18t18.5 46v2q0 29 -18 46.5t-48 17.5q-40 0 -58 -32zM260 0l448 710
h114l-449 -710h-113zM875 442q77 0 120 -33t43 -88q0 -40 -20.5 -64.5t-46.5 -33.5q29 -9 51.5 -35.5t22.5 -69.5q0 -57 -45.5 -91t-124.5 -34h-19q-79 0 -124 34t-45 91q0 43 22.5 69.5t51.5 35.5q-26 9 -46.5 33.5t-20.5 64.5q0 55 43 88t120 33h18zM804 311
q0 -23 16 -36.5t42 -13.5h8q26 0 42 13.5t16 36.5q0 24 -16 37t-42 13h-8q-26 0 -42 -13t-16 -37zM799 128q0 -25 17.5 -39.5t43.5 -14.5h12q27 0 44 14.5t17 39.5t-17 39.5t-44 14.5h-12q-26 0 -43.5 -14.5t-17.5 -39.5z" />
    <glyph glyph-name="seveneighths" unicode="&#x215e;" horiz-adv-x="1011" 
d="M190 275h-123l187 342h-212v93h344v-67zM176 0l448 710h114l-449 -710h-113zM790 442q77 0 120 -33t43 -88q0 -40 -20.5 -64.5t-46.5 -33.5q29 -9 51.5 -35.5t22.5 -69.5q0 -57 -45.5 -91t-124.5 -34h-19q-79 0 -124 34t-45 91q0 43 22.5 69.5t51.5 35.5
q-26 9 -46.5 33.5t-20.5 64.5q0 55 43 88t120 33h18zM719 311q0 -23 16 -36.5t42 -13.5h8q26 0 42 13.5t16 36.5q0 24 -16 37t-42 13h-8q-26 0 -42 -13t-16 -37zM714 128q0 -25 17.5 -39.5t43.5 -14.5h12q27 0 44 14.5t17 39.5t-17 39.5t-44 14.5h-12q-26 0 -43.5 -14.5
t-17.5 -39.5z" />
    <glyph glyph-name="minus" unicode="&#x2212;" horiz-adv-x="692" 
d="M612 265h-532v115h532v-115z" />
    <glyph glyph-name="Pcircle" unicode="&#x24c5;" horiz-adv-x="867" 
d="M433 -12q-159 0 -263.5 105t-104.5 262q0 156 105.5 261.5t262.5 105.5t263 -105.5t106 -261.5t-106 -261.5t-263 -105.5zM433 68q125 0 203 82t78 205q0 122 -78 204.5t-203 82.5t-203 -82.5t-78 -204.5q0 -123 78 -205t203 -82zM276 169v376h202q72 0 110 -32.5
t38 -94.5q0 -61 -38 -94.5t-110 -33.5h-101v-121h-101zM474 458h-97v-80h97q50 0 50 40t-50 40z" />
    <glyph glyph-name="commaaccent" unicode="&#xf6c3;" horiz-adv-x="500" 
d="M291 -322h-87q34 62 40 114h-66v127h145v-101q0 -68 -32 -140z" />
    <glyph glyph-name="cyrbreve" unicode="&#xf6d4;" 
d="M300 666q26 0 39 17t13 43v16l100 -10v-9q0 -65 -39 -107t-113 -42t-113 42t-39 107v9l100 10v-16q0 -25 13 -42.5t39 -17.5z" />
    <glyph glyph-name="idotaccent" horiz-adv-x="290" 
d="M79 587v152h133v-152h-133zM81 0v506h128v-506h-128z" />
    <glyph glyph-name="ringacute" 
d="M241 869l88 154h130l-95 -154h-123zM300 569q-58 0 -96 37.5t-38 93.5q0 57 38 94.5t96 37.5t96 -37.5t38 -94.5q0 -56 -38 -93.5t-96 -37.5zM300 640q25 0 41.5 17t16.5 43t-16 43t-42 17t-42 -17t-16 -43t16.5 -43t41.5 -17z" />
    <glyph glyph-name="f_b" horiz-adv-x="1064" 
d="M28 398v108h110v74q0 75 42 115.5t126 40.5h132v-102h-92q-80 0 -80 -79v-49h144v-108h-144v-398h-128v398h-110zM644 75v-75h-125v736h126v-308q8 16 22 33.5t50 37t80 19.5q93 0 153.5 -71t60.5 -194t-60.5 -193.5t-153.5 -70.5q-34 0 -63.5 10t-47.5 26t-27.5 28
t-14.5 22zM643 253q0 -68 32 -110.5t87 -42.5q54 0 86.5 42.5t32.5 110.5t-32.5 110.5t-86.5 42.5q-55 0 -87 -42.5t-32 -110.5z" />
    <glyph glyph-name="f_h" horiz-adv-x="1062" 
d="M28 398v108h110v74q0 75 42 115.5t126 40.5h132v-102h-92q-80 0 -80 -79v-49h144v-108h-144v-398h-128v398h-110zM519 0v736h127v-305q17 33 55 59.5t93 26.5q87 0 139 -58t52 -156v-303h-128v279q0 59 -27.5 91.5t-76.5 32.5q-50 0 -78.5 -32.5t-28.5 -91.5v-279h-127z
" />
    <glyph glyph-name="f_i" horiz-adv-x="729" 
d="M517 587v152h133v-152h-133zM28 398v108h110v74q0 75 42 115.5t126 40.5h132v-102h-92q-80 0 -80 -79v-49h144v-108h-144v-398h-128v398h-110zM519 0v506h128v-506h-128z" />
    <glyph glyph-name="f_j" horiz-adv-x="730" 
d="M518 587v152h133v-152h-133zM28 398v108h110v74q0 75 42 115.5t126 40.5h132v-102h-92q-80 0 -80 -79v-49h144v-108h-144v-398h-128v398h-110zM648 -39q0 -86 -40 -127t-122 -41h-126v106h83q41 0 59 18.5t18 59.5v529h128v-545z" />
    <glyph glyph-name="f_k" horiz-adv-x="1022" 
d="M28 398v108h110v74q0 75 42 115.5t126 40.5h132v-102h-92q-80 0 -80 -79v-49h144v-108h-144v-398h-128v398h-110zM519 0v736h126v-439l201 209h160l-230 -236l248 -270h-165l-214 231v-231h-126z" />
    <glyph glyph-name="f_l" horiz-adv-x="732" 
d="M28 398v108h110v74q0 75 42 115.5t126 40.5h132v-102h-92q-80 0 -80 -79v-49h144v-108h-144v-398h-128v398h-110zM521 0v736h128v-736h-128z" />
    <glyph glyph-name="uni02BC.uc" horiz-adv-x="311" 
d="M162 343l-75 27q60 100 63 185h-71v155h151v-138q0 -125 -68 -229z" />
    <glyph glyph-name="hyphen.uc" horiz-adv-x="493" 
d="M80 279v119h333v-119h-333z" />
    <glyph glyph-name="endash.uc" horiz-adv-x="708" 
d="M80 292v93h548v-93h-548z" />
    <glyph glyph-name="emdash.uc" horiz-adv-x="1013" 
d="M80 292v93h853v-93h-853z" />
    <glyph glyph-name="quoteleft.uc" horiz-adv-x="311" 
d="M149 727l74 -27q-59 -101 -63 -185h72v-155h-151v138q0 128 68 229z" />
    <glyph glyph-name="quoteright.uc" horiz-adv-x="311" 
d="M162 343l-75 27q60 100 63 185h-71v155h151v-138q0 -125 -68 -229z" />
    <glyph glyph-name="quotedblleft.uc" horiz-adv-x="540" 
d="M379 727l75 -27q-59 -101 -63 -185h70v-155h-150v138q0 125 68 229zM149 727l74 -27q-59 -101 -63 -185h70v-155h-149v138q0 128 68 229z" />
    <glyph glyph-name="quotedblright.uc" horiz-adv-x="540" 
d="M161 343l-75 27q59 101 63 185h-70v155h150v-138q0 -125 -68 -229zM391 343l-74 27q59 101 63 185h-70v155h149v-138q0 -128 -68 -229z" />
    <glyph glyph-name="guilsinglleft.uc" horiz-adv-x="353" 
d="M169 500h121l-111 -183l111 -185h-122l-108 184z" />
    <glyph glyph-name="guilsinglright.uc" horiz-adv-x="353" 
d="M184 132h-121l111 183l-111 185h122l108 -184z" />
    <glyph glyph-name="guillemotleft.uc" horiz-adv-x="578" 
d="M165 500h120l-107 -183l107 -185h-121l-104 184zM395 500h120l-109 -183l109 -185h-121l-105 184z" />
    <glyph glyph-name="guillemotright.uc" horiz-adv-x="578" 
d="M413 132h-120l108 183l-108 185h121l105 -184zM184 132h-121l109 183l-109 185h121l106 -184z" />
    <glyph glyph-name="at.uc" horiz-adv-x="1022" 
d="M746 563l-50 -287q-11 -67 44 -67q52 0 90.5 55.5t38.5 156.5q0 137 -89 219t-249 82q-163 0 -267.5 -106t-104.5 -277q0 -164 105 -266.5t278 -102.5q64 0 121.5 13t96 33t58.5 33.5t32 24.5l79 -46q-16 -19 -44.5 -40.5t-75.5 -47t-117.5 -42t-149.5 -16.5
q-150 0 -261 62t-166.5 165t-55.5 232q0 203 133 335.5t339 132.5q106 0 190 -31.5t137 -85.5t80.5 -123.5t27.5 -148.5q0 -131 -64 -214.5t-169 -83.5q-103 0 -127 66q-44 -66 -128 -66q-83 0 -135.5 57.5t-52.5 156.5q0 100 57 167t149 67q89 0 124 -74l12 67h114z
M511 464q-45 0 -73 -36.5t-28 -93.5q0 -47 22.5 -76t63.5 -29q45 0 72.5 36.5t27.5 92.5q0 49 -22 77.5t-63 28.5z" />
    <glyph glyph-name="exclamdown.uc" horiz-adv-x="342" 
d="M94 710h153v-159h-153v159zM108 475h125v-475h-125v475z" />
    <glyph glyph-name="questiondown.uc" horiz-adv-x="535" 
d="M353 710v-159h-153v159h153zM213 475h127v-18q0 -45 -13 -69.5t-59 -69.5l-42 -42q-50 -50 -50 -95q0 -39 24.5 -62t67.5 -23q86 0 96 96l124 -21q-7 -83 -64 -133t-156 -50q-105 0 -162.5 51t-57.5 141q0 57 22 95.5t76 88.5l39 36q16 16 22 30.5t6 40.5v4z" />
    <glyph glyph-name="acute.uc" 
d="M177 773l103 156h143l-111 -156h-135z" />
    <glyph glyph-name="grave.uc" 
d="M422 773h-135l-110 156h143z" />
    <glyph glyph-name="hungarumlaut.uc" 
d="M298 773l77 156h124l-84 -156h-117zM101 773l76 156h124l-82 -156h-118z" />
    <glyph glyph-name="circumflex.uc" 
d="M327 771l-67 81l-67 -81h-124l132 161h118l129 -161h-121z" />
    <glyph glyph-name="caron.uc" 
d="M65 932h124l69 -81l68 81h122l-133 -161h-116z" />
    <glyph glyph-name="breve.uc" 
d="M300 858q28 0 42.5 17.5t14.5 43.5v11h100v-13q0 -66 -40.5 -108.5t-116.5 -42.5t-116.5 42.5t-40.5 108.5v13h100v-11q0 -26 14.5 -43.5t42.5 -17.5z" />
    <glyph glyph-name="tilde.uc" 
d="M301 807l-35 20q-22 12 -31 12q-16 0 -16 -22v-48h-93v77q0 45 21 70.5t63 25.5q15 0 32.5 -6t25.5 -10.5t31 -17.5l35 -19q24 -13 31 -13q16 0 16 23v48h93v-77q0 -45 -21 -70.5t-63 -25.5q-32 0 -89 33z" />
    <glyph glyph-name="macron.uc" horiz-adv-x="500" 
d="M417 801h-334v100h334v-100z" />
    <glyph glyph-name="dieresis.uc" 
d="M130 773v149h127v-149h-127zM343 773v149h127v-149h-127z" />
    <glyph glyph-name="dotaccent.uc" 
d="M234 773v152h132v-152h-132z" />
    <glyph glyph-name="ring.uc" 
d="M300 763q-58 0 -96 37.5t-38 93.5q0 57 38 95t96 38t96.5 -38t38.5 -95q0 -56 -38.5 -93.5t-96.5 -37.5zM300 834q26 0 42.5 17t16.5 43q0 27 -16.5 44t-42.5 17t-42.5 -17t-16.5 -44q0 -26 16.5 -43t42.5 -17z" />
    <glyph glyph-name="cyrbreve.uc" 
d="M300 858q28 0 42.5 17.5t14.5 43.5v11l100 -12v-3q0 -66 -40.5 -107.5t-116.5 -41.5t-116.5 41.5t-40.5 107.5v4l100 11v-11q0 -26 14 -43.5t43 -17.5z" />
    <glyph glyph-name="ringacute.uc" 
d="M241 1063l95 144h138l-103 -144h-130zM300 763q-58 0 -96 37.5t-38 93.5q0 57 38 95t96 38t96.5 -38t38.5 -95q0 -56 -38.5 -93.5t-96.5 -37.5zM300 834q26 0 42.5 17t16.5 43q0 27 -16.5 44t-42.5 17t-42.5 -17t-16.5 -44q0 -26 16.5 -43t42.5 -17z" />
    <glyph glyph-name="zero.den" horiz-adv-x="475" 
d="M238 443q82 0 129 -44.5t47 -121.5v-119q0 -78 -47 -122t-129 -44t-129.5 44t-47.5 122v119q0 77 47.5 121.5t129.5 44.5zM238 87q32 0 49 20t17 53v115q0 33 -17 53t-49 20t-49 -20t-17 -53v-115q0 -33 17 -53t49 -20z" />
    <glyph glyph-name="one.den" horiz-adv-x="334" 
d="M259 0h-111v319l-109 -59v98l137 79h83v-437z" />
    <glyph glyph-name="two.den" horiz-adv-x="439" 
d="M403 92v-92h-349v70l163 146q50 45 50 80q0 23 -14.5 37.5t-40.5 14.5q-31 0 -44.5 -18.5t-13.5 -44.5l-105 13q3 62 45.5 103t117.5 41q78 0 122 -38.5t44 -102.5q0 -46 -23 -79.5t-73 -75.5l-62 -54h183z" />
    <glyph glyph-name="three.den" horiz-adv-x="449" 
d="M220 84q32 0 49.5 13t17.5 36q0 45 -54 45h-50v90h44q47 0 47 40q0 22 -15.5 34t-42.5 12q-47 0 -59 -43l-106 25q8 38 48 72t117 34q80 0 124 -33t44 -92q0 -33 -17 -54.5t-40 -30.5q72 -24 72 -106q0 -61 -47.5 -97t-131.5 -36q-81 0 -123 35.5t-53 76.5l107 24
q15 -45 69 -45z" />
    <glyph glyph-name="four.den" horiz-adv-x="485" 
d="M450 109h-84v-109h-107v109h-223v75l197 251h133v-239h84v-87zM143 196h116v151z" />
    <glyph glyph-name="five.den" horiz-adv-x="454" 
d="M167 182h-98v253h316v-86h-213v-84q30 32 85 32q63 0 104 -39.5t41 -106.5v-2q0 -69 -47.5 -112.5t-129.5 -43.5q-83 0 -124.5 35.5t-50.5 78.5l107 27q3 -10 8.5 -19.5t21.5 -20t38 -10.5q29 0 47.5 18t18.5 46v1q0 29 -18 47t-48 18q-40 0 -58 -32z" />
    <glyph glyph-name="six.den" horiz-adv-x="454" 
d="M407 152q0 -70 -49 -114.5t-130 -44.5q-82 0 -131 44t-49 114q0 48 17.5 84.5t57.5 84.5l92 115h121l-127 -157q25 16 60 16q62 0 100 -39.5t38 -102.5zM296 152q0 29 -18.5 48t-50.5 19q-31 0 -50 -19.5t-19 -48.5q0 -28 19 -47t50 -19q32 0 50.5 19t18.5 48z" />
    <glyph glyph-name="seven.den" horiz-adv-x="426" 
d="M190 0h-123l187 342h-212v93h344v-67z" />
    <glyph glyph-name="eight.den" horiz-adv-x="460" 
d="M239 442q77 0 120 -33t43 -88q0 -40 -20.5 -64.5t-46.5 -33.5q29 -9 51.5 -35.5t22.5 -69.5q0 -57 -45.5 -91t-124.5 -34h-19q-79 0 -124 34t-45 91q0 43 22.5 69.5t51.5 35.5q-26 9 -46.5 33.5t-20.5 64.5q0 55 43 88t120 33h18zM168 311q0 -23 16 -36.5t42 -13.5h8
q26 0 42 13.5t16 36.5q0 24 -16 37t-42 13h-8q-26 0 -42 -13t-16 -37zM163 128q0 -25 17.5 -39.5t43.5 -14.5h12q27 0 44 14.5t17 39.5t-17 39.5t-44 14.5h-12q-26 0 -43.5 -14.5t-17.5 -39.5z" />
    <glyph glyph-name="nine.den" horiz-adv-x="454" 
d="M48 283q0 70 48.5 114.5t129.5 44.5q82 0 131 -44t49 -114q0 -48 -17.5 -84.5t-56.5 -84.5l-93 -115h-121l128 158q-25 -17 -61 -17q-62 0 -99.5 39.5t-37.5 102.5zM158 283q0 -29 18.5 -48t50.5 -19q31 0 50.5 19.5t19.5 48.5t-19.5 47.5t-50.5 18.5q-32 0 -50.5 -18.5
t-18.5 -48.5z" />
    <glyph glyph-name="zero.num" horiz-adv-x="475" 
d="M238 718q82 0 129 -44.5t47 -121.5v-119q0 -78 -47 -122t-129 -44t-129.5 44t-47.5 122v119q0 77 47.5 121.5t129.5 44.5zM238 362q32 0 49 20t17 53v115q0 33 -17 53t-49 20t-49 -20t-17 -53v-115q0 -33 17 -53t49 -20z" />
    <glyph glyph-name="one.num" horiz-adv-x="334" 
d="M259 275h-111v319l-109 -59v98l137 79h83v-437z" />
    <glyph glyph-name="two.num" horiz-adv-x="439" 
d="M403 367v-92h-349v70l163 146q50 45 50 80q0 23 -14.5 37.5t-40.5 14.5q-31 0 -44.5 -18.5t-13.5 -44.5l-105 13q3 62 45.5 103t117.5 41q78 0 122 -38.5t44 -102.5q0 -46 -23 -79.5t-73 -75.5l-62 -54h183z" />
    <glyph glyph-name="three.num" horiz-adv-x="449" 
d="M220 359q32 0 49.5 13t17.5 36q0 45 -54 45h-56v90h50q47 0 47 40q0 22 -15.5 34t-42.5 12q-47 0 -59 -43l-106 25q8 38 48 72t117 34q80 0 124 -33t44 -92q0 -33 -17 -54.5t-40 -30.5q72 -24 72 -106q0 -61 -47.5 -97t-131.5 -36q-81 0 -123 35.5t-53 76.5l107 24
q15 -45 69 -45z" />
    <glyph glyph-name="four.num" horiz-adv-x="485" 
d="M450 384h-84v-109h-107v109h-223v75l197 251h133v-239h84v-87zM143 471h116v151z" />
    <glyph glyph-name="five.num" horiz-adv-x="454" 
d="M167 457h-98v253h316v-86h-213v-84q30 32 85 32q63 0 104 -39.5t41 -106.5v-2q0 -69 -47.5 -112.5t-129.5 -43.5q-83 0 -124.5 35.5t-50.5 78.5l107 27q3 -10 8.5 -19.5t21.5 -20t38 -10.5q29 0 47.5 18t18.5 46v2q0 29 -18 46.5t-48 17.5q-40 0 -58 -32z" />
    <glyph glyph-name="six.num" horiz-adv-x="454" 
d="M407 427q0 -70 -49 -114.5t-130 -44.5q-82 0 -131 44t-49 114q0 48 17.5 84.5t57.5 84.5l92 115h121l-127 -157q25 16 60 16q62 0 100 -39.5t38 -102.5zM296 427q0 29 -18.5 48t-50.5 19q-31 0 -50 -19t-19 -49q0 -28 19 -47t50 -19q32 0 50.5 19t18.5 48z" />
    <glyph glyph-name="seven.num" horiz-adv-x="426" 
d="M190 275h-123l187 342h-212v93h344v-67z" />
    <glyph glyph-name="eight.num" horiz-adv-x="460" 
d="M239 717q77 0 120 -33t43 -88q0 -41 -20.5 -65t-46.5 -32q29 -10 51.5 -36.5t22.5 -69.5q0 -57 -45.5 -91t-124.5 -34h-19q-79 0 -124 34t-45 91q0 43 22.5 69.5t51.5 36.5q-26 8 -46.5 32.5t-20.5 64.5q0 55 43 88t120 33h18zM168 586q0 -23 16 -36.5t42 -13.5h8
q26 0 42 13.5t16 36.5q0 24 -16 37t-42 13h-8q-26 0 -42 -13t-16 -37zM163 403q0 -25 17.5 -39.5t43.5 -14.5h12q27 0 44 14.5t17 39.5t-17 39.5t-44 14.5h-12q-26 0 -43.5 -14.5t-17.5 -39.5z" />
    <glyph glyph-name="nine.num" horiz-adv-x="454" 
d="M48 558q0 70 48.5 114.5t129.5 44.5q82 0 131 -44t49 -114q0 -48 -17.5 -84.5t-56.5 -84.5l-93 -115h-121l128 158q-25 -17 -61 -17q-62 0 -99.5 39.5t-37.5 102.5zM158 558q0 -29 18.5 -48t50.5 -19q31 0 50.5 19.5t19.5 48.5t-19.5 47.5t-50.5 18.5q-32 0 -50.5 -18.5
t-18.5 -48.5z" />
    <glyph glyph-name="zero.old" horiz-adv-x="656" 
d="M328 586q119 0 193 -84t74 -214t-74 -215.5t-193 -85.5q-120 0 -193.5 85.5t-73.5 215.5t73.5 214t193.5 84zM328 104q64 0 99.5 53.5t35.5 130.5t-35.5 129.5t-99.5 52.5t-99.5 -53t-35.5 -129q0 -77 35.5 -130.5t99.5 -53.5z" />
    <glyph glyph-name="one.old" horiz-adv-x="433" 
d="M326 0h-130v432l-150 -87v123l181 111h99v-579z" />
    <glyph glyph-name="two.old" horiz-adv-x="606" 
d="M555 110v-110h-488v86l206 143q60 43 85.5 75t25.5 73q0 42 -24.5 68.5t-67.5 26.5q-49 0 -72 -32.5t-24 -73.5l-127 16q4 85 62.5 144.5t160.5 59.5q104 0 163.5 -57t59.5 -148q0 -73 -45 -128t-125 -105l-59 -38h269z" />
    <glyph glyph-name="three.old" horiz-adv-x="617" 
d="M303 -31q55 0 86 27.5t31 75.5q0 49 -28.5 74.5t-82.5 25.5h-67v115h66q45 0 69.5 23.5t24.5 66.5q0 44 -28.5 69t-74.5 25q-83 0 -104 -89l-127 30q4 27 18.5 55t40 55.5t70.5 45.5t101 18q112 0 174 -53.5t62 -145.5q0 -57 -29.5 -94t-67.5 -53q48 -15 82.5 -58.5
t34.5 -117.5q0 -96 -67 -154t-183 -58q-111 0 -171.5 55t-75.5 125l128 32q3 -14 9 -27t18.5 -30t36 -27.5t54.5 -10.5z" />
    <glyph glyph-name="four.old" horiz-adv-x="672" 
d="M639 69h-130v-205h-129v205h-341v82l320 423h150v-392h130v-113zM187 182h193v259z" />
    <glyph glyph-name="five.old" horiz-adv-x="629" 
d="M214 167h-115v407h441v-112h-316v-174q46 50 127 50q92 0 152.5 -64t60.5 -173v-1q0 -108 -67.5 -177t-181.5 -69q-111 0 -173 56.5t-74 133.5l129 31q23 -104 118 -104q52 0 84.5 36t32.5 92q0 59 -31.5 93.5t-85.5 34.5q-24 0 -42 -6t-31.5 -20t-16.5 -17.5t-11 -16.5z
" />
    <glyph glyph-name="six.old" horiz-adv-x="626" 
d="M565 241q0 -110 -68.5 -181.5t-183.5 -71.5q-117 0 -184.5 70t-67.5 183q0 73 27.5 131.5t83.5 134.5l150 203h146l-199 -270q40 33 102 33q86 0 140 -64t54 -168zM433 241q0 60 -32 98.5t-88 38.5t-88.5 -39t-32.5 -98t32.5 -98t88.5 -39t88 38.5t32 98.5z" />
    <glyph glyph-name="seven.old" horiz-adv-x="578" 
d="M219 -136h-147l305 592h-324v118h478v-90z" />
    <glyph glyph-name="eight.old" horiz-adv-x="650" 
d="M332 722q113 0 175 -54.5t62 -142.5q0 -65 -32.5 -105t-75.5 -54q47 -15 84 -59.5t37 -114.5q0 -92 -67.5 -148t-183.5 -56h-16q-114 0 -180.5 56t-66.5 148q0 70 37 114.5t84 59.5q-43 14 -75.5 54t-32.5 105q0 88 62.5 142.5t174.5 54.5h14zM212 515q0 -45 30 -71.5
t79 -26.5h8q48 0 78.5 26.5t30.5 71.5t-30.5 71.5t-78.5 26.5h-8q-49 0 -79 -26.5t-30 -71.5zM202 203q0 -48 32.5 -77t84.5 -29h12q52 0 84.5 29t32.5 77q0 49 -32.5 78t-84.5 29h-12q-52 0 -84.5 -29.5t-32.5 -77.5z" />
    <glyph glyph-name="nine.old" horiz-adv-x="626" 
d="M61 333q0 110 68 181.5t183 71.5q117 0 185 -70t68 -182q0 -73 -27.5 -132t-84.5 -135l-150 -203h-146l199 270q-38 -33 -102 -33q-85 0 -139 64t-54 168zM192 333q0 -59 32.5 -98t88.5 -39q55 0 87.5 39t32.5 99q0 59 -32.5 98t-87.5 39q-56 0 -88.5 -39t-32.5 -99z" />
    <glyph glyph-name="zero.sub" horiz-adv-x="535" 
d="M267 379q91 0 143.5 -50t52.5 -138v-142q0 -89 -52.5 -139t-143.5 -50t-143 50t-52 139v142q0 88 52 138t143 50zM267 -39q40 0 61.5 25.5t21.5 66.5v133q0 42 -21.5 67.5t-61.5 25.5t-61 -25.5t-21 -67.5v-133q0 -41 21 -66.5t61 -25.5z" />
    <glyph glyph-name="one.sub" horiz-adv-x="370" 
d="M282 -130h-113v378l-125 -69v103l153 90h85v-502z" />
    <glyph glyph-name="two.sub" horiz-adv-x="491" 
d="M452 -34v-96h-391v72l184 168q33 31 47.5 54t14.5 50q0 30 -18.5 48t-51.5 18q-65 0 -73 -76l-107 15q4 69 51 114t130 45q86 0 135 -43.5t49 -115.5q0 -54 -26 -92t-83 -89l-80 -72h219z" />
    <glyph glyph-name="three.sub" horiz-adv-x="503" 
d="M248 -43q38 0 60 17t22 46q0 59 -71 59h-59v94h52q64 0 64 54q0 26 -20 41.5t-53 15.5q-62 0 -74 -54l-110 25q8 45 53.5 84t130.5 39q88 0 137 -38t49 -105q0 -39 -20.5 -64t-47.5 -36q34 -10 59 -40t25 -83q0 -68 -53 -109.5t-144 -41.5q-93 0 -142 42t-56 87l112 25
q4 -20 25 -39t61 -19z" />
    <glyph glyph-name="four.sub" horiz-adv-x="542" 
d="M504 4h-99v-134h-111v134h-253v77l228 289h136v-274h99v-92zM156 96h138v179z" />
    <glyph glyph-name="five.sub" horiz-adv-x="509" 
d="M181 83h-100v287h349v-91h-242v-106q34 36 99 36q70 0 116 -45t46 -121v-4q0 -78 -53 -128t-143 -50q-93 0 -140 41.5t-55 94.5l111 25q4 -23 24.5 -43.5t59.5 -20.5q37 0 59.5 23t22.5 58v3q0 36 -22.5 58t-59.5 22q-49 0 -72 -39z" />
    <glyph glyph-name="six.sub" horiz-adv-x="510" 
d="M455 41q0 -79 -54.5 -129.5t-145.5 -50.5t-145 50.5t-54 129.5q0 54 20 96t64 97l108 136h126l-144 -181q27 18 68 18q70 0 113.5 -46t43.5 -120zM341 41q0 38 -23 61t-63 23q-38 0 -62 -23.5t-24 -60.5q0 -36 24 -59.5t62 -23.5q40 0 63 23.5t23 59.5z" />
    <glyph glyph-name="seven.sub" horiz-adv-x="480" 
d="M205 -130h-127l220 401h-248v99h383v-72z" />
    <glyph glyph-name="eight.sub" horiz-adv-x="517" 
d="M269 378q85 0 132.5 -37.5t47.5 -100.5q0 -47 -23.5 -75.5t-54.5 -37.5q34 -11 60 -41.5t26 -79.5q0 -66 -50.5 -105.5t-138.5 -39.5h-21q-87 0 -137 39.5t-50 105.5q0 49 26 79.5t60 41.5q-31 9 -54.5 37.5t-23.5 75.5q0 63 48 100.5t133 37.5h20zM182 230q0 -30 19 -46
t51 -16h13q32 0 51 16t19 46q0 29 -19 45.5t-51 16.5h-13q-32 0 -51 -16.5t-19 -45.5zM175 15q0 -31 21 -49t55 -18h15q34 0 55 18t21 49q0 32 -21 50t-55 18h-15q-34 0 -55 -18.5t-21 -49.5z" />
    <glyph glyph-name="nine.sub" horiz-adv-x="510" 
d="M55 198q0 79 54 129.5t146 50.5q91 0 145 -50t54 -129q0 -54 -20 -96.5t-64 -96.5l-108 -136h-126l147 183q-29 -20 -71 -20q-70 0 -113.5 45.5t-43.5 119.5zM169 198q0 -37 23 -60t63 -23q39 0 62.5 23.5t23.5 60.5q0 36 -23.5 59.5t-62.5 23.5q-40 0 -63 -23.5
t-23 -60.5z" />
    <glyph glyph-name="zero.sup" horiz-adv-x="535" 
d="M267 745q91 0 143.5 -50t52.5 -138v-142q0 -89 -52.5 -139t-143.5 -50t-143 50t-52 139v142q0 88 52 138t143 50zM267 327q40 0 61.5 25.5t21.5 66.5v133q0 42 -21.5 67.5t-61.5 25.5t-61 -25.5t-21 -67.5v-133q0 -41 21 -66.5t61 -25.5z" />
    <glyph glyph-name="one.sup" horiz-adv-x="370" 
d="M282 236h-113v378l-125 -69v103l153 90h85v-502z" />
    <glyph glyph-name="two.sup" horiz-adv-x="491" 
d="M452 332v-96h-391v72l184 168q34 33 48 55t14 49q0 30 -18.5 48t-51.5 18q-65 0 -73 -76l-107 15q4 69 51 114t130 45q86 0 135 -43.5t49 -115.5q0 -54 -26 -92t-83 -89l-80 -72h219z" />
    <glyph glyph-name="three.sup" horiz-adv-x="503" 
d="M248 323q38 0 60 17t22 46q0 59 -71 59h-59v94h52q64 0 64 54q0 26 -20 41.5t-53 15.5q-62 0 -74 -54l-110 25q8 45 53.5 84t130.5 39q88 0 137 -38t49 -105q0 -39 -20.5 -64t-47.5 -36q34 -10 59 -40t25 -83q0 -68 -53 -109.5t-144 -41.5q-93 0 -142 42t-56 87l112 25
q4 -20 25 -39t61 -19z" />
    <glyph glyph-name="four.sup" horiz-adv-x="542" 
d="M504 370h-99v-134h-111v134h-253v77l228 289h136v-274h99v-92zM156 462h138v179z" />
    <glyph glyph-name="five.sup" horiz-adv-x="509" 
d="M181 449h-100v287h349v-91h-242v-106q34 36 99 36q70 0 116 -45t46 -121v-4q0 -78 -53 -128t-143 -50q-93 0 -140 41.5t-55 94.5l111 25q4 -23 24.5 -43.5t59.5 -20.5q37 0 59.5 23t22.5 58v3q0 36 -22.5 58t-59.5 22q-49 0 -72 -39z" />
    <glyph glyph-name="six.sup" horiz-adv-x="510" 
d="M455 407q0 -79 -54.5 -129.5t-145.5 -50.5t-145 50.5t-54 129.5q0 54 20 96t64 97l108 136h126l-144 -181q27 18 68 18q70 0 113.5 -46t43.5 -120zM341 407q0 38 -23 61t-63 23q-38 0 -62 -23.5t-24 -60.5q0 -36 24 -59.5t62 -23.5q40 0 63 23.5t23 59.5z" />
    <glyph glyph-name="seven.sup" horiz-adv-x="480" 
d="M205 236h-127l220 401h-248v99h383v-72z" />
    <glyph glyph-name="eight.sup" horiz-adv-x="517" 
d="M269 744q85 0 132.5 -37.5t47.5 -100.5q0 -47 -23.5 -75.5t-54.5 -37.5q34 -11 60 -41.5t26 -79.5q0 -66 -50.5 -105.5t-138.5 -39.5h-21q-87 0 -137 39.5t-50 105.5q0 49 26 79.5t60 41.5q-31 9 -54.5 37.5t-23.5 75.5q0 63 48 100.5t133 37.5h20zM182 596q0 -30 19 -46
t51 -16h13q32 0 51 16t19 46q0 29 -19 45.5t-51 16.5h-13q-32 0 -51 -16.5t-19 -45.5zM175 381q0 -31 21 -49t55 -18h15q34 0 55 18t21 49q0 32 -21 50t-55 18h-15q-34 0 -55 -18.5t-21 -49.5z" />
    <glyph glyph-name="nine.sup" horiz-adv-x="510" 
d="M55 564q0 79 54 129.5t146 50.5q91 0 145 -50t54 -129q0 -54 -20 -96.5t-64 -96.5l-108 -136h-126l147 183q-29 -20 -71 -20q-70 0 -113.5 45.5t-43.5 119.5zM169 564q0 -37 23 -60t63 -23q39 0 62.5 23.5t23.5 60.5q0 36 -23.5 59.5t-62.5 23.5q-40 0 -63 -23.5
t-23 -60.5z" />
    <glyph glyph-name="four.denalt" horiz-adv-x="505" 
d="M71 119v316h108v-224h100v169h108v-169h83v-92h-83v-119h-108v119h-208z" />
    <glyph glyph-name="four.numalt" horiz-adv-x="505" 
d="M71 394v316h108v-224h100v169h108v-169h83v-92h-83v-119h-108v119h-208z" />
    <glyph glyph-name="four.oldalt" horiz-adv-x="691" 
d="M98 80v494h132v-376h163v286h133v-286h130v-118h-130v-216h-133v216h-295z" />
    <glyph glyph-name="four.subalt" horiz-adv-x="560" 
d="M76 9v361h110v-263h123v200h111v-200h102v-98h-102v-139h-111v139h-233z" />
    <glyph glyph-name="four.supalt" horiz-adv-x="560" 
d="M76 375v361h110v-263h123v200h111v-200h102v-98h-102v-139h-111v139h-233z" />
    <glyph glyph-name="four.tabalt" horiz-adv-x="650" 
d="M79 210v500h129v-384h163v285h129v-285h114v-116h-114v-210h-129v210h-292z" />
    <glyph glyph-name="uni0414.bgr" horiz-adv-x="791" 
d="M464 713l244 -593h70v-281h-121v161h-523v-161h-121v281h70l244 593h137zM215 120h352l-176 429z" />
    <glyph glyph-name="uni041B.bgr" horiz-adv-x="740" 
d="M435 712l280 -712h-151l-201 536l-199 -536h-139l272 712h138z" />
    <glyph glyph-name="uni0432.bgr" horiz-adv-x="606" 
d="M75 233v277q0 102 59 169.5t170 67.5q104 0 164.5 -57t60.5 -151q0 -55 -26 -97.5t-70 -62.5q55 -20 85.5 -63.5t30.5 -105.5q0 -99 -64.5 -161.5t-174.5 -62.5q-116 0 -175.5 65.5t-59.5 181.5zM304 636q-50 0 -76.5 -32t-26.5 -91v-89h87q113 0 113 108q0 49 -26 76.5
t-71 27.5zM201 224q0 -59 27 -93t82 -34q54 0 82.5 31.5t28.5 82.5q0 52 -30.5 78t-98.5 26h-91v-91z" />
    <glyph glyph-name="uni0433.bgr" horiz-adv-x="551" 
d="M272 -14q-110 0 -168.5 43t-58.5 116t47 112.5t144 49.5q3 0 30.5 3t30.5 3q70 7 70 54q0 24 -22 38t-62 14q-75 0 -113 -68l-112 35q7 21 21.5 41.5t39.5 42.5t67 36t95 14q97 0 155 -42.5t58 -114.5q0 -135 -185 -154q-3 -1 -32.5 -4t-32.5 -3q-39 -4 -55 -18.5
t-16 -39.5q0 -26 24.5 -41.5t71.5 -15.5q85 0 119 70l117 -36q-7 -20 -22 -41t-41.5 -43.5t-70.5 -36.5t-99 -14z" />
    <glyph glyph-name="uni0434.bgr" horiz-adv-x="620" 
d="M414 79q-52 -88 -147 -88q-91 0 -152.5 71.5t-61.5 191.5t61.5 191.5t152.5 71.5q32 0 59.5 -10.5t45 -26.5t26.5 -27.5t15 -22.5v76h127v-491q0 -107 -62 -170t-183 -63q-55 0 -99 14t-70 35.5t-40 39.5t-20 34l127 29q30 -47 102 -47q58 0 88.5 33t30.5 94v65zM415 254
q0 67 -32 109.5t-83 42.5q-53 0 -85 -42t-32 -110q0 -66 32 -108.5t85 -42.5q51 0 83 42.5t32 108.5z" />
    <glyph glyph-name="uni0436.bgr" horiz-adv-x="830" 
d="M351 0v225l-195 -225h-158l227 259l-214 247h158l182 -213v443h126v-443l181 213h157l-212 -244l229 -262h-161l-194 225v-225h-126z" />
    <glyph glyph-name="uni0437.bgr" horiz-adv-x="543" 
d="M257 410q-74 0 -104 -67l-116 37q17 53 72 96t148 43q104 0 163 -53t59 -146q0 -54 -29 -91.5t-70 -53.5q51 -16 85.5 -59.5t34.5 -112.5q0 -98 -66.5 -159.5t-179.5 -61.5q-95 0 -153.5 45t-74.5 106l115 37q11 -28 39.5 -52.5t73.5 -24.5q58 0 87.5 31t29.5 81
q0 52 -29.5 78.5t-94.5 26.5h-62v109h57q109 0 109 97q0 44 -24.5 69t-69.5 25z" />
    <glyph glyph-name="uni0438.bgr" horiz-adv-x="615" 
d="M205 218q0 -56 26.5 -85.5t73.5 -29.5q49 0 77 30.5t28 84.5v288h127v-506h-127v70q-16 -31 -53.5 -56t-91.5 -25q-86 0 -137 55.5t-51 149.5v312h128v-288z" />
    <glyph glyph-name="uni0439.bgr" horiz-adv-x="615" 
d="M299 667q26 0 39 17t13 43v16l100 -10v-9q0 -65 -39 -107t-113 -42t-113 42t-39 107v9l100 10v-16q0 -25 13 -42.5t39 -17.5zM205 218q0 -56 26.5 -85.5t73.5 -29.5q49 0 77 30.5t28 84.5v288h127v-506h-127v70q-16 -31 -53.5 -56t-91.5 -25q-86 0 -137 55.5t-51 149.5
v312h128v-288z" />
    <glyph glyph-name="uni043A.bgr" horiz-adv-x="583" 
d="M81 0v736h126v-439l201 209h160l-230 -236l248 -270h-165l-214 231v-231h-126z" />
    <glyph glyph-name="uni043B.bgr" horiz-adv-x="554" 
d="M15 0l195 512h125l204 -512h-143l-126 341l-125 -341h-130z" />
    <glyph glyph-name="uni043D.bgr" horiz-adv-x="622" 
d="M81 0v506h127v-193h206v193h127v-506h-127v204h-206v-204h-127z" />
    <glyph glyph-name="uni043F.bgr" horiz-adv-x="624" 
d="M81 0v506h127v-73q17 32 55 58t93 26q87 0 139 -57t52 -154v-306h-128v283q0 58 -27.5 89t-76.5 31q-50 0 -78.5 -31.5t-28.5 -88.5v-283h-127z" />
    <glyph glyph-name="uni0442.bgr" horiz-adv-x="952" 
d="M81 0v506h127v-69q16 31 53 55.5t90 24.5q117 0 166 -98q19 38 59 68t105 30q89 0 141.5 -57t52.5 -149v-311h-128v288q0 53 -26.5 84t-75.5 31t-76.5 -31.5t-27.5 -83.5v-288h-128v288q0 53 -26.5 84t-75.5 31t-76 -31.5t-27 -83.5v-288h-127z" />
    <glyph glyph-name="uni0446.bgr" horiz-adv-x="637" 
d="M205 218q0 -56 26.5 -85.5t73.5 -29.5q49 0 77 30.5t28 84.5v288h127v-397h88v-258h-114v149h-101v70q-16 -31 -53.5 -56t-91.5 -25q-86 0 -137 55.5t-51 149.5v312h128v-288z" />
    <glyph glyph-name="uni0447.bgr" horiz-adv-x="596" 
d="M388 0v179q-45 -11 -109 -11q-106 0 -158.5 47.5t-52.5 155.5v135h127v-128q0 -54 21.5 -78t77.5 -24q25 0 48.5 2.5t34.5 5.5l11 2v220h127v-506h-127z" />
    <glyph glyph-name="uni0448.bgr" horiz-adv-x="952" 
d="M871 506v-506h-127v69q-16 -31 -53 -55.5t-90 -24.5q-117 0 -166 98q-19 -38 -59 -68t-105 -30q-89 0 -141.5 57t-52.5 149v311h128v-288q0 -53 26.5 -84t75.5 -31t76.5 31.5t27.5 83.5v288h128v-288q0 -53 26.5 -84t75.5 -31t76 31.5t27 83.5v288h127z" />
    <glyph glyph-name="uni0449.bgr" horiz-adv-x="971" 
d="M871 506v-397h88v-258h-114v149h-101v69q-16 -31 -53 -55.5t-90 -24.5q-117 0 -166 98q-19 -38 -59 -68t-105 -30q-89 0 -141.5 57t-52.5 149v311h128v-288q0 -53 26.5 -84t75.5 -31t76.5 31.5t27.5 83.5v288h128v-288q0 -53 26.5 -84t75.5 -31t76 31.5t27 83.5v288h127z
" />
    <glyph glyph-name="uni044A.bgr" horiz-adv-x="647" 
d="M33 506h267v-154h97q110 0 165 -48.5t55 -127.5q0 -75 -57 -132t-166 -57q-108 0 -164.5 57t-56.5 132v221h-140v109zM300 176q0 -38 24.5 -61.5t69.5 -23.5q44 0 68 23.5t24 61.5q0 32 -25.5 52.5t-71.5 20.5h-89v-73z" />
    <glyph glyph-name="uni044C.bgr" horiz-adv-x="552" 
d="M522 176q0 -75 -57 -132t-166 -57q-108 0 -164.5 57t-56.5 132v330h127v-154h97q110 0 165 -48.5t55 -127.5zM205 176q0 -38 24.5 -61.5t69.5 -23.5q44 0 68 23.5t24 61.5q0 32 -25.5 52.5t-71.5 20.5h-89v-73z" />
    <glyph glyph-name="uni044E.bgr" horiz-adv-x="826" 
d="M81 0v736h127v-423h80q17 93 82 149.5t159 56.5q109 0 177.5 -74.5t68.5 -191.5t-68.5 -191.5t-177.5 -74.5q-97 0 -162.5 59.5t-79.5 157.5h-79v-204h-127zM529 99q56 0 86.5 43.5t30.5 110.5q0 68 -30.5 111t-86.5 43q-55 0 -86 -43t-31 -111q0 -67 30.5 -110.5
t86.5 -43.5z" />
    <glyph glyph-name="uni0431.locl" horiz-adv-x="599" 
d="M548 240q0 -111 -69 -182t-180 -71q-110 0 -179 71t-69 182q0 68 32.5 124t93.5 88q-85 36 -85 122q0 147 204 156q141 6 218 19v-112q-71 -14 -209 -19q-93 -3 -93 -57q0 -32 30.5 -46t98.5 -27q91 -18 149 -77.5t58 -170.5zM299 99q57 0 88 39.5t31 101.5
q0 61 -31.5 100.5t-87.5 39.5t-87.5 -39.5t-31.5 -100.5q0 -62 31 -101.5t88 -39.5z" />
    <glyph glyph-name="uni0433.locl" horiz-adv-x="472" 
d="M81 0v506h356v-109h-229v-397h-127z" />
    <glyph glyph-name="uni0434.locl" horiz-adv-x="610" 
d="M120 -149h-114v258h57q40 60 54 222l16 175h382v-397h88v-258h-113v149h-370v-149zM388 109v288h-149l-7 -73q-16 -164 -45 -215h201z" />
    <glyph glyph-name="uni043F.locl" horiz-adv-x="613" 
d="M81 0v506h452v-506h-128v397h-197v-397h-127z" />
    <glyph glyph-name="uni0442.locl" horiz-adv-x="530" 
d="M201 0v397h-166v109h460v-109h-166v-397h-128z" />
    <glyph glyph-name="f.short" horiz-adv-x="438" 
d="M28 398v108h110v74q0 75 42 115.5t126 40.5h132v-102h-92q-80 0 -80 -79v-49h144v-108h-144v-398h-128v398h-110z" />
    <glyph glyph-name="j.short" horiz-adv-x="291" 
d="M80 587v152h133v-152h-133zM210 -39q0 -86 -40 -127t-122 -41h-103v106h60q41 0 59 18.5t18 59.5v529h128v-545z" />
    <glyph glyph-name="f_f.short" horiz-adv-x="794" 
d="M28 398v108h110v74q0 75 42 115.5t126 40.5h128v-102h-88q-80 0 -80 -79v-49h228v74q0 75 42 115.5t126 40.5h132v-102h-93q-80 0 -80 -79v-49h145v-108h-145v-398h-127v398h-228v-398h-128v398h-110z" />
    <glyph glyph-name="uni0414.bgrsc" horiz-adv-x="683" 
d="M551 -161v161h-420v-161h-116v276h68l187 461h136l195 -461h67v-276h-117zM212 115h250l-126 315z" />
    <glyph glyph-name="uni041B.bgrsc" horiz-adv-x="632" 
d="M380 575l222 -575h-146l-147 406l-144 -406h-135l213 575h137z" />
    <glyph glyph-name="A.sc" horiz-adv-x="646" 
d="M480 0l-39 105h-245l-39 -105h-127l221 576h144l221 -576h-136zM236 212h165l-82 221z" />
    <glyph glyph-name="Agrave.sc" horiz-adv-x="646" 
d="M387 637h-135l-110 156h143zM480 0l-39 105h-245l-39 -105h-127l221 576h144l221 -576h-136zM236 212h165l-82 221z" />
    <glyph glyph-name="Aacute.sc" horiz-adv-x="646" 
d="M253 637l103 156h143l-111 -156h-135zM480 0l-39 105h-245l-39 -105h-127l221 576h144l221 -576h-136zM236 212h165l-82 221z" />
    <glyph glyph-name="Acircumflex.sc" horiz-adv-x="646" 
d="M386 635l-67 81l-67 -81h-124l132 161h118l129 -161h-121zM480 0l-39 105h-245l-39 -105h-127l221 576h144l221 -576h-136zM236 212h165l-82 221z" />
    <glyph glyph-name="Atilde.sc" horiz-adv-x="646" 
d="M318 671l-35 20q-22 12 -31 12q-16 0 -16 -22v-48h-93v77q0 45 21 70.5t63 25.5q15 0 32.5 -6t25.5 -10.5t31 -17.5l35 -19q24 -13 31 -13q16 0 16 23v48h93v-77q0 -45 -21 -70.5t-63 -25.5q-32 0 -89 33zM480 0l-39 105h-245l-39 -105h-127l221 576h144l221 -576h-136z
M236 212h165l-82 221z" />
    <glyph glyph-name="Adieresis.sc" horiz-adv-x="646" 
d="M149 637v149h127v-149h-127zM362 637v149h127v-149h-127zM480 0l-39 105h-245l-39 -105h-127l221 576h144l221 -576h-136zM236 212h165l-82 221z" />
    <glyph glyph-name="Aring.sc" horiz-adv-x="646" 
d="M319 627q-58 0 -96 37.5t-38 93.5q0 57 38 95t96 38t96.5 -38t38.5 -95q0 -56 -38.5 -93.5t-96.5 -37.5zM319 698q26 0 42.5 17t16.5 43q0 27 -16.5 44t-42.5 17t-42.5 -17t-16.5 -44q0 -26 16.5 -43t42.5 -17zM480 0l-39 105h-245l-39 -105h-127l221 576h144l221 -576
h-136zM236 212h165l-82 221z" />
    <glyph glyph-name="Amacron.sc" horiz-adv-x="646" 
d="M486 665h-334v100h334v-100zM480 0l-39 105h-245l-39 -105h-127l221 576h144l221 -576h-136zM236 212h165l-82 221z" />
    <glyph glyph-name="Abreve.sc" horiz-adv-x="646" 
d="M319 722q28 0 42.5 17.5t14.5 43.5v11h100v-13q0 -66 -40.5 -108.5t-116.5 -42.5t-116.5 42.5t-40.5 108.5v13h100v-11q0 -26 14.5 -43.5t42.5 -17.5zM480 0l-39 105h-245l-39 -105h-127l221 576h144l221 -576h-136zM236 212h165l-82 221z" />
    <glyph glyph-name="Aogonek.sc" horiz-adv-x="646" 
d="M403 -116q0 34 20 59.5t57 56.5l-39 105h-245l-39 -105h-127l221 576h144l221 -576q-60 -51 -69 -68q-6 -9 -6 -17q0 -26 33 -26h63v-96h-109q-58 0 -91.5 23t-33.5 68zM236 212h165l-82 221z" />
    <glyph glyph-name="Aringacute.sc" horiz-adv-x="646" 
d="M260 927l95 144h138l-103 -144h-130zM319 627q-58 0 -96 37.5t-38 93.5q0 57 38 95t96 38t96.5 -38t38.5 -95q0 -56 -38.5 -93.5t-96.5 -37.5zM319 698q26 0 42.5 17t16.5 43q0 27 -16.5 44t-42.5 17t-42.5 -17t-16.5 -44q0 -26 16.5 -43t42.5 -17zM480 0l-39 105h-245
l-39 -105h-127l221 576h144l221 -576h-136zM236 212h165l-82 221z" />
    <glyph glyph-name="B.sc" horiz-adv-x="669" 
d="M101 0v574h306q86 0 133 -41.5t47 -111.5q0 -44 -25 -75t-61 -43q43 -12 72 -48t29 -91q0 -76 -52 -120t-150 -44h-299zM384 471h-155v-125h156q32 0 51 16t19 47q0 62 -71 62zM377 245h-148v-142h148q91 0 91 71t-91 71z" />
    <glyph glyph-name="C.sc" horiz-adv-x="622" 
d="M329 107q83 0 116 78l116 -42q-7 -20 -20 -41.5t-38.5 -49t-71 -45t-102.5 -17.5q-119 0 -191.5 82t-72.5 215t73 215t191 82q58 0 103 -16.5t70.5 -42.5t39 -48t20.5 -44l-118 -43q-35 78 -115 78q-61 0 -95.5 -51t-34.5 -130t34 -129.5t96 -50.5z" />
    <glyph glyph-name="Ccedilla.sc" horiz-adv-x="622" 
d="M329 107q83 0 116 78l116 -42q-6 -19 -18 -39.5t-35.5 -46.5t-64 -44.5t-91.5 -21.5v-40q56 0 85 -29.5t29 -80.5q0 -54 -31 -85.5t-93 -31.5h-110v88h92q36 0 36 32q0 30 -36 30h-70v126q-88 24 -138.5 100.5t-50.5 186.5q0 133 73 215t191 82q58 0 103 -16.5
t70.5 -42.5t39 -48t20.5 -44l-118 -43q-35 78 -115 78q-61 0 -95.5 -51t-34.5 -130t34 -129.5t96 -50.5z" />
    <glyph glyph-name="Cacute.sc" horiz-adv-x="622" 
d="M262 637l103 156h143l-111 -156h-135zM329 107q83 0 116 78l116 -42q-7 -20 -20 -41.5t-38.5 -49t-71 -45t-102.5 -17.5q-119 0 -191.5 82t-72.5 215t73 215t191 82q58 0 103 -16.5t70.5 -42.5t39 -48t20.5 -44l-118 -43q-35 78 -115 78q-61 0 -95.5 -51t-34.5 -130
t34 -129.5t96 -50.5z" />
    <glyph glyph-name="Ccircumflex.sc" horiz-adv-x="622" 
d="M396 635l-67 81l-67 -81h-124l132 161h118l129 -161h-121zM329 107q83 0 116 78l116 -42q-7 -20 -20 -41.5t-38.5 -49t-71 -45t-102.5 -17.5q-119 0 -191.5 82t-72.5 215t73 215t191 82q58 0 103 -16.5t70.5 -42.5t39 -48t20.5 -44l-118 -43q-35 78 -115 78
q-61 0 -95.5 -51t-34.5 -130t34 -129.5t96 -50.5z" />
    <glyph glyph-name="Cdotaccent.sc" horiz-adv-x="622" 
d="M263 637v152h132v-152h-132zM329 107q83 0 116 78l116 -42q-7 -20 -20 -41.5t-38.5 -49t-71 -45t-102.5 -17.5q-119 0 -191.5 82t-72.5 215t73 215t191 82q58 0 103 -16.5t70.5 -42.5t39 -48t20.5 -44l-118 -43q-35 78 -115 78q-61 0 -95.5 -51t-34.5 -130t34 -129.5
t96 -50.5z" />
    <glyph glyph-name="Ccaron.sc" horiz-adv-x="622" 
d="M136 796h124l69 -81l68 81h122l-133 -161h-116zM329 107q83 0 116 78l116 -42q-7 -20 -20 -41.5t-38.5 -49t-71 -45t-102.5 -17.5q-119 0 -191.5 82t-72.5 215t73 215t191 82q58 0 103 -16.5t70.5 -42.5t39 -48t20.5 -44l-118 -43q-35 78 -115 78q-61 0 -95.5 -51
t-34.5 -130t34 -129.5t96 -50.5z" />
    <glyph glyph-name="D.sc" horiz-adv-x="673" 
d="M101 0v574h207q140 0 220.5 -74t80.5 -213q0 -137 -81 -212t-220 -75h-207zM306 462h-75v-349h75q80 0 125.5 46t45.5 128q0 84 -45 129.5t-126 45.5z" />
    <glyph glyph-name="Dcaron.sc" horiz-adv-x="673" 
d="M123 796h124l69 -81l68 81h122l-133 -161h-116zM101 0v574h207q140 0 220.5 -74t80.5 -213q0 -137 -81 -212t-220 -75h-207zM306 462h-75v-349h75q80 0 125.5 46t45.5 128q0 84 -45 129.5t-126 45.5z" />
    <glyph glyph-name="E.sc" horiz-adv-x="623" 
d="M101 0v574h442v-106h-312v-113h256v-110h-256v-135h341v-110h-471z" />
    <glyph glyph-name="Egrave.sc" horiz-adv-x="623" 
d="M398 637h-135l-110 156h143zM101 0v574h442v-106h-312v-113h256v-110h-256v-135h341v-110h-471z" />
    <glyph glyph-name="Eacute.sc" horiz-adv-x="623" 
d="M253 637l103 156h143l-111 -156h-135zM101 0v574h442v-106h-312v-113h256v-110h-256v-135h341v-110h-471z" />
    <glyph glyph-name="Ecircumflex.sc" horiz-adv-x="623" 
d="M386 635l-67 81l-67 -81h-124l132 161h118l129 -161h-121zM101 0v574h442v-106h-312v-113h256v-110h-256v-135h341v-110h-471z" />
    <glyph glyph-name="Edieresis.sc" horiz-adv-x="623" 
d="M149 637v149h127v-149h-127zM362 637v149h127v-149h-127zM101 0v574h442v-106h-312v-113h256v-110h-256v-135h341v-110h-471z" />
    <glyph glyph-name="Emacron.sc" horiz-adv-x="623" 
d="M486 665h-334v100h334v-100zM101 0v574h442v-106h-312v-113h256v-110h-256v-135h341v-110h-471z" />
    <glyph glyph-name="Ebreve.sc" horiz-adv-x="623" 
d="M319 722q28 0 42.5 17.5t14.5 43.5v11h100v-13q0 -66 -40.5 -108.5t-116.5 -42.5t-116.5 42.5t-40.5 108.5v13h100v-11q0 -26 14.5 -43.5t42.5 -17.5zM101 0v574h442v-106h-312v-113h256v-110h-256v-135h341v-110h-471z" />
    <glyph glyph-name="Edotaccent.sc" horiz-adv-x="623" 
d="M253 637v152h132v-152h-132zM101 0v574h442v-106h-312v-113h256v-110h-256v-135h341v-110h-471z" />
    <glyph glyph-name="Eogonek.sc" horiz-adv-x="623" 
d="M101 0v574h442v-106h-312v-113h256v-110h-256v-135h341v-110h-83q-60 -51 -69 -68q-6 -9 -6 -17q0 -26 33 -26h62v-96h-108q-58 0 -91.5 23t-33.5 68q0 23 15 46.5t27 34t43 35.5h-260z" />
    <glyph glyph-name="Ecaron.sc" horiz-adv-x="623" 
d="M127 796h124l69 -81l68 81h122l-133 -161h-116zM101 0v574h442v-106h-312v-113h256v-110h-256v-135h341v-110h-471z" />
    <glyph glyph-name="F.sc" horiz-adv-x="615" 
d="M101 0v574h466v-107h-336v-120h281v-110h-281v-237h-130z" />
    <glyph glyph-name="G.sc" horiz-adv-x="673" 
d="M343 474q-68 0 -108 -51t-40 -133q0 -86 44.5 -137.5t122.5 -51.5q68 0 104 21v110h-114v104h238v-277q-30 -26 -88.5 -48t-139.5 -22q-136 0 -216.5 82t-80.5 219q0 130 77.5 212.5t199.5 82.5q56 0 101 -14t71 -35.5t39.5 -39.5t20.5 -35l-117 -42q-42 55 -114 55z" />
    <glyph glyph-name="Gcircumflex.sc" horiz-adv-x="673" 
d="M409 635l-67 81l-67 -81h-124l132 161h118l129 -161h-121zM343 474q-68 0 -108 -51t-40 -133q0 -86 44.5 -137.5t122.5 -51.5q68 0 104 21v110h-114v104h238v-277q-30 -26 -88.5 -48t-139.5 -22q-136 0 -216.5 82t-80.5 219q0 130 77.5 212.5t199.5 82.5q56 0 101 -14
t71 -35.5t39.5 -39.5t20.5 -35l-117 -42q-42 55 -114 55z" />
    <glyph glyph-name="Gbreve.sc" horiz-adv-x="673" 
d="M342 722q28 0 42.5 17.5t14.5 43.5v11h100v-13q0 -66 -40.5 -108.5t-116.5 -42.5t-116.5 42.5t-40.5 108.5v13h100v-11q0 -26 14.5 -43.5t42.5 -17.5zM343 474q-68 0 -108 -51t-40 -133q0 -86 44.5 -137.5t122.5 -51.5q68 0 104 21v110h-114v104h238v-277
q-30 -26 -88.5 -48t-139.5 -22q-136 0 -216.5 82t-80.5 219q0 130 77.5 212.5t199.5 82.5q56 0 101 -14t71 -35.5t39.5 -39.5t20.5 -35l-117 -42q-42 55 -114 55z" />
    <glyph glyph-name="Gdotaccent.sc" horiz-adv-x="673" 
d="M276 637v152h132v-152h-132zM343 474q-68 0 -108 -51t-40 -133q0 -86 44.5 -137.5t122.5 -51.5q68 0 104 21v110h-114v104h238v-277q-30 -26 -88.5 -48t-139.5 -22q-136 0 -216.5 82t-80.5 219q0 130 77.5 212.5t199.5 82.5q56 0 101 -14t71 -35.5t39.5 -39.5t20.5 -35
l-117 -42q-42 55 -114 55z" />
    <glyph glyph-name="Gcommaaccent.sc" horiz-adv-x="673" 
d="M343 474q-68 0 -108 -51t-40 -133q0 -86 44.5 -137.5t122.5 -51.5q68 0 104 21v110h-114v104h238v-277q-30 -26 -88.5 -48t-139.5 -22q-136 0 -216.5 82t-80.5 219q0 130 77.5 212.5t199.5 82.5q56 0 101 -14t71 -35.5t39.5 -39.5t20.5 -35l-117 -42q-42 55 -114 55z
M409 -322h-87q34 62 40 114h-66v127h145v-101q0 -68 -32 -140z" />
    <glyph glyph-name="H.sc" horiz-adv-x="713" 
d="M101 0v574h130v-229h251v229h130v-574h-130v230h-251v-230h-130z" />
    <glyph glyph-name="Hcircumflex.sc" horiz-adv-x="713" 
d="M423 635l-67 81l-67 -81h-124l132 161h118l129 -161h-121zM101 0v574h130v-229h251v229h130v-574h-130v230h-251v-230h-130z" />
    <glyph glyph-name="I.sc" horiz-adv-x="334" 
d="M102 0v574h130v-574h-130z" />
    <glyph glyph-name="Igrave.sc" horiz-adv-x="334" 
d="M235 637h-135l-110 156h143zM102 0v574h130v-574h-130z" />
    <glyph glyph-name="Iacute.sc" horiz-adv-x="334" 
d="M100 637l103 156h143l-111 -156h-135zM102 0v574h130v-574h-130z" />
    <glyph glyph-name="Icircumflex.sc" horiz-adv-x="334" 
d="M234 635l-67 81l-67 -81h-124l132 161h118l129 -161h-121zM102 0v574h130v-574h-130z" />
    <glyph glyph-name="Idieresis.sc" horiz-adv-x="334" 
d="M-3 637v149h127v-149h-127zM210 637v149h127v-149h-127zM102 0v574h130v-574h-130z" />
    <glyph glyph-name="Itilde.sc" horiz-adv-x="334" 
d="M168 671l-35 20q-22 12 -31 12q-16 0 -16 -22v-48h-93v77q0 45 21 70.5t63 25.5q15 0 32.5 -6t25.5 -10.5t31 -17.5l35 -19q24 -13 31 -13q16 0 16 23v48h93v-77q0 -45 -21 -70.5t-63 -25.5q-32 0 -89 33zM102 0v574h130v-574h-130z" />
    <glyph glyph-name="Imacron.sc" horiz-adv-x="334" 
d="M334 665h-334v100h334v-100zM102 0v574h130v-574h-130z" />
    <glyph glyph-name="Ibreve.sc" horiz-adv-x="334" 
d="M167 722q28 0 42.5 17.5t14.5 43.5v11h100v-13q0 -66 -40.5 -108.5t-116.5 -42.5t-116.5 42.5t-40.5 108.5v13h100v-11q0 -26 14.5 -43.5t42.5 -17.5zM102 0v574h130v-574h-130z" />
    <glyph glyph-name="Iogonek.sc" horiz-adv-x="334" 
d="M102 0v574h130v-574q-60 -51 -69 -68q-6 -9 -6 -17q0 -26 33 -26h63v-96h-109q-58 0 -91.5 23t-33.5 68q0 23 14 46t27.5 35t41.5 35z" />
    <glyph glyph-name="Idotaccent.sc" horiz-adv-x="334" 
d="M101 637v152h132v-152h-132zM102 0v574h130v-574h-130z" />
    <glyph glyph-name="J.sc" horiz-adv-x="582" 
d="M484 182q0 -89 -54.5 -140.5t-152.5 -51.5q-96 0 -148 51t-52 141v85h124v-75q0 -40 19.5 -63t56.5 -23t56.5 23.5t19.5 62.5v382h131v-392z" />
    <glyph glyph-name="Jcircumflex.sc" horiz-adv-x="582" 
d="M485 635l-67 81l-67 -81h-124l132 161h118l129 -161h-121zM484 182q0 -89 -54.5 -140.5t-152.5 -51.5q-96 0 -148 51t-52 141v85h124v-75q0 -40 19.5 -63t56.5 -23t56.5 23.5t19.5 62.5v382h131v-392z" />
    <glyph glyph-name="K.sc" horiz-adv-x="648" 
d="M101 0v574h130v-246l227 246h162l-255 -275l268 -299h-169l-233 254v-254h-130z" />
    <glyph glyph-name="Kcommaaccent.sc" horiz-adv-x="642" 
d="M101 0v574h130v-246l227 246h162l-255 -275l268 -299h-169l-233 254v-254h-130zM386 -322h-87q34 62 40 114h-66v127h145v-101q0 -68 -32 -140z" />
    <glyph glyph-name="L.sc" horiz-adv-x="562" 
d="M101 0v574h130v-458h288v-116h-418z" />
    <glyph glyph-name="Lacute.sc" horiz-adv-x="562" 
d="M102 637l103 156h143l-111 -156h-135zM101 0v574h130v-458h288v-116h-418z" />
    <glyph glyph-name="Lcommaaccent.sc" horiz-adv-x="562" 
d="M101 0v574h130v-458h288v-116h-418zM357 -322h-87q34 62 40 114h-66v127h145v-101q0 -68 -32 -140z" />
    <glyph glyph-name="Lcaron.sc" horiz-adv-x="562" 
d="M282 428l50 194h115l-57 -194h-108zM101 0v574h130v-458h288v-116h-418z" />
    <glyph glyph-name="M.sc" horiz-adv-x="836" 
d="M101 0v574h191l128 -373l128 373h187v-574h-125v445l-153 -447h-85l-153 445v-443h-118z" />
    <glyph glyph-name="N.sc" horiz-adv-x="714" 
d="M613 574v-577h-105l-282 401v-398h-125v574h146l243 -353v353h123z" />
    <glyph glyph-name="Ntilde.sc" horiz-adv-x="714" 
d="M365 671l-35 20q-22 12 -31 12q-16 0 -16 -22v-48h-93v77q0 45 21 70.5t63 25.5q15 0 32.5 -6t25.5 -10.5t31 -17.5l35 -19q24 -13 31 -13q16 0 16 23v48h93v-77q0 -45 -21 -70.5t-63 -25.5q-32 0 -89 33zM613 574v-577h-105l-282 401v-398h-125v574h146l243 -353v353
h123z" />
    <glyph glyph-name="Nacute.sc" horiz-adv-x="714" 
d="M297 637l103 156h143l-111 -156h-135zM613 574v-577h-105l-282 401v-398h-125v574h146l243 -353v353h123z" />
    <glyph glyph-name="Ncommaaccent.sc" horiz-adv-x="714" 
d="M613 574v-577h-105l-282 401v-398h-125v574h146l243 -353v353h123zM407 -322h-87q34 62 40 114h-66v127h145v-101q0 -68 -32 -140z" />
    <glyph glyph-name="Ncaron.sc" horiz-adv-x="714" 
d="M171 796h124l69 -81l68 81h122l-133 -161h-116zM613 574v-577h-105l-282 401v-398h-125v574h146l243 -353v353h123z" />
    <glyph glyph-name="O.sc" horiz-adv-x="676" 
d="M338 -10q-121 0 -197 81t-76 216t76.5 216t196.5 81t196.5 -81t76.5 -216q0 -134 -77 -215.5t-196 -81.5zM338 106q66 0 103 50.5t37 130.5t-37 130.5t-103 50.5t-103.5 -50.5t-37.5 -130.5t37.5 -130.5t103.5 -50.5z" />
    <glyph glyph-name="Ograve.sc" horiz-adv-x="676" 
d="M406 637h-135l-110 156h143zM338 -10q-121 0 -197 81t-76 216t76.5 216t196.5 81t196.5 -81t76.5 -216q0 -134 -77 -215.5t-196 -81.5zM338 106q66 0 103 50.5t37 130.5t-37 130.5t-103 50.5t-103.5 -50.5t-37.5 -130.5t37.5 -130.5t103.5 -50.5z" />
    <glyph glyph-name="Oacute.sc" horiz-adv-x="676" 
d="M271 637l103 156h143l-111 -156h-135zM338 -10q-121 0 -197 81t-76 216t76.5 216t196.5 81t196.5 -81t76.5 -216q0 -134 -77 -215.5t-196 -81.5zM338 106q66 0 103 50.5t37 130.5t-37 130.5t-103 50.5t-103.5 -50.5t-37.5 -130.5t37.5 -130.5t103.5 -50.5z" />
    <glyph glyph-name="Ocircumflex.sc" horiz-adv-x="676" 
d="M405 635l-67 81l-67 -81h-124l132 161h118l129 -161h-121zM338 -10q-121 0 -197 81t-76 216t76.5 216t196.5 81t196.5 -81t76.5 -216q0 -134 -77 -215.5t-196 -81.5zM338 106q66 0 103 50.5t37 130.5t-37 130.5t-103 50.5t-103.5 -50.5t-37.5 -130.5t37.5 -130.5
t103.5 -50.5z" />
    <glyph glyph-name="Otilde.sc" horiz-adv-x="676" 
d="M339 671l-35 20q-22 12 -31 12q-16 0 -16 -22v-48h-93v77q0 45 21 70.5t63 25.5q15 0 32.5 -6t25.5 -10.5t31 -17.5l35 -19q24 -13 31 -13q16 0 16 23v48h93v-77q0 -45 -21 -70.5t-63 -25.5q-32 0 -89 33zM338 -10q-121 0 -197 81t-76 216t76.5 216t196.5 81t196.5 -81
t76.5 -216q0 -134 -77 -215.5t-196 -81.5zM338 106q66 0 103 50.5t37 130.5t-37 130.5t-103 50.5t-103.5 -50.5t-37.5 -130.5t37.5 -130.5t103.5 -50.5z" />
    <glyph glyph-name="Odieresis.sc" horiz-adv-x="676" 
d="M168 637v149h127v-149h-127zM381 637v149h127v-149h-127zM338 -10q-121 0 -197 81t-76 216t76.5 216t196.5 81t196.5 -81t76.5 -216q0 -134 -77 -215.5t-196 -81.5zM338 106q66 0 103 50.5t37 130.5t-37 130.5t-103 50.5t-103.5 -50.5t-37.5 -130.5t37.5 -130.5
t103.5 -50.5z" />
    <glyph glyph-name="Omacron.sc" horiz-adv-x="676" 
d="M505 665h-334v100h334v-100zM338 -10q-121 0 -197 81t-76 216t76.5 216t196.5 81t196.5 -81t76.5 -216q0 -134 -77 -215.5t-196 -81.5zM338 106q66 0 103 50.5t37 130.5t-37 130.5t-103 50.5t-103.5 -50.5t-37.5 -130.5t37.5 -130.5t103.5 -50.5z" />
    <glyph glyph-name="Obreve.sc" horiz-adv-x="676" 
d="M338 722q28 0 42.5 17.5t14.5 43.5v11h100v-13q0 -66 -40.5 -108.5t-116.5 -42.5t-116.5 42.5t-40.5 108.5v13h100v-11q0 -26 14.5 -43.5t42.5 -17.5zM338 -10q-121 0 -197 81t-76 216t76.5 216t196.5 81t196.5 -81t76.5 -216q0 -134 -77 -215.5t-196 -81.5zM338 106
q66 0 103 50.5t37 130.5t-37 130.5t-103 50.5t-103.5 -50.5t-37.5 -130.5t37.5 -130.5t103.5 -50.5z" />
    <glyph glyph-name="Ohungarumlaut.sc" horiz-adv-x="676" 
d="M376 637l77 156h124l-84 -156h-117zM179 637l76 156h124l-82 -156h-118zM338 -10q-121 0 -197 81t-76 216t76.5 216t196.5 81t196.5 -81t76.5 -216q0 -134 -77 -215.5t-196 -81.5zM338 106q66 0 103 50.5t37 130.5t-37 130.5t-103 50.5t-103.5 -50.5t-37.5 -130.5
t37.5 -130.5t103.5 -50.5z" />
    <glyph glyph-name="P.sc" horiz-adv-x="647" 
d="M101 0v574h286q98 0 151.5 -46.5t53.5 -133.5q0 -86 -53.5 -133.5t-151.5 -47.5h-156v-213h-130zM373 464h-142v-140h142q42 0 64 18.5t22 51.5q0 70 -86 70z" />
    <glyph glyph-name="Q.sc" horiz-adv-x="676" 
d="M338 -9q-121 0 -197 81t-76 215q0 135 76.5 216t196.5 81t196.5 -81t76.5 -216q0 -89 -35.5 -156.5t-98.5 -103.5l123 -150h-157l-97 114h-8zM338 106q65 0 102.5 51t37.5 130t-37.5 130t-102.5 51q-66 0 -103.5 -50.5t-37.5 -130.5t37.5 -130.5t103.5 -50.5z" />
    <glyph glyph-name="R.sc" horiz-adv-x="670" 
d="M101 0v574h289q95 0 148 -45.5t53 -131.5q0 -120 -105 -158l138 -239h-139l-128 223h-127v-223h-129zM374 464h-144v-134h144q84 0 84 67t-84 67z" />
    <glyph glyph-name="Racute.sc" horiz-adv-x="670" 
d="M258 637l103 156h143l-111 -156h-135zM101 0v574h289q95 0 148 -45.5t53 -131.5q0 -120 -105 -158l138 -239h-139l-128 223h-127v-223h-129zM374 464h-144v-134h144q84 0 84 67t-84 67z" />
    <glyph glyph-name="Rcommaaccent.sc" horiz-adv-x="670" 
d="M101 0v574h289q95 0 148 -45.5t53 -131.5q0 -120 -105 -158l138 -239h-139l-128 223h-127v-223h-129zM374 464h-144v-134h144q84 0 84 67t-84 67zM393 -322h-87q34 62 40 114h-66v127h145v-101q0 -68 -32 -140z" />
    <glyph glyph-name="Rcaron.sc" horiz-adv-x="670" 
d="M132 796h124l69 -81l68 81h122l-133 -161h-116zM101 0v574h289q95 0 148 -45.5t53 -131.5q0 -120 -105 -158l138 -239h-139l-128 223h-127v-223h-129zM374 464h-144v-134h144q84 0 84 67t-84 67z" />
    <glyph glyph-name="S.sc" horiz-adv-x="613" 
d="M314 94q47 0 74.5 18.5t27.5 50.5q0 55 -83 68q-20 3 -61 8q-99 13 -152 54.5t-53 121.5q0 78 63 124t164 46q57 0 102 -12t72.5 -32.5t42.5 -38t24 -36.5l-118 -41q-43 56 -122 56q-45 0 -70 -16.5t-25 -43.5q0 -48 80 -61q25 -4 61 -8q101 -12 155 -53t54 -126
q0 -82 -63 -133t-173 -51q-61 0 -110 14t-78.5 37.5t-46 44t-25.5 41.5l123 45q42 -77 137 -77z" />
    <glyph glyph-name="Sacute.sc" horiz-adv-x="613" 
d="M233 637l103 156h143l-111 -156h-135zM314 94q47 0 74.5 18.5t27.5 50.5q0 55 -83 68q-20 3 -61 8q-99 13 -152 54.5t-53 121.5q0 78 63 124t164 46q57 0 102 -12t72.5 -32.5t42.5 -38t24 -36.5l-118 -41q-43 56 -122 56q-45 0 -70 -16.5t-25 -43.5q0 -48 80 -61
q25 -4 61 -8q101 -12 155 -53t54 -126q0 -82 -63 -133t-173 -51q-61 0 -110 14t-78.5 37.5t-46 44t-25.5 41.5l123 45q42 -77 137 -77z" />
    <glyph glyph-name="Scircumflex.sc" horiz-adv-x="613" 
d="M366 635l-67 81l-67 -81h-124l132 161h118l129 -161h-121zM314 94q47 0 74.5 18.5t27.5 50.5q0 55 -83 68q-20 3 -61 8q-99 13 -152 54.5t-53 121.5q0 78 63 124t164 46q57 0 102 -12t72.5 -32.5t42.5 -38t24 -36.5l-118 -41q-43 56 -122 56q-45 0 -70 -16.5t-25 -43.5
q0 -48 80 -61q25 -4 61 -8q101 -12 155 -53t54 -126q0 -82 -63 -133t-173 -51q-61 0 -110 14t-78.5 37.5t-46 44t-25.5 41.5l123 45q42 -77 137 -77z" />
    <glyph glyph-name="Scedilla.sc" horiz-adv-x="613" 
d="M314 94q47 0 74.5 18.5t27.5 50.5q0 55 -83 68q-20 3 -61 8q-99 13 -152 54.5t-53 121.5q0 78 63 124t164 46q57 0 102 -12t72.5 -32.5t42.5 -38t24 -36.5l-118 -41q-43 56 -122 56q-45 0 -70 -16.5t-25 -43.5q0 -48 80 -61q25 -4 61 -8q101 -12 155 -53t54 -126
q0 -80 -60.5 -131t-167.5 -53v-38q56 0 85 -29.5t29 -80.5q0 -54 -31 -85.5t-93 -31.5h-110v88h92q36 0 36 32q0 30 -36 30h-70v124q-72 16 -113 53t-57 75l123 45q42 -77 137 -77z" />
    <glyph glyph-name="Scaron.sc" horiz-adv-x="613" 
d="M107 796h124l69 -81l68 81h122l-133 -161h-116zM314 94q47 0 74.5 18.5t27.5 50.5q0 55 -83 68q-20 3 -61 8q-99 13 -152 54.5t-53 121.5q0 78 63 124t164 46q57 0 102 -12t72.5 -32.5t42.5 -38t24 -36.5l-118 -41q-43 56 -122 56q-45 0 -70 -16.5t-25 -43.5
q0 -48 80 -61q25 -4 61 -8q101 -12 155 -53t54 -126q0 -82 -63 -133t-173 -51q-61 0 -110 14t-78.5 37.5t-46 44t-25.5 41.5l123 45q42 -77 137 -77z" />
    <glyph glyph-name="Scommaaccent.sc" horiz-adv-x="613" 
d="M314 94q47 0 74.5 18.5t27.5 50.5q0 55 -83 68q-20 3 -61 8q-99 13 -152 54.5t-53 121.5q0 78 63 124t164 46q57 0 102 -12t72.5 -32.5t42.5 -38t24 -36.5l-118 -41q-43 56 -122 56q-45 0 -70 -16.5t-25 -43.5q0 -48 80 -61q25 -4 61 -8q101 -12 155 -53t54 -126
q0 -82 -63 -133t-173 -51q-61 0 -110 14t-78.5 37.5t-46 44t-25.5 41.5l123 45q42 -77 137 -77zM363 -322h-87q34 62 40 114h-66v127h145v-101q0 -68 -32 -140z" />
    <glyph glyph-name="T.sc" horiz-adv-x="615" 
d="M243 0v460h-200v114h529v-114h-199v-460h-130z" />
    <glyph glyph-name="Tcommaaccent.sc" horiz-adv-x="615" 
d="M243 0v460h-200v114h529v-114h-199v-460h-130zM349 -322h-87q34 62 40 114h-66v127h145v-101q0 -68 -32 -140z" />
    <glyph glyph-name="Tcaron.sc" horiz-adv-x="615" 
d="M115 796h124l69 -81l68 81h122l-133 -161h-116zM243 0v460h-200v114h529v-114h-199v-460h-130z" />
    <glyph glyph-name="uni021A.sc" horiz-adv-x="615" 
d="M243 0v460h-200v114h529v-114h-199v-460h-130zM349 -322h-87q34 62 40 114h-66v127h145v-101q0 -68 -32 -140z" />
    <glyph glyph-name="U.sc" horiz-adv-x="700" 
d="M473 239v335h129v-344q0 -105 -66 -173t-185 -68q-123 0 -188.5 67.5t-65.5 173.5v344h131v-335q0 -59 32 -94.5t91 -35.5q57 0 89.5 35.5t32.5 94.5z" />
    <glyph glyph-name="Ugrave.sc" horiz-adv-x="700" 
d="M425 637h-135l-110 156h143zM473 239v335h129v-344q0 -105 -66 -173t-185 -68q-123 0 -188.5 67.5t-65.5 173.5v344h131v-335q0 -59 32 -94.5t91 -35.5q57 0 89.5 35.5t32.5 94.5z" />
    <glyph glyph-name="Uacute.sc" horiz-adv-x="700" 
d="M278 637l103 156h143l-111 -156h-135zM473 239v335h129v-344q0 -105 -66 -173t-185 -68q-123 0 -188.5 67.5t-65.5 173.5v344h131v-335q0 -59 32 -94.5t91 -35.5q57 0 89.5 35.5t32.5 94.5z" />
    <glyph glyph-name="Ucircumflex.sc" horiz-adv-x="700" 
d="M418 635l-67 81l-67 -81h-124l132 161h118l129 -161h-121zM473 239v335h129v-344q0 -105 -66 -173t-185 -68q-123 0 -188.5 67.5t-65.5 173.5v344h131v-335q0 -59 32 -94.5t91 -35.5q57 0 89.5 35.5t32.5 94.5z" />
    <glyph glyph-name="Udieresis.sc" horiz-adv-x="700" 
d="M181 637v149h127v-149h-127zM394 637v149h127v-149h-127zM473 239v335h129v-344q0 -105 -66 -173t-185 -68q-123 0 -188.5 67.5t-65.5 173.5v344h131v-335q0 -59 32 -94.5t91 -35.5q57 0 89.5 35.5t32.5 94.5z" />
    <glyph glyph-name="Utilde.sc" horiz-adv-x="700" 
d="M352 671l-35 20q-22 12 -31 12q-16 0 -16 -22v-48h-93v77q0 45 21 70.5t63 25.5q15 0 32.5 -6t25.5 -10.5t31 -17.5l35 -19q24 -13 31 -13q16 0 16 23v48h93v-77q0 -45 -21 -70.5t-63 -25.5q-32 0 -89 33zM473 239v335h129v-344q0 -105 -66 -173t-185 -68
q-123 0 -188.5 67.5t-65.5 173.5v344h131v-335q0 -59 32 -94.5t91 -35.5q57 0 89.5 35.5t32.5 94.5z" />
    <glyph glyph-name="Umacron.sc" horiz-adv-x="700" 
d="M518 665h-334v100h334v-100zM473 239v335h129v-344q0 -105 -66 -173t-185 -68q-123 0 -188.5 67.5t-65.5 173.5v344h131v-335q0 -59 32 -94.5t91 -35.5q57 0 89.5 35.5t32.5 94.5z" />
    <glyph glyph-name="Ubreve.sc" horiz-adv-x="700" 
d="M351 722q28 0 42.5 17.5t14.5 43.5v11h100v-13q0 -66 -40.5 -108.5t-116.5 -42.5t-116.5 42.5t-40.5 108.5v13h100v-11q0 -26 14.5 -43.5t42.5 -17.5zM473 239v335h129v-344q0 -105 -66 -173t-185 -68q-123 0 -188.5 67.5t-65.5 173.5v344h131v-335q0 -59 32 -94.5
t91 -35.5q57 0 89.5 35.5t32.5 94.5z" />
    <glyph glyph-name="Uring.sc" horiz-adv-x="700" 
d="M351 627q-58 0 -96 37.5t-38 93.5q0 57 38 95t96 38t96.5 -38t38.5 -95q0 -56 -38.5 -93.5t-96.5 -37.5zM351 698q26 0 42.5 17t16.5 43q0 27 -16.5 44t-42.5 17t-42.5 -17t-16.5 -44q0 -26 16.5 -43t42.5 -17zM473 239v335h129v-344q0 -105 -66 -173t-185 -68
q-123 0 -188.5 67.5t-65.5 173.5v344h131v-335q0 -59 32 -94.5t91 -35.5q57 0 89.5 35.5t32.5 94.5z" />
    <glyph glyph-name="Uhungarumlaut.sc" horiz-adv-x="700" 
d="M387 637l77 156h124l-84 -156h-117zM190 637l76 156h124l-82 -156h-118zM473 239v335h129v-344q0 -105 -66 -173t-185 -68q-123 0 -188.5 67.5t-65.5 173.5v344h131v-335q0 -59 32 -94.5t91 -35.5q57 0 89.5 35.5t32.5 94.5z" />
    <glyph glyph-name="Uogonek.sc" horiz-adv-x="700" 
d="M502 16q-43 -40 -60.5 -61t-17.5 -39q0 -27 33 -27h63v-96h-109q-58 0 -91.5 23t-33.5 68q0 53 86 106q-7 -1 -21 -1q-123 0 -188.5 67.5t-65.5 173.5v344h131v-335q0 -59 32 -94.5t91 -35.5q57 0 89.5 35.5t32.5 94.5v335h129v-344q0 -119 -100 -214z" />
    <glyph glyph-name="V.sc" horiz-adv-x="636" 
d="M254 -1l-222 575h146l147 -406l144 406h135l-213 -575h-137z" />
    <glyph glyph-name="W.sc" horiz-adv-x="875" 
d="M499 576l110 -391l104 389h123l-161 -576h-126l-112 383l-112 -383h-118l-168 576h136l103 -380l108 382h113z" />
    <glyph glyph-name="Wcircumflex.sc" horiz-adv-x="875" 
d="M505 635l-67 81l-67 -81h-124l132 161h118l129 -161h-121zM499 576l110 -391l104 389h123l-161 -576h-126l-112 383l-112 -383h-118l-168 576h136l103 -380l108 382h113z" />
    <glyph glyph-name="Wgrave.sc" horiz-adv-x="875" 
d="M506 637h-135l-110 156h143zM499 576l110 -391l104 389h123l-161 -576h-126l-112 383l-112 -383h-118l-168 576h136l103 -380l108 382h113z" />
    <glyph glyph-name="Wacute.sc" horiz-adv-x="875" 
d="M371 637l103 156h143l-111 -156h-135zM499 576l110 -391l104 389h123l-161 -576h-126l-112 383l-112 -383h-118l-168 576h136l103 -380l108 382h113z" />
    <glyph glyph-name="Wdieresis.sc" horiz-adv-x="875" 
d="M268 637v149h127v-149h-127zM481 637v149h127v-149h-127zM499 576l110 -391l104 389h123l-161 -576h-126l-112 383l-112 -383h-118l-168 576h136l103 -380l108 382h113z" />
    <glyph glyph-name="X.sc" horiz-adv-x="673" 
d="M179 0h-151l231 293l-219 281h166l135 -176l138 176h152l-215 -273l230 -301h-159l-153 197z" />
    <glyph glyph-name="Y.sc" horiz-adv-x="608" 
d="M240 231l-224 343h159l138 -218l137 218h142l-216 -346v-228h-136v231z" />
    <glyph glyph-name="Yacute.sc" horiz-adv-x="608" 
d="M235 637l103 156h143l-111 -156h-135zM240 231l-224 343h159l138 -218l137 218h142l-216 -346v-228h-136v231z" />
    <glyph glyph-name="Ycircumflex.sc" horiz-adv-x="608" 
d="M380 635l-67 81l-67 -81h-124l132 161h118l129 -161h-121zM240 231l-224 343h159l138 -218l137 218h142l-216 -346v-228h-136v231z" />
    <glyph glyph-name="Ydieresis.sc" horiz-adv-x="608" 
d="M143 637v149h127v-149h-127zM356 637v149h127v-149h-127zM240 231l-224 343h159l138 -218l137 218h142l-216 -346v-228h-136v231z" />
    <glyph glyph-name="Ygrave.sc" horiz-adv-x="608" 
d="M386 637h-135l-110 156h143zM240 231l-224 343h159l138 -218l137 218h142l-216 -346v-228h-136v231z" />
    <glyph glyph-name="Z.sc" horiz-adv-x="628" 
d="M60 0v74l298 388h-291v112h481v-73l-299 -387h329v-114h-518z" />
    <glyph glyph-name="Zacute.sc" horiz-adv-x="628" 
d="M233 637l103 156h143l-111 -156h-135zM60 0v74l298 388h-291v112h481v-73l-299 -387h329v-114h-518z" />
    <glyph glyph-name="Zdotaccent.sc" horiz-adv-x="628" 
d="M239 637v152h132v-152h-132zM60 0v74l298 388h-291v112h481v-73l-299 -387h329v-114h-518z" />
    <glyph glyph-name="Zcaron.sc" horiz-adv-x="628" 
d="M112 796h124l69 -81l68 81h122l-133 -161h-116zM60 0v74l298 388h-291v112h481v-73l-299 -387h329v-114h-518z" />
    <glyph glyph-name="AE.sc" horiz-adv-x="887" 
d="M5 0l317 574h486v-106h-278v-113h221v-109h-221v-135h306v-111h-434v123h-191l-67 -123h-139zM268 228h134v246z" />
    <glyph glyph-name="AEacute.sc" horiz-adv-x="887" 
d="M496 637l103 156h143l-111 -156h-135zM5 0l317 574h486v-106h-278v-113h221v-109h-221v-135h306v-111h-434v123h-191l-67 -123h-139zM268 228h134v246z" />
    <glyph glyph-name="Eth.sc" horiz-adv-x="676" 
d="M104 0v236h-77v106h77v232h207q140 0 220.5 -74t80.5 -213q0 -137 -81 -212t-220 -75h-207zM370 236h-136v-125h75q80 0 125.5 46.5t45.5 129.5q0 85 -45 130.5t-126 45.5h-75v-121h136v-106z" />
    <glyph glyph-name="Oslash.sc" horiz-adv-x="676" 
d="M45 0l77 96q-57 78 -57 191q0 135 76 216t196 81q81 0 146 -41l25 31h122l-77 -96q58 -79 58 -191q0 -134 -76.5 -215.5t-195.5 -81.5q-83 0 -148 42l-25 -32h-121zM190 287q0 -54 13 -92l208 261q-29 16 -73 16q-69 0 -108.5 -52t-39.5 -133zM338 102q69 0 108 52
t39 133q0 55 -13 93l-209 -261q31 -17 75 -17z" />
    <glyph glyph-name="Oslashacute.sc" horiz-adv-x="676" 
d="M271 637l103 156h143l-111 -156h-135zM45 0l77 96q-57 78 -57 191q0 135 76 216t196 81q81 0 146 -41l25 31h122l-77 -96q58 -79 58 -191q0 -134 -76.5 -215.5t-195.5 -81.5q-83 0 -148 42l-25 -32h-121zM190 287q0 -54 13 -92l208 261q-29 16 -73 16q-69 0 -108.5 -52
t-39.5 -133zM338 102q69 0 108 52t39 133q0 55 -13 93l-209 -261q31 -17 75 -17z" />
    <glyph glyph-name="Thorn.sc" horiz-adv-x="647" 
d="M101 0v574h130v-103h161q96 0 148 -45.5t52 -131.5q0 -85 -52.5 -131.5t-148.5 -46.5h-160v-116h-130zM377 360h-146v-133h146q40 0 60.5 18t20.5 49q0 66 -81 66z" />
    <glyph glyph-name="Dcroat.sc" horiz-adv-x="676" 
d="M104 0v236h-77v106h77v232h207q140 0 220.5 -74t80.5 -213q0 -137 -81 -212t-220 -75h-207zM370 236h-136v-125h75q80 0 125.5 46.5t45.5 129.5q0 85 -45 130.5t-126 45.5h-75v-121h136v-106z" />
    <glyph glyph-name="Hbar.sc" horiz-adv-x="713" 
d="M101 0v417h-72v84h72v73h130v-73h251v73h130v-73h72v-84h-72v-417h-130v230h-251v-230h-130zM231 345h251v72h-251v-72z" />
    <glyph glyph-name="IJ.sc" horiz-adv-x="917" 
d="M102 0v574h130v-574h-130zM818 182q0 -89 -54.5 -140.5t-152.5 -51.5q-96 0 -148 51t-52 141v85h124v-75q0 -40 19.5 -63t56.5 -23t56.5 23.5t19.5 62.5v382h131v-392z" />
    <glyph glyph-name="Ldot.sc" 
d="M101 0v574h130v-458h288v-116h-418zM392 261v170h153v-170h-153z" />
    <glyph glyph-name="Lslash.sc" horiz-adv-x="565" 
d="M104 0v172l-78 -38v105l78 39v296h130v-232l179 89v-108l-179 -87v-120h288v-116h-418z" />
    <glyph glyph-name="Eng.sc" horiz-adv-x="715" 
d="M495 -14q0 27 -35 77l-234 335v-398h-125v574h147l243 -354v354h123v-596q0 -72 -34 -106t-102 -34h-113v98h68q62 0 62 50z" />
    <glyph glyph-name="OE.sc" horiz-adv-x="896" 
d="M368 0q-138 0 -221 76.5t-83 210.5q0 133 83.5 210t220.5 77h450v-106h-279v-113h221v-109h-221v-135h306v-111h-477zM370 113h42v349h-42q-81 0 -127.5 -48.5t-46.5 -126.5t46.5 -126t127.5 -48z" />
    <glyph glyph-name="Tbar.sc" horiz-adv-x="615" 
d="M243 0v236h-134v100h134v124h-200v114h529v-114h-199v-124h134v-100h-134v-236h-130z" />
    <glyph glyph-name="uni018F.sc" horiz-adv-x="676" 
d="M330 471q-87 0 -126 -81l-115 43q27 65 86 108t156 43q121 0 200.5 -80.5t79.5 -216.5q0 -134 -77 -215.5t-197 -81.5q-121 0 -196.5 77t-75.5 212q0 20 4 50h411q-6 64 -46 103t-104 39zM337 103q60 0 96.5 33.5t45.5 93.5h-282q9 -61 45.5 -94t94.5 -33z" />
    <glyph glyph-name="uni0402.sc" horiz-adv-x="801" 
d="M232 0v460h-189v114h529v-114h-210v-133q47 13 115 13q115 0 176.5 -54.5t61.5 -157.5q0 -90 -57.5 -151.5t-149.5 -61.5q-49 0 -89 17l45 102q16 -7 38 -7q39 0 60 27.5t21 70.5q0 102 -116 102q-28 0 -54 -3t-39 -6l-12 -3v-215h-130z" />
    <glyph glyph-name="uni0404.sc" horiz-adv-x="622" 
d="M329 103q83 0 116 81l116 -41q-7 -20 -20 -41.5t-38.5 -49t-71 -45t-102.5 -17.5q-119 0 -191.5 82t-72.5 215t73 215t191 82q58 0 103 -16.5t70.5 -42.5t39 -48t20.5 -44l-118 -43q-33 81 -115 81q-55 0 -88.5 -36t-41.5 -93h176v-108h-177q8 -58 42.5 -94.5t88.5 -36.5
z" />
    <glyph glyph-name="uni0405.sc" horiz-adv-x="613" 
d="M314 94q47 0 74.5 18.5t27.5 50.5q0 55 -83 68q-20 3 -61 8q-99 13 -152 54.5t-53 121.5q0 78 63 124t164 46q57 0 102 -12t72.5 -32.5t42.5 -38t24 -36.5l-118 -41q-43 56 -122 56q-45 0 -70 -16.5t-25 -43.5q0 -48 80 -61q25 -4 61 -8q101 -12 155 -53t54 -126
q0 -82 -63 -133t-173 -51q-61 0 -110 14t-78.5 37.5t-46 44t-25.5 41.5l123 45q42 -77 137 -77z" />
    <glyph glyph-name="uni0406.sc" horiz-adv-x="334" 
d="M102 0v574h130v-574h-130z" />
    <glyph glyph-name="uni0407.sc" horiz-adv-x="334" 
d="M-3 637v149h127v-149h-127zM210 637v149h127v-149h-127zM102 0v574h130v-574h-130z" />
    <glyph glyph-name="uni0408.sc" horiz-adv-x="588" 
d="M484 182q0 -89 -54.5 -140.5t-152.5 -51.5q-96 0 -148 51t-52 141v85h124v-75q0 -40 19.5 -63t56.5 -23t56.5 23.5t19.5 62.5v382h131v-392z" />
    <glyph glyph-name="uni0409.sc" horiz-adv-x="969" 
d="M127 244l32 330h400v-185h142q101 0 156.5 -51.5t55.5 -143.5q0 -94 -55 -144t-156 -50h-273v459h-162l-21 -226q-12 -127 -52.5 -184t-134.5 -57h-14l-15 123h13q46 0 61.5 25t22.5 104zM687 278h-128v-167h128q93 0 93 83q0 39 -23.5 61.5t-69.5 22.5z" />
    <glyph glyph-name="uni040A.sc" horiz-adv-x="1006" 
d="M101 0v574h130v-205h241v205h129v-205h138q101 0 156.5 -48.5t55.5 -136.5q0 -89 -55 -136.5t-156 -47.5h-268v254h-241v-254h-130zM727 258h-126v-147h126q91 0 91 73q0 34 -23.5 54t-67.5 20z" />
    <glyph glyph-name="uni040B.sc" horiz-adv-x="793" 
d="M232 0v460h-189v114h529v-114h-210v-133q50 13 123 13q111 0 166 -55t55 -172v-113h-130v110q0 62 -25.5 89.5t-79.5 27.5q-29 0 -56.5 -3t-40.5 -6l-12 -3v-215h-130z" />
    <glyph glyph-name="uni040F.sc" horiz-adv-x="703" 
d="M101 574h130v-459h241v459h130v-574h-193v-161h-116v161h-192v574z" />
    <glyph glyph-name="uni0410.sc" horiz-adv-x="646" 
d="M480 0l-39 105h-245l-39 -105h-127l221 576h144l221 -576h-136zM236 212h165l-82 221z" />
    <glyph glyph-name="uni04D0.sc" horiz-adv-x="646" 
d="M320 722q28 0 42.5 17.5t14.5 43.5v11l100 -12v-3q0 -66 -40.5 -107.5t-116.5 -41.5t-116.5 41.5t-40.5 107.5v4l100 11v-11q0 -26 14 -43.5t43 -17.5zM480 0l-39 105h-245l-39 -105h-127l221 576h144l221 -576h-136zM236 212h165l-82 221z" />
    <glyph glyph-name="uni0411.sc" horiz-adv-x="650" 
d="M375 358q100 0 155 -46.5t55 -130.5q0 -87 -54.5 -134t-154.5 -47h-275v574h440v-111h-310v-105h144zM361 254h-130v-147h130q91 0 91 74q0 34 -23.5 53.5t-67.5 19.5z" />
    <glyph glyph-name="uni0412.sc" horiz-adv-x="665" 
d="M101 0v574h306q86 0 133 -41.5t47 -111.5q0 -44 -25 -75t-61 -43q43 -12 72 -48t29 -91q0 -76 -52 -120t-150 -44h-299zM384 471h-155v-125h156q32 0 51 16t19 47q0 62 -71 62zM377 245h-148v-142h148q91 0 91 71t-91 71z" />
    <glyph glyph-name="uni0413.sc" horiz-adv-x="606" 
d="M101 0v574h466v-114h-336v-460h-130z" />
    <glyph glyph-name="uni0403.sc" horiz-adv-x="606" 
d="M263 637l103 156h143l-111 -156h-135zM101 0v574h466v-114h-336v-460h-130z" />
    <glyph glyph-name="uni0414.sc" horiz-adv-x="686" 
d="M149 574h418v-459h98v-276h-117v161h-423v-161h-117v276h59q43 61 60 230zM245 339q-16 -162 -49 -224h241v344h-180z" />
    <glyph glyph-name="uni0415.sc" horiz-adv-x="621" 
d="M101 0v574h442v-106h-312v-113h256v-110h-256v-135h341v-110h-471z" />
    <glyph glyph-name="uni0401.sc" horiz-adv-x="621" 
d="M149 637v149h127v-149h-127zM362 637v149h127v-149h-127zM101 0v574h442v-106h-312v-113h256v-110h-256v-135h341v-110h-471z" />
    <glyph glyph-name="uni04D6.sc" horiz-adv-x="621" 
d="M322 722q28 0 42.5 17.5t14.5 43.5v11l100 -12v-3q0 -66 -40.5 -107.5t-116.5 -41.5t-116.5 41.5t-40.5 107.5v4l100 11v-11q0 -26 14 -43.5t43 -17.5zM101 0v574h442v-106h-312v-113h256v-110h-256v-135h341v-110h-471z" />
    <glyph glyph-name="uni0416.sc" horiz-adv-x="905" 
d="M17 0l247 292l-241 282h155l207 -243v243h130v-243l207 243h152l-238 -277l251 -297h-159l-213 251v-251h-130v251l-213 -251h-155z" />
    <glyph glyph-name="uni04C1.sc" horiz-adv-x="905" 
d="M450 722q28 0 42.5 17.5t14.5 43.5v11l100 -12v-3q0 -66 -40.5 -107.5t-116.5 -41.5t-116.5 41.5t-40.5 107.5v4l100 11v-11q0 -26 14 -43.5t43 -17.5zM17 0l247 292l-241 282h155l207 -243v243h130v-243l207 243h152l-238 -277l251 -297h-159l-213 251v-251h-130v251
l-213 -251h-155z" />
    <glyph glyph-name="uni0417.sc" horiz-adv-x="627" 
d="M317 -10q-107 0 -169.5 45.5t-85.5 107.5l116 41q11 -31 45 -57.5t94 -26.5q55 0 83.5 20t28.5 56q0 69 -91 69h-70v101h67q80 0 80 62q0 67 -101 67q-91 0 -126 -84l-116 42q23 65 84.5 108t157.5 43q111 0 172.5 -44t61.5 -119q0 -44 -24 -75t-59 -44q42 -12 70 -46
t28 -83q0 -83 -63.5 -133t-182.5 -50z" />
    <glyph glyph-name="uni0418.sc" horiz-adv-x="723" 
d="M101 0v574h130v-388l261 388h130v-574h-130v388l-261 -388h-130z" />
    <glyph glyph-name="uni0419.sc" horiz-adv-x="723" 
d="M361 722q28 0 42.5 17.5t14.5 43.5v11l100 -12v-3q0 -66 -40.5 -107.5t-116.5 -41.5t-116.5 41.5t-40.5 107.5v4l100 11v-11q0 -26 14 -43.5t43 -17.5zM101 0v574h130v-388l261 388h130v-574h-130v388l-261 -388h-130z" />
    <glyph glyph-name="uni04E2.sc" horiz-adv-x="723" 
d="M528 665h-334v100h334v-100zM101 0v574h130v-388l261 388h130v-574h-130v388l-261 -388h-130z" />
    <glyph glyph-name="uni041A.sc" horiz-adv-x="648" 
d="M101 0v574h130v-246l227 246h162l-255 -275l268 -299h-169l-233 254v-254h-130z" />
    <glyph glyph-name="uni040C.sc" horiz-adv-x="648" 
d="M264 637l103 156h143l-111 -156h-135zM101 0v574h130v-246l227 246h162l-255 -275l268 -299h-169l-233 254v-254h-130z" />
    <glyph glyph-name="uni041B.sc" horiz-adv-x="679" 
d="M127 244l32 330h419v-574h-130v459h-181l-21 -226q-12 -127 -52.5 -184t-134.5 -57h-14l-15 123h13q46 0 61.5 25t22.5 104z" />
    <glyph glyph-name="uni041C.sc" horiz-adv-x="836" 
d="M101 0v574h191l128 -373l128 373h187v-574h-125v445l-153 -447h-85l-153 445v-443h-118z" />
    <glyph glyph-name="uni041D.sc" horiz-adv-x="713" 
d="M101 0v574h130v-229h251v229h130v-574h-130v230h-251v-230h-130z" />
    <glyph glyph-name="uni041E.sc" horiz-adv-x="676" 
d="M338 -10q-121 0 -197 81t-76 216t76.5 216t196.5 81t196.5 -81t76.5 -216q0 -134 -77 -215.5t-196 -81.5zM338 106q66 0 103 50.5t37 130.5t-37 130.5t-103 50.5t-103.5 -50.5t-37.5 -130.5t37.5 -130.5t103.5 -50.5z" />
    <glyph glyph-name="uni04E6.sc" horiz-adv-x="676" 
d="M168 637v149h127v-149h-127zM381 637v149h127v-149h-127zM338 -10q-121 0 -197 81t-76 216t76.5 216t196.5 81t196.5 -81t76.5 -216q0 -134 -77 -215.5t-196 -81.5zM338 106q66 0 103 50.5t37 130.5t-37 130.5t-103 50.5t-103.5 -50.5t-37.5 -130.5t37.5 -130.5
t103.5 -50.5z" />
    <glyph glyph-name="uni041F.sc" horiz-adv-x="703" 
d="M101 0v574h501v-574h-130v459h-241v-459h-130z" />
    <glyph glyph-name="uni0420.sc" horiz-adv-x="647" 
d="M101 0v574h286q98 0 151.5 -46.5t53.5 -133.5q0 -86 -53.5 -133.5t-151.5 -47.5h-156v-213h-130zM373 464h-142v-140h142q42 0 64 18.5t22 51.5q0 70 -86 70z" />
    <glyph glyph-name="uni0421.sc" horiz-adv-x="622" 
d="M329 107q83 0 116 78l116 -42q-7 -20 -20 -41.5t-38.5 -49t-71 -45t-102.5 -17.5q-119 0 -191.5 82t-72.5 215t73 215t191 82q58 0 103 -16.5t70.5 -42.5t39 -48t20.5 -44l-118 -43q-35 78 -115 78q-61 0 -95.5 -51t-34.5 -130t34 -129.5t96 -50.5z" />
    <glyph glyph-name="uni0422.sc" horiz-adv-x="615" 
d="M243 0v460h-200v114h529v-114h-199v-460h-130z" />
    <glyph glyph-name="uni0423.sc" horiz-adv-x="633" 
d="M55 150v7l121 20v-26q0 -51 41 -51q21 0 33 13t31 50l-246 411h153l160 -274l134 274h135l-214 -426q-41 -84 -80.5 -122t-106.5 -38q-77 0 -119 43t-42 119z" />
    <glyph glyph-name="uni040E.sc" horiz-adv-x="633" 
d="M346 722q28 0 42.5 17.5t14.5 43.5v11l100 -12v-3q0 -66 -40.5 -107.5t-116.5 -41.5t-116.5 41.5t-40.5 107.5v4l100 11v-11q0 -26 14 -43.5t43 -17.5zM55 150v7l121 20v-26q0 -51 41 -51q21 0 33 13t31 50l-246 411h153l160 -274l134 274h135l-214 -426
q-41 -84 -80.5 -122t-106.5 -38q-77 0 -119 43t-42 119z" />
    <glyph glyph-name="uni04EE.sc" horiz-adv-x="633" 
d="M514 665h-334v100h334v-100zM55 150v7l121 20v-26q0 -51 41 -51q21 0 33 13t31 50l-246 411h153l160 -274l134 274h135l-214 -426q-41 -84 -80.5 -122t-106.5 -38q-77 0 -119 43t-42 119z" />
    <glyph glyph-name="uni04F2.sc" horiz-adv-x="633" 
d="M368 638l77 156h124l-84 -156h-117zM171 638l76 156h124l-82 -156h-118zM55 150v7l121 20v-26q0 -51 41 -51q21 0 33 13t31 50l-246 411h153l160 -274l134 274h135l-214 -426q-41 -84 -80.5 -122t-106.5 -38q-77 0 -119 43t-42 119z" />
    <glyph glyph-name="uni0424.sc" horiz-adv-x="908" 
d="M272 93q-104 0 -161 53t-57 148q0 97 56.5 148.5t160.5 51.5h118v90h130v-90h118q104 0 160 -51.5t56 -148.5q0 -96 -56.5 -148.5t-160.5 -52.5h-117v-103h-130v103h-117zM389 204v179h-104q-97 0 -97 -89q0 -42 25 -66t72 -24h104zM622 383h-103v-179h103q48 0 72.5 24
t24.5 66q0 89 -97 89z" />
    <glyph glyph-name="uni0425.sc" horiz-adv-x="673" 
d="M179 0h-151l231 293l-219 281h166l135 -176l138 176h152l-215 -273l230 -301h-159l-153 197z" />
    </font>
</defs>
</svg>
