<?xml version="1.0" standalone="no"?>
<!DOCTYPE svg PUBLIC "-//W3C//DTD SVG 1.1//EN" "http://www.w3.org/Graphics/SVG/1.1/DTD/svg11.dtd" >
<svg xmlns="http://www.w3.org/2000/svg" xmlns:xlink="http://www.w3.org/1999/xlink" version="1.1">
<metadata>
Created by FontForge 20220308 at Thu Sep 27 16:56:22 2018
 By romain pradier
Copyright (c) 2018 Commercial Type, Inc.. All rights reserved.
</metadata>
<defs>
<font id="BurberryStyrene-Regular" horiz-adv-x="650" >
  <font-face 
    font-family="Burberry Styrene Regular"
    font-weight="400"
    font-stretch="normal"
    units-per-em="1000"
    panose-1="0 0 0 0 0 0 0 0 0 0"
    ascent="786"
    descent="-214"
    x-height="494"
    cap-height="710"
    bbox="-79 -325 1379 1199"
    underline-thickness="76"
    underline-position="-152"
    unicode-range="U+0020-F6D4"
  />
<missing-glyph horiz-adv-x="500" 
d="M50 -214v950h400v-950h-400zM100 -164h300v850h-300v-850z" />
    <glyph glyph-name=".notdef" horiz-adv-x="500" 
d="M50 -214v950h400v-950h-400zM100 -164h300v850h-300v-850z" />
    <glyph glyph-name=".null" horiz-adv-x="0" 
 />
    <glyph glyph-name="nonmarkingreturn" horiz-adv-x="333" 
 />
    <glyph glyph-name="space" unicode=" " horiz-adv-x="265" 
 />
    <glyph glyph-name="exclam" unicode="!" horiz-adv-x="336" 
d="M123 232v478h90v-478h-90zM110 0v142h116v-142h-116z" />
    <glyph glyph-name="quotedbl" unicode="&#x22;" horiz-adv-x="469" 
d="M183 405h-81v305h81v-305zM367 405h-81v305h81v-305z" />
    <glyph glyph-name="numbersign" unicode="#" horiz-adv-x="741" 
d="M103 0l56 191h-129v71h150l58 196h-130v71h151l54 181h80l-54 -181h163l54 181h80l-54 -181h129v-71h-150l-58 -196h130v-71h-151l-57 -191h-79l56 191h-163l-57 -191h-79zM260 262h163l58 196h-163z" />
    <glyph glyph-name="dollar" unicode="$" horiz-adv-x="599" 
d="M169 215q2 -61 35 -97t95 -36t96 30t34 79q0 83 -103 114l-73 22q-86 25 -127 72.5t-41 129.5q0 75 49.5 124.5t128.5 59.5v116h78v-117q81 -10 125 -61t45 -132l-92 -9q-1 52 -31.5 86.5t-88.5 34.5q-55 0 -87.5 -27.5t-32.5 -74.5q0 -82 103 -113l73 -22
q85 -26 127 -73.5t42 -129.5q0 -76 -48.5 -128t-134.5 -62v-124h-78v123q-89 10 -138.5 66t-49.5 140z" />
    <glyph glyph-name="percent" unicode="%" horiz-adv-x="1014" 
d="M252 356q-77 0 -129.5 52.5t-52.5 130.5t52.5 130.5t129.5 52.5t129.5 -52.5t52.5 -130.5t-52.5 -130.5t-129.5 -52.5zM208 0l502 710h95l-503 -710h-94zM252 430q45 0 74 31t29 78t-29 78t-74 31t-74 -31t-29 -78t29 -78t74 -31zM762 -14q-77 0 -129.5 52.5t-52.5 130.5
t52.5 130.5t129.5 52.5t129.5 -52.5t52.5 -130.5t-52.5 -130.5t-129.5 -52.5zM762 60q45 0 74 31t29 78t-29 78t-74 31t-74 -31t-29 -78t29 -78t74 -31z" />
    <glyph glyph-name="ampersand" unicode="&#x26;" horiz-adv-x="750" 
d="M646 -8l-134 128q-60 -67 -112.5 -99.5t-127.5 -32.5q-96 0 -155 50t-59 134q0 72 45 122t126 97q-44 45 -67 84.5t-23 83.5q0 70 52 116.5t133 46.5q83 0 132.5 -44.5t49.5 -117.5q0 -57 -37.5 -99t-99.5 -83l140 -137l131 149l63 -53l-135 -154l136 -135zM234 560
q0 -32 20.5 -60.5t62.5 -69.5q48 34 72.5 64t24.5 66q0 39 -25 62t-65 23q-39 0 -64.5 -23.5t-25.5 -61.5zM154 175q0 -46 32.5 -74.5t85.5 -28.5q48 0 88.5 25t92.5 80l-167 159q-33 -21 -50.5 -34t-39.5 -34t-32 -44t-10 -49z" />
    <glyph glyph-name="quotesingle" unicode="'" horiz-adv-x="287" 
d="M185 405h-83v305h83v-305z" />
    <glyph glyph-name="parenleft" unicode="(" horiz-adv-x="356" 
d="M171 350q0 -107 22 -207t44.5 -153t54.5 -114h-83q-119 228 -119 474q0 244 119 472h83q-33 -62 -55 -113.5t-44 -151.5t-22 -207z" />
    <glyph glyph-name="parenright" unicode=")" horiz-adv-x="356" 
d="M185 350q0 107 -22 207t-44 151.5t-55 113.5h83q119 -228 119 -472q0 -246 -119 -474h-83q32 61 54.5 114t44.5 153t22 207z" />
    <glyph glyph-name="asterisk" unicode="*" horiz-adv-x="479" 
d="M205 736h68v-143l137 46l21 -61l-140 -47l97 -124l-52 -38l-96 124l-96 -124l-52 38l97 124l-141 47l21 61l136 -45v142z" />
    <glyph glyph-name="plus" unicode="+" horiz-adv-x="686" 
d="M302 50v226h-218v78h218v226h82v-226h218v-78h-218v-226h-82z" />
    <glyph glyph-name="comma" unicode="," horiz-adv-x="292" 
d="M124 -227l-57 26q74 104 75 201h-54v142h116v-134q0 -128 -80 -235z" />
    <glyph glyph-name="hyphen" unicode="-" horiz-adv-x="496" 
d="M84 252v86h328v-86h-328z" />
    <glyph glyph-name="period" unicode="." horiz-adv-x="292" 
d="M88 0v142h116v-142h-116z" />
    <glyph glyph-name="slash" unicode="/" horiz-adv-x="414" 
d="M36 -70l254 830h82l-254 -830h-82z" />
    <glyph glyph-name="zero" unicode="0" horiz-adv-x="692" 
d="M346 722q114 0 181 -69t67 -190v-216q0 -125 -67.5 -192t-180.5 -67t-180.5 67t-67.5 192v216q0 121 67 190t181 69zM346 76q73 0 112.5 47.5t39.5 124.5v214q0 77 -39.5 124.5t-112.5 47.5t-112.5 -47.5t-39.5 -124.5v-214q0 -77 39.5 -124.5t112.5 -47.5z" />
    <glyph glyph-name="one" unicode="1" horiz-adv-x="445" 
d="M323 0h-97v600l-176 -102v92l201 123h72v-713z" />
    <glyph glyph-name="two" unicode="2" horiz-adv-x="618" 
d="M574 88v-88h-499v60l240 237q65 65 93 108.5t28 97.5q0 59 -35.5 95t-96.5 36q-65 0 -97.5 -40t-36.5 -99l-94 13q5 93 65.5 153.5t162.5 60.5q105 0 167 -61.5t62 -157.5q0 -53 -23 -102.5t-50.5 -81t-81.5 -84.5l-150 -147h346z" />
    <glyph glyph-name="three" unicode="3" horiz-adv-x="641" 
d="M319 76q69 0 110.5 33.5t41.5 91.5t-38 90t-107 32h-58v88h61q57 0 89 29t32 83q0 52 -37.5 82t-98.5 30q-109 0 -137 -106l-91 28q5 27 20 53.5t40.5 53t69 42.5t97.5 16q109 0 171 -54t62 -141q0 -60 -30 -98.5t-69 -55.5q48 -14 85 -58.5t37 -119.5
q0 -92 -67.5 -149.5t-182.5 -57.5q-52 0 -94.5 13t-68.5 31.5t-46 44t-29 45t-15 40.5l92 29q42 -115 161 -115z" />
    <glyph glyph-name="four" unicode="4" horiz-adv-x="688" 
d="M650 219h-151v-219h-94v219h-360v53l348 438h106v-407h151v-84zM173 303h232v295z" />
    <glyph glyph-name="five" unicode="5" horiz-adv-x="651" 
d="M194 314h-80v396h436v-88h-344v-206q52 52 144 52q96 0 161.5 -63t65.5 -171v-11q0 -104 -68.5 -169.5t-180.5 -65.5q-61 0 -108 17.5t-74 47t-42 57.5t-22 59l91 26l8 -24t15.5 -29.5t27.5 -32.5t42.5 -22.5t61.5 -10.5q68 0 110.5 41t42.5 106v10q0 67 -42 107t-111 40
q-89 0 -134 -66z" />
    <glyph glyph-name="six" unicode="6" horiz-adv-x="654" 
d="M582 230q0 -105 -69 -173.5t-187 -68.5q-119 0 -186.5 67t-67.5 175q0 73 28.5 130t86.5 133l166 217h115l-207 -263q39 21 94 21q100 0 163.5 -65t63.5 -173zM485 230q0 69 -41.5 112.5t-117.5 43.5q-71 0 -114 -44t-43 -112q0 -66 42 -110t115 -44q75 0 117 44t42 110z
" />
    <glyph glyph-name="seven" unicode="7" horiz-adv-x="618" 
d="M211 0h-106l348 622h-388v88h498v-73z" />
    <glyph glyph-name="eight" unicode="8" horiz-adv-x="670" 
d="M348 722q108 0 168 -54.5t60 -141.5q0 -65 -34 -106t-79 -54q50 -15 88.5 -59.5t38.5 -114.5q0 -91 -66 -147.5t-178 -56.5h-27q-109 0 -174 56.5t-65 147.5q0 70 38.5 114.5t88.5 59.5q-45 13 -79 54t-34 106q0 87 60.5 141.5t167.5 54.5h26zM190 522q0 -52 36.5 -83
t95.5 -31h26q59 0 95.5 31t36.5 83t-36.5 83t-95.5 31h-26q-59 0 -95.5 -31t-36.5 -83zM178 198q0 -56 39.5 -90t102.5 -34h30q64 0 103 34t39 90t-39 90t-103 34h-30q-63 0 -102.5 -34t-39.5 -90z" />
    <glyph glyph-name="nine" unicode="9" horiz-adv-x="654" 
d="M72 480q0 105 69 173.5t187 68.5q119 0 186.5 -67t67.5 -175q0 -73 -28.5 -130t-86.5 -133l-166 -217h-115l207 263q-39 -21 -94 -21q-100 0 -163.5 65t-63.5 173zM169 480q0 -69 41.5 -112.5t117.5 -43.5q71 0 114 44t43 112q0 66 -42 110t-115 44q-75 0 -117 -44
t-42 -110z" />
    <glyph glyph-name="colon" unicode=":" horiz-adv-x="302" 
d="M93 343v142h116v-142h-116zM93 0v142h116v-142h-116z" />
    <glyph glyph-name="semicolon" unicode=";" horiz-adv-x="302" 
d="M93 343v142h116v-142h-116zM129 -227l-57 26q74 104 75 201h-54v142h116v-134q0 -128 -80 -235z" />
    <glyph glyph-name="less" unicode="&#x3c;" horiz-adv-x="639" 
d="M545 147v-87l-461 201v69l461 201v-89l-352 -148z" />
    <glyph glyph-name="equal" unicode="=" horiz-adv-x="704" 
d="M616 370h-528v77h528v-77zM616 166h-528v77h528v-77z" />
    <glyph glyph-name="greater" unicode="&#x3e;" horiz-adv-x="639" 
d="M555 261l-461 -201v89l352 148l-352 147v87l461 -201v-69z" />
    <glyph glyph-name="question" unicode="?" horiz-adv-x="526" 
d="M295 232h-92v9q0 46 12 70.5t56 67.5l45 44q58 58 58 114q0 47 -30 75t-81 28q-34 0 -58 -12.5t-35 -33t-15.5 -36.5t-6.5 -33l-89 18q7 80 60 129.5t144 49.5q96 0 150 -49.5t54 -135.5q0 -54 -22 -92.5t-71 -85.5l-46 -43q-19 -18 -26 -36t-7 -48zM191 0v142h116v-142
h-116z" />
    <glyph glyph-name="at" unicode="@" horiz-adv-x="1030" 
d="M735 499l-51 -288q-13 -74 50 -74q58 0 102 59t44 166q0 140 -91.5 227t-254.5 87q-168 0 -275.5 -110t-107.5 -288q0 -171 107 -277.5t285 -106.5q66 0 124.5 14t98 36t58.5 35.5t32 25.5l64 -36q-16 -20 -44 -42t-74 -47.5t-114.5 -42t-144.5 -16.5q-147 0 -256 62
t-163.5 165t-54.5 232q0 203 131.5 335.5t333.5 132.5q103 0 186 -32t135 -86t79 -123t27 -146q0 -128 -63.5 -212t-165.5 -84q-52 0 -82.5 19.5t-37.5 50.5q-40 -70 -125 -70q-81 0 -131.5 56t-50.5 154q0 97 56 163t147 66q51 0 83.5 -24t45.5 -56l14 75h84zM515 422
q-53 0 -85.5 -42t-32.5 -107q0 -58 26 -92t74 -34q53 0 85.5 42t32.5 107q0 58 -26 92t-74 34z" />
    <glyph glyph-name="A" unicode="A" horiz-adv-x="744" 
d="M609 0l-70 171h-340l-70 -171h-96l296 714h86l296 -714h-102zM236 259h266l-133 324z" />
    <glyph glyph-name="B" unicode="B" horiz-adv-x="752" 
d="M110 0v710h346q100 0 154 -50.5t54 -140.5q0 -54 -33 -93.5t-79 -53.5q55 -14 91.5 -58.5t36.5 -109.5q0 -96 -63 -150t-184 -54h-323zM451 621h-245v-210h246q53 0 82.5 27.5t29.5 77.5q0 105 -113 105zM430 322h-224v-233h224q151 0 151 117q0 116 -151 116z" />
    <glyph glyph-name="C" unicode="C" horiz-adv-x="730" 
d="M381 -12q-139 0 -224 105t-85 262t85 262t224 105q56 0 103 -14t76.5 -34.5t52 -47.5t32.5 -48.5t16 -41.5l-91 -33q-8 18 -19.5 36t-33 41t-57 37t-79.5 14q-98 0 -152.5 -79.5t-54.5 -196.5t54.5 -196.5t152.5 -79.5q132 0 192 130l86 -31q-5 -18 -15 -38.5t-32 -48.5
t-51.5 -50t-76.5 -37.5t-103 -15.5z" />
    <glyph glyph-name="D" unicode="D" horiz-adv-x="779" 
d="M110 0v710h237q166 0 264 -96.5t98 -258.5q0 -160 -98 -257.5t-264 -97.5h-237zM347 621h-140v-532h140q121 0 191.5 72t70.5 194q0 125 -70 195.5t-192 70.5z" />
    <glyph glyph-name="E" unicode="E" horiz-adv-x="705" 
d="M110 0v710h510v-90h-414v-198h340v-90h-340v-242h451v-90h-547z" />
    <glyph glyph-name="F" unicode="F" horiz-adv-x="692" 
d="M110 0v710h539v-91h-442v-197h368v-91h-368v-331h-97z" />
    <glyph glyph-name="G" unicode="G" horiz-adv-x="777" 
d="M688 83q-99 -95 -273 -95q-155 0 -249 103t-94 265q0 158 91 262t233 104q64 0 115.5 -15.5t82.5 -40.5t48.5 -48t26.5 -46l-92 -33q-65 93 -181 93q-104 0 -164 -78t-60 -198q0 -126 65.5 -202t177.5 -76q118 0 181 45v188h-186v87h278v-315z" />
    <glyph glyph-name="H" unicode="H" horiz-adv-x="807" 
d="M110 0v710h97v-307h393v307h97v-710h-97v313h-393v-313h-97z" />
    <glyph glyph-name="I" unicode="I" horiz-adv-x="319" 
d="M111 0v710h97v-710h-97z" />
    <glyph glyph-name="J" unicode="J" horiz-adv-x="632" 
d="M525 216q0 -110 -60.5 -168.5t-161.5 -58.5q-99 0 -159 58.5t-60 168.5v98h96v-98q0 -63 32.5 -99t90.5 -36q60 0 92.5 36t32.5 99v494h97v-494z" />
    <glyph glyph-name="K" unicode="K" horiz-adv-x="722" 
d="M110 0v710h97v-326l353 326h133l-379 -348l399 -362h-136l-370 329v-329h-97z" />
    <glyph glyph-name="L" unicode="L" horiz-adv-x="644" 
d="M110 0v710h97v-619h394v-91h-491z" />
    <glyph glyph-name="M" unicode="M" horiz-adv-x="951" 
d="M110 0v710h149l219 -566l218 566h145v-710h-92v618l-242 -622h-67l-240 616v-612h-90z" />
    <glyph glyph-name="N" unicode="N" horiz-adv-x="813" 
d="M703 710v-715h-73l-427 591v-586h-93v710h116l384 -538v538h93z" />
    <glyph glyph-name="O" unicode="O" horiz-adv-x="782" 
d="M391 -12q-145 0 -232 103t-87 264q0 160 87.5 263.5t231.5 103.5q143 0 231 -104t88 -263t-88 -263t-231 -104zM391 78q103 0 161 78t58 199q0 119 -58.5 198t-160.5 79t-160.5 -78.5t-58.5 -198.5q0 -122 58 -199.5t161 -77.5z" />
    <glyph glyph-name="P" unicode="P" horiz-adv-x="723" 
d="M110 0v710h317q115 0 175.5 -52t60.5 -147q0 -93 -61 -148t-175 -55h-220v-308h-97zM430 620h-223v-222h223q65 0 99 30.5t34 80.5q0 53 -33.5 82t-99.5 29z" />
    <glyph glyph-name="Q" unicode="Q" horiz-adv-x="782" 
d="M560 -152l-146 141q-7 -1 -23 -1q-145 0 -232 103t-87 264q0 160 87.5 263.5t231.5 103.5q143 0 231 -104t88 -263q0 -119 -50.5 -209.5t-139.5 -130.5l168 -167h-128zM391 78q103 0 161 78t58 199q0 119 -58.5 198t-160.5 79t-160.5 -78.5t-58.5 -198.5
q0 -122 58 -199.5t161 -77.5z" />
    <glyph glyph-name="R" unicode="R" horiz-adv-x="751" 
d="M110 0v710h320q113 0 173 -50.5t60 -144.5q0 -154 -154 -187l187 -328h-105l-186 320h-198v-320h-97zM429 620h-222v-211h222q134 0 134 106q0 105 -134 105z" />
    <glyph glyph-name="S" unicode="S" horiz-adv-x="706" 
d="M333 634q-74 0 -115.5 -28.5t-41.5 -77.5q0 -84 135 -105q22 -3 52 -7.5t42 -6.5q107 -16 169 -62t62 -145q0 -94 -72 -154.5t-195 -60.5q-57 0 -105.5 12.5t-81 31t-59 43.5t-41 46.5t-24.5 44.5l95 35q11 -19 16 -26t25.5 -30t40.5 -34.5t56 -22.5t77 -11
q77 0 124 33.5t47 88.5q0 54 -37.5 80t-104.5 36q-27 4 -94 14q-107 16 -165.5 61.5t-58.5 136.5q0 90 70.5 143t183.5 53q65 0 117 -14.5t84 -39.5t50 -48t29 -49l-89 -33q-66 96 -191 96z" />
    <glyph glyph-name="T" unicode="T" horiz-adv-x="719" 
d="M311 0v620h-271v90h639v-90h-271v-620h-97z" />
    <glyph glyph-name="U" unicode="U" horiz-adv-x="794" 
d="M590 282v428h97v-436q0 -122 -76.5 -204t-213.5 -82q-141 0 -215.5 80.5t-74.5 205.5v436h97v-428q0 -91 50 -146t143 -55q91 0 142 55.5t51 145.5z" />
    <glyph glyph-name="V" unicode="V" horiz-adv-x="739" 
d="M325 -3l-287 713h107l229 -584l228 584h99l-283 -713h-93z" />
    <glyph glyph-name="W" unicode="W" horiz-adv-x="1040" 
d="M569 714l174 -560l163 556h91l-211 -714h-86l-177 558l-177 -558h-81l-222 714h102l166 -550l171 554h87z" />
    <glyph glyph-name="X" unicode="X" horiz-adv-x="785" 
d="M151 0h-117l297 373l-271 337h127l206 -259l207 259h118l-266 -333l299 -377h-121l-240 299z" />
    <glyph glyph-name="Y" unicode="Y" horiz-adv-x="685" 
d="M297 285l-282 425h120l213 -327l213 327h109l-276 -424v-286h-97v285z" />
    <glyph glyph-name="Z" unicode="Z" horiz-adv-x="709" 
d="M55 0v57l424 563h-415v90h557v-57l-428 -563h471v-90h-609z" />
    <glyph glyph-name="bracketleft" unicode="[" horiz-adv-x="381" 
d="M110 -124v946h246v-68h-168v-810h168v-68h-246z" />
    <glyph glyph-name="backslash" unicode="\" horiz-adv-x="414" 
d="M378 -70h-81l-255 830h82z" />
    <glyph glyph-name="bracketright" unicode="]" horiz-adv-x="381" 
d="M271 -124h-246v68h168v810h-168v68h246v-946z" />
    <glyph glyph-name="asciicircum" unicode="^" horiz-adv-x="585" 
d="M442 263l-151 333l-152 -333h-89l205 453h73l207 -453h-93z" />
    <glyph glyph-name="underscore" unicode="_" horiz-adv-x="624" 
d="M44 -152v76h536v-76h-536z" />
    <glyph glyph-name="grave" unicode="`" horiz-adv-x="600" 
d="M399 579h-93l-105 183h100z" />
    <glyph glyph-name="a" unicode="a" horiz-adv-x="573" 
d="M487 128q0 -45 36 -51v-82q-96 0 -118 74q-47 -80 -151 -80q-86 0 -141 46t-55 121q0 71 48.5 110.5t137.5 39.5h156q0 56 -34.5 88.5t-91.5 32.5q-81 0 -116 -67l-83 29q7 15 18 31t33.5 38t61 35.5t86.5 13.5q103 0 158 -54.5t55 -145.5v-179zM265 65q55 0 95 29t40 74
v66h-151q-46 0 -73 -20t-27 -58q0 -41 31.5 -66t84.5 -25z" />
    <glyph glyph-name="b" unicode="b" horiz-adv-x="611" 
d="M182 77v-77h-90v736h90v-323q9 19 23 36.5t50 37.5t81 20q91 0 152 -70.5t61 -189.5t-61 -189t-152 -70q-34 0 -63 10t-47 26.5t-28 28.5t-16 24zM180 247q0 -76 37 -126t101 -50q62 0 100 50t38 126q0 77 -37.5 126.5t-100.5 49.5q-64 0 -101 -49.5t-37 -126.5z" />
    <glyph glyph-name="c" unicode="c" horiz-adv-x="542" 
d="M404 347q-41 76 -119 76q-58 0 -94.5 -50t-36.5 -126t36.5 -126t95.5 -50q82 0 122 80l78 -28q-4 -14 -14.5 -31.5t-32.5 -43.5t-62 -43t-91 -17q-97 0 -161.5 73.5t-64.5 185.5t64 186t161 74q49 0 87.5 -14t61 -36.5t34 -41.5t18.5 -39z" />
    <glyph glyph-name="d" unicode="d" horiz-adv-x="613" 
d="M430 84q-8 -19 -23 -38.5t-50 -38.5t-80 -19q-92 0 -153.5 70t-61.5 189t61.5 189.5t153.5 70.5q34 0 62.5 -10.5t46.5 -27.5t28 -30t16 -26v323h91v-736h-91v84zM432 247q0 77 -38 126.5t-101 49.5t-100 -49.5t-37 -126.5q0 -76 37 -126t100 -50t101 50t38 126z" />
    <glyph glyph-name="e" unicode="e" horiz-adv-x="565" 
d="M285 507q101 0 162.5 -71t61.5 -188v-14h-357q4 -71 41 -117t101 -46q82 0 128 67l78 -28q-15 -42 -65 -82t-141 -40q-106 0 -170 74t-64 185q0 115 61.5 187.5t163.5 72.5zM285 429q-54 0 -87 -32.5t-43 -90.5h258q-24 123 -128 123z" />
    <glyph glyph-name="f" unicode="f" horiz-adv-x="419" 
d="M31 412v82h114v78q0 164 175 164h127v-82h-117q-94 0 -94 -95v-65h152v-82h-152v-412h-91v412h-114z" />
    <glyph glyph-name="g" unicode="g" horiz-adv-x="607" 
d="M424 78q-6 -12 -15.5 -23.5t-27.5 -29t-45.5 -28t-60.5 -10.5q-90 0 -151.5 70.5t-61.5 188.5q0 119 61.5 189.5t151.5 70.5q33 0 60.5 -10.5t45 -27.5t27.5 -30t16 -26v82h91v-483q0 -110 -58 -173.5t-171 -63.5q-53 0 -95 14t-66 35.5t-36 38t-18 31.5l90 24
q40 -60 125 -60q138 0 138 154v67zM426 246q0 76 -37 126t-97 50q-61 0 -98.5 -50t-37.5 -126q0 -75 37.5 -125t98.5 -50q60 0 97 50t37 125z" />
    <glyph glyph-name="h" unicode="h" horiz-adv-x="609" 
d="M92 0v736h91v-329q16 39 54 68.5t94 29.5q86 0 138 -58t52 -158v-289h-92v272q0 72 -32 110.5t-88 38.5q-59 0 -92.5 -39t-33.5 -110v-272h-91z" />
    <glyph glyph-name="i" unicode="i" horiz-adv-x="277" 
d="M91 589v143h95v-143h-95zM93 0v494h91v-494h-91z" />
    <glyph glyph-name="j" unicode="j" horiz-adv-x="278" 
d="M92 589v143h95v-143h-95zM185 -48q0 -166 -163 -166h-101v85h86q87 0 87 91v532h91v-542z" />
    <glyph glyph-name="k" unicode="k" horiz-adv-x="556" 
d="M92 0v736h88v-454l233 212h125l-260 -233l273 -261h-123l-248 232v-232h-88z" />
    <glyph glyph-name="l" unicode="l" horiz-adv-x="279" 
d="M94 0v736h91v-736h-91z" />
    <glyph glyph-name="m" unicode="m" horiz-adv-x="935" 
d="M92 0v494h91v-77q16 35 51.5 61.5t90.5 26.5q122 0 170 -105q47 105 159 105q90 0 141.5 -57t51.5 -147v-301h-92v284q0 63 -30.5 100t-88.5 37q-57 0 -89 -38t-32 -99v-284h-92v284q0 63 -31.5 100t-88.5 37t-88.5 -38t-31.5 -99v-284h-91z" />
    <glyph glyph-name="n" unicode="n" horiz-adv-x="609" 
d="M92 0v494h91v-83q16 37 54 65.5t94 28.5q86 0 138 -56.5t52 -154.5v-294h-92v277q0 70 -32 107t-88 37q-59 0 -92.5 -37.5t-33.5 -106.5v-277h-91z" />
    <glyph glyph-name="o" unicode="o" horiz-adv-x="584" 
d="M292 506q104 0 168 -73.5t64 -185.5t-64 -185.5t-168 -73.5t-168 73.5t-64 185.5t64 185.5t168 73.5zM292 72q65 0 101.5 49.5t36.5 125.5t-36.5 125.5t-101.5 49.5t-101.5 -49.5t-36.5 -125.5t36 -125.5t102 -49.5z" />
    <glyph glyph-name="p" unicode="p" horiz-adv-x="611" 
d="M182 77v-291h-90v708h90v-81q6 13 16 26t28 30t47 27.5t63 10.5q91 0 152 -70.5t61 -189.5t-61 -189t-152 -70q-44 0 -80 19t-50.5 36t-23.5 34zM180 247q0 -76 37.5 -126t100.5 -50q62 0 100 50t38 126q0 77 -37.5 126.5t-100.5 49.5t-100.5 -49.5t-37.5 -126.5z" />
    <glyph glyph-name="q" unicode="q" horiz-adv-x="613" 
d="M430 82q-13 -33 -51.5 -63.5t-100.5 -30.5q-92 0 -154 70t-62 189t62 189.5t154 70.5q34 0 62 -10.5t46 -27.5t28 -30t16 -26v81h91v-708h-91v296zM432 247q0 77 -37.5 126.5t-100.5 49.5q-64 0 -101 -49.5t-37 -126.5q0 -76 37 -126t101 -50q62 0 100 50t38 126z" />
    <glyph glyph-name="r" unicode="r" horiz-adv-x="449" 
d="M183 279v-279h-91v494h91v-89q14 36 54 64.5t114 28.5h65v-91h-73q-84 0 -122 -31t-38 -97z" />
    <glyph glyph-name="s" unicode="s" horiz-adv-x="538" 
d="M301 205l-69 8q-76 9 -120.5 46.5t-44.5 103.5q0 65 52.5 105t136.5 40q42 0 77 -8.5t56.5 -19.5t38 -27t24 -27t12.5 -22l-80 -29q-39 54 -128 54q-49 0 -74.5 -17t-25.5 -46q0 -56 88 -66l67 -8q169 -20 169 -153q0 -68 -52 -110.5t-143 -42.5q-53 0 -95.5 12.5t-68 33
t-40 39t-23.5 37.5l84 30q39 -71 143 -71q48 0 76 19t28 49q0 60 -88 70z" />
    <glyph glyph-name="t" unicode="t" horiz-adv-x="465" 
d="M145 161v251h-114v82h114v216h91v-216h179v-82h-179v-232q0 -52 21 -74t75 -22h83v-84h-106q-164 0 -164 161z" />
    <glyph glyph-name="u" unicode="u" horiz-adv-x="598" 
d="M300 -10q-102 0 -157 56t-55 150v298h92v-293q0 -57 31 -91t89 -34q57 0 88.5 34t31.5 91v293h90v-298q0 -89 -56 -147.5t-154 -58.5z" />
    <glyph glyph-name="v" unicode="v" horiz-adv-x="534" 
d="M509 494l-199 -503h-81l-204 503h102l144 -373l144 373h94z" />
    <glyph glyph-name="w" unicode="w" horiz-adv-x="809" 
d="M533 -4l-127 375l-127 -375h-81l-170 498h98l119 -365l123 369h84l122 -364l117 360h90l-168 -498h-80z" />
    <glyph glyph-name="x" unicode="x" horiz-adv-x="552" 
d="M131 0h-107l197 246l-198 248h118l138 -176l141 176h109l-196 -244l196 -250h-112l-142 178z" />
    <glyph glyph-name="y" unicode="y" horiz-adv-x="535" 
d="M136 -214l88 222l-199 486h100l146 -367l146 367h93l-283 -708h-91z" />
    <glyph glyph-name="z" unicode="z" horiz-adv-x="559" 
d="M56 0v53l289 359h-285v82h423v-52l-295 -360h327v-82h-459z" />
    <glyph glyph-name="braceleft" unicode="{" horiz-adv-x="401" 
d="M376 -56v-68h-107q-80 0 -118.5 40t-28.5 119l25 193q12 86 -80 86h-23v70h23q91 0 80 86l-25 193q-10 79 28.5 119t118.5 40h107v-68h-89q-100 0 -88 -88l25 -189q8 -57 -15 -88.5t-66 -39.5q43 -8 66 -39.5t15 -88.5l-25 -189q-12 -88 88 -88h89z" />
    <glyph glyph-name="bar" unicode="|" horiz-adv-x="323" 
d="M120 -116v938h83v-938h-83z" />
    <glyph glyph-name="braceright" unicode="}" horiz-adv-x="403" 
d="M279 35q10 -79 -28.5 -119t-118.5 -40h-107v68h89q100 0 88 88l-25 189q-8 57 15 88.5t66 39.5q-43 8 -66 39.5t-15 88.5l25 189q12 88 -88 88h-89v68h107q80 0 118.5 -40t28.5 -119l-25 -193q-11 -86 80 -86h25v-70h-25q-92 0 -80 -86z" />
    <glyph glyph-name="asciitilde" unicode="~" horiz-adv-x="718" 
d="M429 356q12 -17 19 -25.5t20 -18t26 -9.5q46 0 46 63v191h88v-191q0 -70 -33.5 -110.5t-96.5 -40.5q-45 0 -75 22.5t-63 70.5l-71 102q-14 19 -21 28t-19 17t-25 8q-46 0 -46 -63v-187h-88v187q0 70 33.5 110.5t96.5 40.5q45 0 75 -22.5t64 -71.5z" />
    <glyph glyph-name="uni00A0" unicode="&#xa0;" horiz-adv-x="265" 
 />
    <glyph glyph-name="exclamdown" unicode="&#xa1;" horiz-adv-x="336" 
d="M110 494h116v-141h-116v141zM124 262h88v-478h-88v478z" />
    <glyph glyph-name="cent" unicode="&#xa2;" horiz-adv-x="569" 
d="M259 -120v111q-84 15 -138 85.5t-54 170.5q0 101 53.5 172t138.5 85v111h76v-110q74 -9 114 -48t54 -81l-82 -29q-40 76 -124 76q-60 0 -98 -50t-38 -126t38 -126t99 -50q89 0 127 80l78 -28q-3 -12 -12.5 -28.5t-28 -39.5t-52 -41t-75.5 -24v-110h-76z" />
    <glyph glyph-name="sterling" unicode="&#xa3;" horiz-adv-x="671" 
d="M65 0v88h97v186h-97v88h97v149q0 100 56 155.5t151 55.5q99 0 154 -54t56 -157l-95 -10q-5 134 -115 134q-53 0 -82 -33t-29 -93v-147h224v-88h-224v-186h355v-88h-548z" />
    <glyph glyph-name="yen" unicode="&#xa5;" horiz-adv-x="704" 
d="M103 149v78h204v91h-204v78h202l-245 314h117l180 -233l179 233h108l-240 -314h204v-78h-204v-91h204v-78h-204v-149h-97v149h-204z" />
    <glyph glyph-name="brokenbar" unicode="&#xa6;" horiz-adv-x="323" 
d="M120 417v405h83v-405h-83zM120 -116v418h83v-418h-83z" />
    <glyph glyph-name="section" unicode="&#xa7;" horiz-adv-x="687" 
d="M538 -32v-12q0 -90 -52.5 -141t-140.5 -51q-98 0 -145.5 54.5t-47.5 137.5l89 8q1 -54 26.5 -87t77.5 -33q48 0 75.5 30.5t27.5 83.5v10q0 90 -81 106l-152 31q-148 30 -148 166q0 57 36 93.5t93 43.5q-47 45 -47 137v12q0 89 52.5 140.5t140.5 51.5q91 0 142 -49.5
t51 -138.5l-89 -8q-1 48 -26.5 82t-77.5 34q-48 0 -75.5 -30.5t-27.5 -83.5v-10q0 -90 81 -106l152 -31q148 -31 148 -166q0 -55 -34 -92t-94 -47q46 -45 46 -135zM285 357q-58 12 -93 -10t-35 -69q0 -35 22 -58t59 -31l164 -33q58 -12 93 10.5t35 68.5q0 72 -81 89z" />
    <glyph glyph-name="dieresis" unicode="&#xa8;" horiz-adv-x="600" 
d="M162 589v139h92v-139h-92zM346 589v139h92v-139h-92z" />
    <glyph glyph-name="copyright" unicode="&#xa9;" horiz-adv-x="884" 
d="M442 -12q-158 0 -262.5 105t-104.5 262q0 156 105 261.5t262 105.5q156 0 261.5 -105.5t105.5 -261.5t-105.5 -261.5t-261.5 -105.5zM442 56q130 0 211.5 86t81.5 213q0 126 -82 212.5t-211 86.5q-130 0 -211.5 -86.5t-81.5 -212.5q0 -127 82 -213t211 -86zM340 357
q0 -51 29 -86t77 -35q68 0 99 63l73 -24q-5 -16 -15 -33.5t-29.5 -37.5t-52.5 -33t-75 -13q-83 0 -138.5 57.5t-55.5 141.5t55.5 141.5t138.5 57.5q51 0 90.5 -22.5t56 -46t22.5 -44.5l-75 -24q-32 59 -94 59q-48 0 -77 -35t-29 -86z" />
    <glyph glyph-name="ordfeminine" unicode="&#xaa;" horiz-adv-x="555" 
d="M375 353q-7 -16 -18.5 -31t-40.5 -30.5t-66 -15.5q-78 0 -129 60t-51 162q0 103 50.5 163t129.5 60q86 0 125 -77v66h88v-424h-88v67zM376 498q0 63 -28.5 103.5t-78.5 40.5q-51 0 -79.5 -40t-28.5 -104q0 -63 28.5 -103t79.5 -40q50 0 78.5 40t28.5 103z" />
    <glyph glyph-name="guillemotleft" unicode="&#xab;" horiz-adv-x="551" 
d="M175 453h90l-111 -177l111 -179h-91l-109 178zM391 453h90l-111 -177l111 -179h-91l-109 178z" />
    <glyph glyph-name="registered" unicode="&#xae;" horiz-adv-x="582" 
d="M291 246q-102 0 -170 68t-68 170q0 101 68 169.5t170 68.5q101 0 169.5 -68.5t68.5 -169.5t-68.5 -169.5t-169.5 -68.5zM291 298q81 0 132 53.5t51 132.5t-51 132.5t-132 53.5t-132 -53.5t-51 -132.5t51 -132.5t132 -53.5zM191 368v235h127q90 0 90 -77q0 -47 -39 -65
l41 -93h-62l-37 84h-59v-84h-61zM316 550h-64v-48h64q31 0 31 24t-31 24z" />
    <glyph glyph-name="macron" unicode="&#xaf;" horiz-adv-x="500" 
d="M395 621h-290v78h290v-78z" />
    <glyph glyph-name="degree" unicode="&#xb0;" horiz-adv-x="554" 
d="M277 348q-79 0 -133 54t-54 133t54 133t133 54t133 -54t54 -133t-54 -133t-133 -54zM277 422q48 0 78 32t30 81t-30 81t-78 32t-78 -32t-30 -81t30 -81t78 -32z" />
    <glyph glyph-name="acute" unicode="&#xb4;" horiz-adv-x="600" 
d="M201 579l98 183h100l-105 -183h-93z" />
    <glyph glyph-name="paragraph" unicode="&#xb6;" horiz-adv-x="661" 
d="M275 0v348h-36q-86 0 -140 50t-54 131t54 131t140 50h312v-710h-84v629h-108v-629h-84z" />
    <glyph glyph-name="periodcentered" unicode="&#xb7;" horiz-adv-x="292" 
d="M88 305v142h116v-142h-116z" />
    <glyph glyph-name="cedilla" unicode="&#xb8;" horiz-adv-x="600" 
d="M319 -156q0 34 -41 34h-61v122h80v-55q54 0 81.5 -27.5t27.5 -73.5q0 -49 -29 -79t-88 -30h-95v74h84q41 0 41 35z" />
    <glyph glyph-name="ordmasculine" unicode="&#xba;" horiz-adv-x="542" 
d="M271 723q91 0 147 -63t56 -161q0 -97 -56 -160t-147 -63t-147 63t-56 160q0 98 56 161t147 63zM271 354q54 0 83.5 41t29.5 104t-29.5 104t-83.5 41t-83.5 -41t-29.5 -104t29.5 -104t83.5 -41z" />
    <glyph glyph-name="guillemotright" unicode="&#xbb;" horiz-adv-x="551" 
d="M376 97h-90l111 177l-111 179h91l109 -178zM160 97h-90l111 177l-111 179h91l109 -178z" />
    <glyph glyph-name="onequarter" unicode="&#xbc;" horiz-adv-x="935" 
d="M233 284h-85v332l-105 -59v79l126 76h64v-428zM162 0l433 710h92l-433 -710h-92zM896 112h-84v-112h-81v112h-214v60l193 254h102v-244h84v-70zM604 182h127v170z" />
    <glyph glyph-name="onehalf" unicode="&#xbd;" horiz-adv-x="932" 
d="M233 284h-85v332l-105 -59v79l126 76h64v-428zM161 0l433 710h92l-433 -710h-92zM893 75v-75h-322v55l151 143q32 31 45.5 52t13.5 46q0 27 -17.5 44t-47.5 17q-35 0 -50.5 -21.5t-15.5 -51.5l-82 9q1 60 40.5 100t107.5 40q70 0 110 -37t40 -97q0 -45 -22 -78.5
t-70 -77.5l-74 -68h193z" />
    <glyph glyph-name="threequarters" unicode="&#xbe;" horiz-adv-x="1032" 
d="M211 352q35 0 55 15.5t20 42.5q0 56 -65 56h-47v74h44q55 0 55 50q0 25 -17.5 39.5t-47.5 14.5q-54 0 -66 -50l-82 20q6 36 42 69.5t106 33.5q71 0 110.5 -32.5t39.5 -87.5q0 -63 -56 -88q28 -9 49 -35t21 -70q0 -57 -43 -92t-118 -35q-73 0 -111 33t-48 75l81 20
q19 -53 78 -53zM259 0l433 710h92l-433 -710h-92zM993 112h-84v-112h-81v112h-214v60l193 254h102v-244h84v-70zM701 182h127v170z" />
    <glyph glyph-name="questiondown" unicode="&#xbf;" horiz-adv-x="526" 
d="M335 494v-142h-116v142h116zM231 262h92v-9q0 -46 -12 -70.5t-56 -67.5l-45 -44q-58 -58 -58 -114q0 -47 30 -75t81 -28q34 0 58 12.5t35 33t15.5 36.5t6.5 33l89 -18q-7 -80 -60 -129.5t-144 -49.5q-96 0 -150 49.5t-54 135.5q0 54 22 92.5t71 85.5l46 43q19 18 26 36
t7 48z" />
    <glyph glyph-name="Agrave" unicode="&#xc0;" horiz-adv-x="744" 
d="M420 778h-102l-109 150h110zM609 0l-70 171h-340l-70 -171h-96l296 714h86l296 -714h-102zM236 259h266l-133 324z" />
    <glyph glyph-name="Aacute" unicode="&#xc1;" horiz-adv-x="744" 
d="M319 778l102 150h110l-110 -150h-102zM609 0l-70 171h-340l-70 -171h-96l296 714h86l296 -714h-102zM236 259h266l-133 324z" />
    <glyph glyph-name="Acircumflex" unicode="&#xc2;" horiz-adv-x="744" 
d="M443 775l-73 87l-74 -87h-98l132 156h78l129 -156h-94zM609 0l-70 171h-340l-70 -171h-96l296 714h86l296 -714h-102zM236 259h266l-133 324z" />
    <glyph glyph-name="Atilde" unicode="&#xc3;" horiz-adv-x="744" 
d="M365 816l-36 22q-23 15 -34 15q-17 0 -17 -24v-56h-73v66q0 94 77 94q8 0 17 -2t15 -3.5t15.5 -6.5t13.5 -7.5t15.5 -9.5t14.5 -9l36 -22q26 -15 34 -15q17 0 17 24v56h73v-66q0 -94 -77 -94q-10 0 -19 1.5t-20.5 7t-15.5 7.5t-19 11.5t-17 10.5zM609 0l-70 171h-340
l-70 -171h-96l296 714h86l296 -714h-102zM236 259h266l-133 324z" />
    <glyph glyph-name="Adieresis" unicode="&#xc4;" horiz-adv-x="744" 
d="M226 778v139h92v-139h-92zM420 778v139h92v-139h-92zM609 0l-70 171h-340l-70 -171h-96l296 714h86l296 -714h-102zM236 259h266l-133 324z" />
    <glyph glyph-name="Aring" unicode="&#xc5;" horiz-adv-x="744" 
d="M369 768q-55 0 -91.5 36t-36.5 89q0 54 36.5 90.5t91.5 36.5t91.5 -36.5t36.5 -90.5q0 -53 -36.5 -89t-91.5 -36zM369 829q27 0 44.5 18.5t17.5 45.5q0 28 -17 46t-45 18t-45 -18t-17 -46q0 -27 17.5 -45.5t44.5 -18.5zM609 0l-70 171h-340l-70 -171h-96l296 714h86
l296 -714h-102zM236 259h266l-133 324z" />
    <glyph glyph-name="AE" unicode="&#xc6;" horiz-adv-x="1042" 
d="M0 0l449 710h508v-90h-363v-198h289v-90h-289v-242h400v-90h-497v183h-273l-114 -183h-110zM277 269h220v353z" />
    <glyph glyph-name="Ccedilla" unicode="&#xc7;" horiz-adv-x="734" 
d="M418 -156q0 34 -41 34h-61v117q-112 24 -178 123.5t-66 236.5q0 157 85 262t224 105q56 0 103 -14t76.5 -34.5t52 -47.5t32.5 -48.5t16 -41.5l-91 -33q-8 18 -19.5 36t-33 41t-57 37t-79.5 14q-98 0 -152.5 -79.5t-54.5 -196.5t54.5 -196.5t152.5 -79.5q132 0 192 130
l86 -31q-6 -23 -21.5 -49t-44.5 -59.5t-80.5 -56.5t-116.5 -25v-43q54 0 81.5 -27.5t27.5 -73.5q0 -49 -29 -79t-88 -30h-95v74h84q41 0 41 35z" />
    <glyph glyph-name="Egrave" unicode="&#xc8;" horiz-adv-x="705" 
d="M438 778h-102l-109 150h110zM110 0v710h510v-90h-414v-198h340v-90h-340v-242h451v-90h-547z" />
    <glyph glyph-name="Eacute" unicode="&#xc9;" horiz-adv-x="705" 
d="M314 778l102 150h110l-110 -150h-102zM110 0v710h510v-90h-414v-198h340v-90h-340v-242h451v-90h-547z" />
    <glyph glyph-name="Ecircumflex" unicode="&#xca;" horiz-adv-x="705" 
d="M447 775l-73 87l-74 -87h-98l132 156h78l129 -156h-94zM110 0v710h510v-90h-414v-198h340v-90h-340v-242h451v-90h-547z" />
    <glyph glyph-name="Edieresis" unicode="&#xcb;" horiz-adv-x="705" 
d="M230 778v139h92v-139h-92zM424 778v139h92v-139h-92zM110 0v710h510v-90h-414v-198h340v-90h-340v-242h451v-90h-547z" />
    <glyph glyph-name="Igrave" unicode="&#xcc;" horiz-adv-x="319" 
d="M210 778h-102l-109 150h110zM111 0v710h97v-710h-97z" />
    <glyph glyph-name="Iacute" unicode="&#xcd;" horiz-adv-x="319" 
d="M109 778l102 150h110l-110 -150h-102zM111 0v710h97v-710h-97z" />
    <glyph glyph-name="Icircumflex" unicode="&#xce;" horiz-adv-x="319" 
d="M233 775l-73 87l-74 -87h-98l132 156h78l129 -156h-94zM111 0v710h97v-710h-97z" />
    <glyph glyph-name="Idieresis" unicode="&#xcf;" horiz-adv-x="319" 
d="M16 778v139h92v-139h-92zM210 778v139h92v-139h-92zM111 0v710h97v-710h-97z" />
    <glyph glyph-name="Eth" unicode="&#xd0;" horiz-adv-x="791" 
d="M121 0v314h-109v88h109v308h237q166 0 264 -96.5t98 -258.5q0 -160 -98 -257.5t-264 -97.5h-237zM358 621h-140v-219h216v-88h-216v-225h140q121 0 191.5 72t70.5 194q0 125 -70 195.5t-192 70.5z" />
    <glyph glyph-name="Ntilde" unicode="&#xd1;" horiz-adv-x="813" 
d="M415 816l-36 22q-23 15 -34 15q-17 0 -17 -24v-56h-73v66q0 94 77 94q8 0 17 -2t15 -3.5t15.5 -6.5t13.5 -7.5t15.5 -9.5t14.5 -9l36 -22q26 -15 34 -15q17 0 17 24v56h73v-66q0 -94 -77 -94q-10 0 -19 1.5t-20.5 7t-15.5 7.5t-19 11.5t-17 10.5zM703 710v-715h-73
l-427 591v-586h-93v710h116l384 -538v538h93z" />
    <glyph glyph-name="Ograve" unicode="&#xd2;" horiz-adv-x="782" 
d="M442 778h-102l-109 150h110zM391 -12q-145 0 -232 103t-87 264q0 160 87.5 263.5t231.5 103.5q143 0 231 -104t88 -263t-88 -263t-231 -104zM391 78q103 0 161 78t58 199q0 119 -58.5 198t-160.5 79t-160.5 -78.5t-58.5 -198.5q0 -122 58 -199.5t161 -77.5z" />
    <glyph glyph-name="Oacute" unicode="&#xd3;" horiz-adv-x="782" 
d="M332 778l102 150h110l-110 -150h-102zM391 -12q-145 0 -232 103t-87 264q0 160 87.5 263.5t231.5 103.5q143 0 231 -104t88 -263t-88 -263t-231 -104zM391 78q103 0 161 78t58 199q0 119 -58.5 198t-160.5 79t-160.5 -78.5t-58.5 -198.5q0 -122 58 -199.5t161 -77.5z" />
    <glyph glyph-name="Ocircumflex" unicode="&#xd4;" horiz-adv-x="782" 
d="M465 775l-73 87l-74 -87h-98l132 156h78l129 -156h-94zM391 -12q-145 0 -232 103t-87 264q0 160 87.5 263.5t231.5 103.5q143 0 231 -104t88 -263t-88 -263t-231 -104zM391 78q103 0 161 78t58 199q0 119 -58.5 198t-160.5 79t-160.5 -78.5t-58.5 -198.5
q0 -122 58 -199.5t161 -77.5z" />
    <glyph glyph-name="Otilde" unicode="&#xd5;" horiz-adv-x="782" 
d="M387 816l-36 22q-23 15 -34 15q-17 0 -17 -24v-56h-73v66q0 94 77 94q8 0 17 -2t15 -3.5t15.5 -6.5t13.5 -7.5t15.5 -9.5t14.5 -9l36 -22q26 -15 34 -15q17 0 17 24v56h73v-66q0 -94 -77 -94q-10 0 -19 1.5t-20.5 7t-15.5 7.5t-19 11.5t-17 10.5zM391 -12
q-145 0 -232 103t-87 264q0 160 87.5 263.5t231.5 103.5q143 0 231 -104t88 -263t-88 -263t-231 -104zM391 78q103 0 161 78t58 199q0 119 -58.5 198t-160.5 79t-160.5 -78.5t-58.5 -198.5q0 -122 58 -199.5t161 -77.5z" />
    <glyph glyph-name="Odieresis" unicode="&#xd6;" horiz-adv-x="782" 
d="M248 778v139h92v-139h-92zM442 778v139h92v-139h-92zM391 -12q-145 0 -232 103t-87 264q0 160 87.5 263.5t231.5 103.5q143 0 231 -104t88 -263t-88 -263t-231 -104zM391 78q103 0 161 78t58 199q0 119 -58.5 198t-160.5 79t-160.5 -78.5t-58.5 -198.5q0 -122 58 -199.5
t161 -77.5z" />
    <glyph glyph-name="multiply" unicode="&#xd7;" horiz-adv-x="640" 
d="M84 113l180 181l-180 179l58 58l179 -181l180 181l54 -54l-180 -181l181 -183l-56 -54l-182 181l-180 -181z" />
    <glyph glyph-name="Oslash" unicode="&#xd8;" horiz-adv-x="782" 
d="M61 0l84 108q-73 99 -73 247q0 160 87.5 263.5t231.5 103.5q106 0 185 -60l37 48h108l-85 -109q74 -101 74 -246q0 -159 -88 -263t-231 -104q-108 0 -187 60l-38 -48h-105zM172 355q0 -99 35 -167l313 401q-52 43 -129 43q-102 0 -160.5 -78.5t-58.5 -198.5zM391 78
q102 0 160.5 78.5t58.5 198.5q0 99 -36 167l-313 -401q52 -43 130 -43z" />
    <glyph glyph-name="Ugrave" unicode="&#xd9;" horiz-adv-x="794" 
d="M461 778h-102l-109 150h110zM590 282v428h97v-436q0 -122 -76.5 -204t-213.5 -82q-141 0 -215.5 80.5t-74.5 205.5v436h97v-428q0 -91 50 -146t143 -55q91 0 142 55.5t51 145.5z" />
    <glyph glyph-name="Uacute" unicode="&#xda;" horiz-adv-x="794" 
d="M334 778l102 150h110l-110 -150h-102zM590 282v428h97v-436q0 -122 -76.5 -204t-213.5 -82q-141 0 -215.5 80.5t-74.5 205.5v436h97v-428q0 -91 50 -146t143 -55q91 0 142 55.5t51 145.5z" />
    <glyph glyph-name="Ucircumflex" unicode="&#xdb;" horiz-adv-x="794" 
d="M471 775l-73 87l-74 -87h-98l132 156h78l129 -156h-94zM590 282v428h97v-436q0 -122 -76.5 -204t-213.5 -82q-141 0 -215.5 80.5t-74.5 205.5v436h97v-428q0 -91 50 -146t143 -55q91 0 142 55.5t51 145.5z" />
    <glyph glyph-name="Udieresis" unicode="&#xdc;" horiz-adv-x="794" 
d="M254 778v139h92v-139h-92zM448 778v139h92v-139h-92zM590 282v428h97v-436q0 -122 -76.5 -204t-213.5 -82q-141 0 -215.5 80.5t-74.5 205.5v436h97v-428q0 -91 50 -146t143 -55q91 0 142 55.5t51 145.5z" />
    <glyph glyph-name="Yacute" unicode="&#xdd;" horiz-adv-x="685" 
d="M286 778l102 150h110l-110 -150h-102zM297 285l-282 425h120l213 -327l213 327h109l-276 -424v-286h-97v285z" />
    <glyph glyph-name="Thorn" unicode="&#xde;" horiz-adv-x="723" 
d="M110 0v710h97v-147h222q115 0 174.5 -51t59.5 -146q0 -94 -60 -147.5t-174 -53.5h-222v-165h-97zM432 473h-225v-218h225q64 0 97.5 29.5t33.5 79.5q0 109 -131 109z" />
    <glyph glyph-name="germandbls" unicode="&#xdf;" horiz-adv-x="607" 
d="M300 748q94 0 150 -51.5t56 -141.5q0 -60 -31.5 -98.5t-70.5 -48.5q63 -12 105 -63t42 -126q0 -101 -61 -160t-171 -59h-39v83h22q75 0 115 36t40 100t-40 100t-115 36h-22v81h7q58 0 91.5 30t33.5 84t-30.5 84t-81.5 30q-54 0 -84 -35t-30 -101v-528h-92v534
q0 102 54.5 158t151.5 56z" />
    <glyph glyph-name="agrave" unicode="&#xe0;" horiz-adv-x="573" 
d="M325 579h-93l-105 183h100zM487 128q0 -45 36 -51v-82q-96 0 -118 74q-47 -80 -151 -80q-86 0 -141 46t-55 121q0 71 48.5 110.5t137.5 39.5h156q0 56 -34.5 88.5t-91.5 32.5q-81 0 -116 -67l-83 29q7 15 18 31t33.5 38t61 35.5t86.5 13.5q103 0 158 -54.5t55 -145.5
v-179zM265 65q55 0 95 29t40 74v66h-151q-46 0 -73 -20t-27 -58q0 -41 31.5 -66t84.5 -25z" />
    <glyph glyph-name="aacute" unicode="&#xe1;" horiz-adv-x="573" 
d="M228 579l98 183h100l-105 -183h-93zM487 128q0 -45 36 -51v-82q-96 0 -118 74q-47 -80 -151 -80q-86 0 -141 46t-55 121q0 71 48.5 110.5t137.5 39.5h156q0 56 -34.5 88.5t-91.5 32.5q-81 0 -116 -67l-83 29q7 15 18 31t33.5 38t61 35.5t86.5 13.5q103 0 158 -54.5
t55 -145.5v-179zM265 65q55 0 95 29t40 74v66h-151q-46 0 -73 -20t-27 -58q0 -41 31.5 -66t84.5 -25z" />
    <glyph glyph-name="acircumflex" unicode="&#xe2;" horiz-adv-x="573" 
d="M343 576l-69 112l-68 -112h-88l118 193h76l116 -193h-85zM487 128q0 -45 36 -51v-82q-96 0 -118 74q-47 -80 -151 -80q-86 0 -141 46t-55 121q0 71 48.5 110.5t137.5 39.5h156q0 56 -34.5 88.5t-91.5 32.5q-81 0 -116 -67l-83 29q7 15 18 31t33.5 38t61 35.5t86.5 13.5
q103 0 158 -54.5t55 -145.5v-179zM265 65q55 0 95 29t40 74v66h-151q-46 0 -73 -20t-27 -58q0 -41 31.5 -66t84.5 -25z" />
    <glyph glyph-name="atilde" unicode="&#xe3;" horiz-adv-x="573" 
d="M192 575h-71v74q0 44 19.5 69t58.5 25q25 0 43 -10t44 -33l25 -23q19 -17 29 -17q17 0 17 23v65h71v-74q0 -44 -19.5 -69t-58.5 -25q-25 0 -43 10t-43 33l-25 23q-19 17 -30 17q-17 0 -17 -23v-65zM487 128q0 -45 36 -51v-82q-96 0 -118 74q-47 -80 -151 -80
q-86 0 -141 46t-55 121q0 71 48.5 110.5t137.5 39.5h156q0 56 -34.5 88.5t-91.5 32.5q-81 0 -116 -67l-83 29q7 15 18 31t33.5 38t61 35.5t86.5 13.5q103 0 158 -54.5t55 -145.5v-179zM265 65q55 0 95 29t40 74v66h-151q-46 0 -73 -20t-27 -58q0 -41 31.5 -66t84.5 -25z" />
    <glyph glyph-name="adieresis" unicode="&#xe4;" horiz-adv-x="573" 
d="M138 589v139h92v-139h-92zM322 589v139h92v-139h-92zM487 128q0 -45 36 -51v-82q-96 0 -118 74q-47 -80 -151 -80q-86 0 -141 46t-55 121q0 71 48.5 110.5t137.5 39.5h156q0 56 -34.5 88.5t-91.5 32.5q-81 0 -116 -67l-83 29q7 15 18 31t33.5 38t61 35.5t86.5 13.5
q103 0 158 -54.5t55 -145.5v-179zM265 65q55 0 95 29t40 74v66h-151q-46 0 -73 -20t-27 -58q0 -41 31.5 -66t84.5 -25z" />
    <glyph glyph-name="aring" unicode="&#xe5;" horiz-adv-x="573" 
d="M274 567q-55 0 -91.5 36t-36.5 89q0 54 36.5 90.5t91.5 36.5t91.5 -36.5t36.5 -90.5q0 -53 -36.5 -89t-91.5 -36zM274 628q27 0 44.5 18.5t17.5 45.5q0 28 -17 46t-45 18t-45 -18t-17 -46q0 -27 17.5 -45.5t44.5 -18.5zM487 128q0 -45 36 -51v-82q-96 0 -118 74
q-47 -80 -151 -80q-86 0 -141 46t-55 121q0 71 48.5 110.5t137.5 39.5h156q0 56 -34.5 88.5t-91.5 32.5q-81 0 -116 -67l-83 29q7 15 18 31t33.5 38t61 35.5t86.5 13.5q103 0 158 -54.5t55 -145.5v-179zM265 65q55 0 95 29t40 74v66h-151q-46 0 -73 -20t-27 -58
q0 -41 31.5 -66t84.5 -25z" />
    <glyph glyph-name="ae" unicode="&#xe6;" horiz-adv-x="898" 
d="M628 71q81 0 127 67l78 -28q-6 -17 -19 -35t-36.5 -39t-62.5 -34.5t-87 -13.5q-69 0 -119.5 32.5t-74.5 80.5q-47 -112 -176 -112q-88 0 -144 45.5t-56 121.5q0 71 49 110.5t139 39.5h151q0 56 -34 88.5t-89 32.5q-81 0 -116 -67l-83 29q7 15 18 31t33.5 38t61 35.5
t86.5 13.5q62 0 108 -25t67 -66q55 91 171 91q99 0 160.5 -71t61.5 -188v-14h-353q4 -71 40.5 -117t98.5 -46zM620 429q-53 0 -85.5 -32.5t-42.5 -90.5h254q-24 123 -126 123zM262 65q55 0 95 31t40 82v56h-146q-47 0 -74.5 -20.5t-27.5 -57.5q0 -40 31 -65.5t82 -25.5z" />
    <glyph glyph-name="ccedilla" unicode="&#xe7;" horiz-adv-x="542" 
d="M320 -156q0 34 -41 34h-61v121q-71 23 -114.5 90.5t-43.5 157.5q0 112 64 186t161 74q49 0 87.5 -14t61 -36.5t34 -41.5t18.5 -39l-82 -29q-41 76 -119 76q-58 0 -94.5 -50t-36.5 -126t36.5 -126t95.5 -50q82 0 122 80l78 -28q-4 -14 -14 -30.5t-30.5 -42t-58 -43
t-85.5 -19.5v-43q54 0 81.5 -27.5t27.5 -73.5q0 -49 -29 -79t-88 -30h-95v74h84q41 0 41 35z" />
    <glyph glyph-name="egrave" unicode="&#xe8;" horiz-adv-x="565" 
d="M331 579h-93l-105 183h100zM285 507q101 0 162.5 -71t61.5 -188v-14h-357q4 -71 41 -117t101 -46q82 0 128 67l78 -28q-15 -42 -65 -82t-141 -40q-106 0 -170 74t-64 185q0 115 61.5 187.5t163.5 72.5zM285 429q-54 0 -87 -32.5t-43 -90.5h258q-24 123 -128 123z" />
    <glyph glyph-name="eacute" unicode="&#xe9;" horiz-adv-x="565" 
d="M239 579l98 183h100l-105 -183h-93zM285 507q101 0 162.5 -71t61.5 -188v-14h-357q4 -71 41 -117t101 -46q82 0 128 67l78 -28q-15 -42 -65 -82t-141 -40q-106 0 -170 74t-64 185q0 115 61.5 187.5t163.5 72.5zM285 429q-54 0 -87 -32.5t-43 -90.5h258q-24 123 -128 123z
" />
    <glyph glyph-name="ecircumflex" unicode="&#xea;" horiz-adv-x="565" 
d="M354 576l-69 112l-68 -112h-88l118 193h76l116 -193h-85zM285 507q101 0 162.5 -71t61.5 -188v-14h-357q4 -71 41 -117t101 -46q82 0 128 67l78 -28q-15 -42 -65 -82t-141 -40q-106 0 -170 74t-64 185q0 115 61.5 187.5t163.5 72.5zM285 429q-54 0 -87 -32.5t-43 -90.5
h258q-24 123 -128 123z" />
    <glyph glyph-name="edieresis" unicode="&#xeb;" horiz-adv-x="565" 
d="M147 589v139h92v-139h-92zM331 589v139h92v-139h-92zM285 507q101 0 162.5 -71t61.5 -188v-14h-357q4 -71 41 -117t101 -46q82 0 128 67l78 -28q-15 -42 -65 -82t-141 -40q-106 0 -170 74t-64 185q0 115 61.5 187.5t163.5 72.5zM285 429q-54 0 -87 -32.5t-43 -90.5h258
q-24 123 -128 123z" />
    <glyph glyph-name="igrave" unicode="&#xec;" horiz-adv-x="277" 
d="M184 579h-93l-105 183h100zM93 0v494h91v-494h-91z" />
    <glyph glyph-name="iacute" unicode="&#xed;" horiz-adv-x="277" 
d="M93 579l98 183h100l-105 -183h-93zM93 0v494h91v-494h-91z" />
    <glyph glyph-name="icircumflex" unicode="&#xee;" horiz-adv-x="277" 
d="M207 576l-69 112l-68 -112h-88l118 193h76l116 -193h-85zM93 0v494h91v-494h-91z" />
    <glyph glyph-name="idieresis" unicode="&#xef;" horiz-adv-x="277" 
d="M0 589v139h92v-139h-92zM184 589v139h92v-139h-92zM93 0v494h91v-494h-91z" />
    <glyph glyph-name="eth" unicode="&#xf0;" horiz-adv-x="584" 
d="M252 490q54 0 91 -28l-96 122l-131 -64l-28 58l118 58l-80 100h105l50 -63l125 61l29 -58l-112 -55l101 -127q52 -66 76 -121.5t24 -125.5q0 -112 -64 -185.5t-168 -73.5t-168 73.5t-64 185.5q0 104 53.5 173.5t138.5 69.5zM292 71q65 0 101.5 49.5t36.5 126.5
t-36.5 126.5t-101.5 49.5t-101.5 -49.5t-36.5 -126.5t36 -126.5t102 -49.5z" />
    <glyph glyph-name="ntilde" unicode="&#xf1;" horiz-adv-x="609" 
d="M227 575h-71v74q0 44 19.5 69t58.5 25q25 0 43 -10t44 -33l25 -23q19 -17 29 -17q17 0 17 23v65h71v-74q0 -44 -19.5 -69t-58.5 -25q-25 0 -43 10t-43 33l-25 23q-19 17 -30 17q-17 0 -17 -23v-65zM92 0v494h91v-83q16 37 54 65.5t94 28.5q86 0 138 -56.5t52 -154.5v-294
h-92v277q0 70 -32 107t-88 37q-59 0 -92.5 -37.5t-33.5 -106.5v-277h-91z" />
    <glyph glyph-name="ograve" unicode="&#xf2;" horiz-adv-x="584" 
d="M338 579h-93l-105 183h100zM292 506q104 0 168 -73.5t64 -185.5t-64 -185.5t-168 -73.5t-168 73.5t-64 185.5t64 185.5t168 73.5zM292 72q65 0 101.5 49.5t36.5 125.5t-36.5 125.5t-101.5 49.5t-101.5 -49.5t-36.5 -125.5t36 -125.5t102 -49.5z" />
    <glyph glyph-name="oacute" unicode="&#xf3;" horiz-adv-x="584" 
d="M246 579l98 183h100l-105 -183h-93zM292 506q104 0 168 -73.5t64 -185.5t-64 -185.5t-168 -73.5t-168 73.5t-64 185.5t64 185.5t168 73.5zM292 72q65 0 101.5 49.5t36.5 125.5t-36.5 125.5t-101.5 49.5t-101.5 -49.5t-36.5 -125.5t36 -125.5t102 -49.5z" />
    <glyph glyph-name="ocircumflex" unicode="&#xf4;" horiz-adv-x="584" 
d="M361 576l-69 112l-68 -112h-88l118 193h76l116 -193h-85zM292 506q104 0 168 -73.5t64 -185.5t-64 -185.5t-168 -73.5t-168 73.5t-64 185.5t64 185.5t168 73.5zM292 72q65 0 101.5 49.5t36.5 125.5t-36.5 125.5t-101.5 49.5t-101.5 -49.5t-36.5 -125.5t36 -125.5
t102 -49.5z" />
    <glyph glyph-name="otilde" unicode="&#xf5;" horiz-adv-x="584" 
d="M210 575h-71v74q0 44 19.5 69t58.5 25q25 0 43 -10t44 -33l25 -23q19 -17 29 -17q17 0 17 23v65h71v-74q0 -44 -19.5 -69t-58.5 -25q-25 0 -43 10t-43 33l-25 23q-19 17 -30 17q-17 0 -17 -23v-65zM292 506q104 0 168 -73.5t64 -185.5t-64 -185.5t-168 -73.5t-168 73.5
t-64 185.5t64 185.5t168 73.5zM292 72q65 0 101.5 49.5t36.5 125.5t-36.5 125.5t-101.5 49.5t-101.5 -49.5t-36.5 -125.5t36 -125.5t102 -49.5z" />
    <glyph glyph-name="odieresis" unicode="&#xf6;" horiz-adv-x="584" 
d="M154 589v139h92v-139h-92zM338 589v139h92v-139h-92zM292 506q104 0 168 -73.5t64 -185.5t-64 -185.5t-168 -73.5t-168 73.5t-64 185.5t64 185.5t168 73.5zM292 72q65 0 101.5 49.5t36.5 125.5t-36.5 125.5t-101.5 49.5t-101.5 -49.5t-36.5 -125.5t36 -125.5t102 -49.5z
" />
    <glyph glyph-name="divide" unicode="&#xf7;" horiz-adv-x="696" 
d="M291 447v143h116v-143h-116zM612 275h-528v80h528v-80zM291 30v143h116v-143h-116z" />
    <glyph glyph-name="oslash" unicode="&#xf8;" horiz-adv-x="584" 
d="M48 0l63 79q-51 68 -51 168q0 113 64 186.5t168 73.5q73 0 129 -39l20 26h95l-62 -78q50 -70 50 -169q0 -112 -64 -185.5t-168 -73.5q-74 0 -129 39l-22 -27h-93zM154 247q0 -56 16 -94l198 249q-33 22 -76 22q-65 0 -101.5 -50t-36.5 -127zM430 247q0 56 -16 94
l-199 -248q32 -23 77 -23q65 0 101.5 50t36.5 127z" />
    <glyph glyph-name="ugrave" unicode="&#xf9;" horiz-adv-x="598" 
d="M346 579h-93l-105 183h100zM300 -10q-102 0 -157 56t-55 150v298h92v-293q0 -57 31 -91t89 -34q57 0 88.5 34t31.5 91v293h90v-298q0 -89 -56 -147.5t-154 -58.5z" />
    <glyph glyph-name="uacute" unicode="&#xfa;" horiz-adv-x="598" 
d="M244 579l98 183h100l-105 -183h-93zM300 -10q-102 0 -157 56t-55 150v298h92v-293q0 -57 31 -91t89 -34q57 0 88.5 34t31.5 91v293h90v-298q0 -89 -56 -147.5t-154 -58.5z" />
    <glyph glyph-name="ucircumflex" unicode="&#xfb;" horiz-adv-x="598" 
d="M369 576l-69 112l-68 -112h-88l118 193h76l116 -193h-85zM300 -10q-102 0 -157 56t-55 150v298h92v-293q0 -57 31 -91t89 -34q57 0 88.5 34t31.5 91v293h90v-298q0 -89 -56 -147.5t-154 -58.5z" />
    <glyph glyph-name="udieresis" unicode="&#xfc;" horiz-adv-x="598" 
d="M162 589v139h92v-139h-92zM346 589v139h92v-139h-92zM300 -10q-102 0 -157 56t-55 150v298h92v-293q0 -57 31 -91t89 -34q57 0 88.5 34t31.5 91v293h90v-298q0 -89 -56 -147.5t-154 -58.5z" />
    <glyph glyph-name="yacute" unicode="&#xfd;" horiz-adv-x="535" 
d="M211 579l98 183h100l-105 -183h-93zM136 -214l88 222l-199 486h100l146 -367l146 367h93l-283 -708h-91z" />
    <glyph glyph-name="thorn" unicode="&#xfe;" horiz-adv-x="611" 
d="M182 77v-291h-90v950h90v-323q9 19 23 36.5t50 37.5t81 20q91 0 152 -70.5t61 -189.5t-61 -189t-152 -70q-34 0 -63 10t-47 26.5t-28 28.5t-16 24zM180 247q0 -76 37 -126t101 -50q62 0 100 50t38 126q0 77 -37.5 126.5t-100.5 49.5q-64 0 -101 -49.5t-37 -126.5z" />
    <glyph glyph-name="ydieresis" unicode="&#xff;" horiz-adv-x="535" 
d="M133 589v139h92v-139h-92zM317 589v139h92v-139h-92zM136 -214l88 222l-199 486h100l146 -367l146 367h93l-283 -708h-91z" />
    <glyph glyph-name="Amacron" unicode="&#x100;" horiz-adv-x="744" 
d="M527 813h-316v78h316v-78zM609 0l-70 171h-340l-70 -171h-96l296 714h86l296 -714h-102zM236 259h266l-133 324z" />
    <glyph glyph-name="amacron" unicode="&#x101;" horiz-adv-x="573" 
d="M420 621h-290v78h290v-78zM487 128q0 -45 36 -51v-82q-96 0 -118 74q-47 -80 -151 -80q-86 0 -141 46t-55 121q0 71 48.5 110.5t137.5 39.5h156q0 56 -34.5 88.5t-91.5 32.5q-81 0 -116 -67l-83 29q7 15 18 31t33.5 38t61 35.5t86.5 13.5q103 0 158 -54.5t55 -145.5v-179
zM265 65q55 0 95 29t40 74v66h-151q-46 0 -73 -20t-27 -58q0 -41 31.5 -66t84.5 -25z" />
    <glyph glyph-name="Abreve" unicode="&#x102;" horiz-adv-x="744" 
d="M369 843q32 0 48.5 20.5t16.5 50.5v13h76v-15q0 -62 -37 -101.5t-104 -39.5t-104 39.5t-37 101.5v15h76v-13q0 -30 16.5 -50.5t48.5 -20.5zM609 0l-70 171h-340l-70 -171h-96l296 714h86l296 -714h-102zM236 259h266l-133 324z" />
    <glyph glyph-name="abreve" unicode="&#x103;" horiz-adv-x="573" 
d="M276 644q29 0 44 20t15 49v17h75v-19q0 -61 -34.5 -99.5t-99.5 -38.5t-99.5 38.5t-34.5 99.5v19h75v-17q0 -28 15 -48.5t44 -20.5zM487 128q0 -45 36 -51v-82q-96 0 -118 74q-47 -80 -151 -80q-86 0 -141 46t-55 121q0 71 48.5 110.5t137.5 39.5h156q0 56 -34.5 88.5
t-91.5 32.5q-81 0 -116 -67l-83 29q7 15 18 31t33.5 38t61 35.5t86.5 13.5q103 0 158 -54.5t55 -145.5v-179zM265 65q55 0 95 29t40 74v66h-151q-46 0 -73 -20t-27 -58q0 -41 31.5 -66t84.5 -25z" />
    <glyph glyph-name="Aogonek" unicode="&#x104;" horiz-adv-x="744" 
d="M530 -120q0 24 12.5 47t26.5 37t40 36l-70 171h-340l-70 -171h-96l296 714h86l296 -714q-27 -25 -36 -33t-24.5 -24t-20.5 -26t-5 -19q0 -30 39 -30h67v-82h-72q-129 0 -129 94zM236 259h266l-133 324z" />
    <glyph glyph-name="aogonek" unicode="&#x105;" horiz-adv-x="573" 
d="M344 -120q0 26 19 52.5t38 41.5t52 37q-35 20 -46 58q-47 -80 -152 -80q-86 0 -141.5 46t-55.5 121q0 71 49 110.5t139 39.5h156q0 56 -35 88.5t-92 32.5q-82 0 -117 -67l-83 29q7 15 18 31t33.5 38t61.5 35.5t87 13.5q101 0 157.5 -55t56.5 -145v-179q0 -45 36 -51v-77
q-27 -25 -36 -33t-24.5 -24t-20.5 -26t-5 -19q0 -30 39 -30h67v-82h-72q-129 0 -129 94zM266 65q56 0 96 29t40 74v66h-151q-47 0 -74.5 -20.5t-27.5 -57.5q0 -41 31.5 -66t85.5 -25z" />
    <glyph glyph-name="Cacute" unicode="&#x106;" horiz-adv-x="730" 
d="M331 778l102 150h110l-110 -150h-102zM381 -12q-139 0 -224 105t-85 262t85 262t224 105q56 0 103 -14t76.5 -34.5t52 -47.5t32.5 -48.5t16 -41.5l-91 -33q-8 18 -19.5 36t-33 41t-57 37t-79.5 14q-98 0 -152.5 -79.5t-54.5 -196.5t54.5 -196.5t152.5 -79.5
q132 0 192 130l86 -31q-5 -18 -15 -38.5t-32 -48.5t-51.5 -50t-76.5 -37.5t-103 -15.5z" />
    <glyph glyph-name="cacute" unicode="&#x107;" horiz-adv-x="542" 
d="M239 579l98 183h100l-105 -183h-93zM404 347q-41 76 -119 76q-58 0 -94.5 -50t-36.5 -126t36.5 -126t95.5 -50q82 0 122 80l78 -28q-4 -14 -14.5 -31.5t-32.5 -43.5t-62 -43t-91 -17q-97 0 -161.5 73.5t-64.5 185.5t64 186t161 74q49 0 87.5 -14t61 -36.5t34 -41.5
t18.5 -39z" />
    <glyph glyph-name="Ccircumflex" unicode="&#x108;" horiz-adv-x="730" 
d="M455 775l-73 87l-74 -87h-98l132 156h78l129 -156h-94zM381 -12q-139 0 -224 105t-85 262t85 262t224 105q56 0 103 -14t76.5 -34.5t52 -47.5t32.5 -48.5t16 -41.5l-91 -33q-8 18 -19.5 36t-33 41t-57 37t-79.5 14q-98 0 -152.5 -79.5t-54.5 -196.5t54.5 -196.5
t152.5 -79.5q132 0 192 130l86 -31q-5 -18 -15 -38.5t-32 -48.5t-51.5 -50t-76.5 -37.5t-103 -15.5z" />
    <glyph glyph-name="ccircumflex" unicode="&#x109;" horiz-adv-x="542" 
d="M354 576l-69 112l-68 -112h-88l118 193h76l116 -193h-85zM404 347q-41 76 -119 76q-58 0 -94.5 -50t-36.5 -126t36.5 -126t95.5 -50q82 0 122 80l78 -28q-4 -14 -14.5 -31.5t-32.5 -43.5t-62 -43t-91 -17q-97 0 -161.5 73.5t-64.5 185.5t64 186t161 74q49 0 87.5 -14
t61 -36.5t34 -41.5t18.5 -39z" />
    <glyph glyph-name="Cdotaccent" unicode="&#x10a;" horiz-adv-x="730" 
d="M334 778v143h94v-143h-94zM381 -12q-139 0 -224 105t-85 262t85 262t224 105q56 0 103 -14t76.5 -34.5t52 -47.5t32.5 -48.5t16 -41.5l-91 -33q-8 18 -19.5 36t-33 41t-57 37t-79.5 14q-98 0 -152.5 -79.5t-54.5 -196.5t54.5 -196.5t152.5 -79.5q132 0 192 130l86 -31
q-5 -18 -15 -38.5t-32 -48.5t-51.5 -50t-76.5 -37.5t-103 -15.5z" />
    <glyph glyph-name="cdotaccent" unicode="&#x10b;" horiz-adv-x="542" 
d="M238 589v143h94v-143h-94zM404 347q-41 76 -119 76q-58 0 -94.5 -50t-36.5 -126t36.5 -126t95.5 -50q82 0 122 80l78 -28q-4 -14 -14.5 -31.5t-32.5 -43.5t-62 -43t-91 -17q-97 0 -161.5 73.5t-64.5 185.5t64 186t161 74q49 0 87.5 -14t61 -36.5t34 -41.5t18.5 -39z" />
    <glyph glyph-name="Ccaron" unicode="&#x10c;" horiz-adv-x="730" 
d="M209 931h98l74 -87l73 87h94l-129 -156h-78zM381 -12q-139 0 -224 105t-85 262t85 262t224 105q56 0 103 -14t76.5 -34.5t52 -47.5t32.5 -48.5t16 -41.5l-91 -33q-8 18 -19.5 36t-33 41t-57 37t-79.5 14q-98 0 -152.5 -79.5t-54.5 -196.5t54.5 -196.5t152.5 -79.5
q132 0 192 130l86 -31q-5 -18 -15 -38.5t-32 -48.5t-51.5 -50t-76.5 -37.5t-103 -15.5z" />
    <glyph glyph-name="ccaron" unicode="&#x10d;" horiz-adv-x="542" 
d="M354 772h85l-116 -193h-76l-118 193h88l68 -112zM404 347q-41 76 -119 76q-58 0 -94.5 -50t-36.5 -126t36.5 -126t95.5 -50q82 0 122 80l78 -28q-4 -14 -14.5 -31.5t-32.5 -43.5t-62 -43t-91 -17q-97 0 -161.5 73.5t-64.5 185.5t64 186t161 74q49 0 87.5 -14t61 -36.5
t34 -41.5t18.5 -39z" />
    <glyph glyph-name="Dcaron" unicode="&#x10e;" horiz-adv-x="779" 
d="M193 931h98l74 -87l73 87h94l-129 -156h-78zM110 0v710h237q166 0 264 -96.5t98 -258.5q0 -160 -98 -257.5t-264 -97.5h-237zM347 621h-140v-532h140q121 0 191.5 72t70.5 194q0 125 -70 195.5t-192 70.5z" />
    <glyph glyph-name="dcaron" unicode="&#x10f;" horiz-adv-x="613" 
d="M583 579l49 193h87l-56 -193h-80zM430 84q-8 -19 -23 -38.5t-50 -38.5t-80 -19q-92 0 -153.5 70t-61.5 189t61.5 189.5t153.5 70.5q34 0 62.5 -10.5t46.5 -27.5t28 -30t16 -26v323h91v-736h-91v84zM432 247q0 77 -38 126.5t-101 49.5t-100 -49.5t-37 -126.5
q0 -76 37 -126t100 -50t101 50t38 126z" />
    <glyph glyph-name="Dcroat" unicode="&#x110;" horiz-adv-x="791" 
d="M121 0v314h-109v88h109v308h237q166 0 264 -96.5t98 -258.5q0 -160 -98 -257.5t-264 -97.5h-237zM358 621h-140v-219h216v-88h-216v-225h140q121 0 191.5 72t70.5 194q0 125 -70 195.5t-192 70.5z" />
    <glyph glyph-name="dcroat" unicode="&#x111;" horiz-adv-x="613" 
d="M430 84q-8 -19 -23 -38.5t-50 -38.5t-80 -19q-92 0 -153.5 70t-61.5 189t61.5 189.5t153.5 70.5q34 0 62.5 -10.5t46.5 -27.5t28 -30t16 -26v161h-180v74h180v88h91v-88h91v-74h-91v-574h-91v84zM432 247q0 77 -38 126.5t-101 49.5t-100 -49.5t-37 -126.5q0 -76 37 -126
t100 -50t101 50t38 126z" />
    <glyph glyph-name="Emacron" unicode="&#x112;" horiz-adv-x="705" 
d="M531 813h-316v78h316v-78zM110 0v710h510v-90h-414v-198h340v-90h-340v-242h451v-90h-547z" />
    <glyph glyph-name="emacron" unicode="&#x113;" horiz-adv-x="565" 
d="M431 621h-290v78h290v-78zM285 507q101 0 162.5 -71t61.5 -188v-14h-357q4 -71 41 -117t101 -46q82 0 128 67l78 -28q-15 -42 -65 -82t-141 -40q-106 0 -170 74t-64 185q0 115 61.5 187.5t163.5 72.5zM285 429q-54 0 -87 -32.5t-43 -90.5h258q-24 123 -128 123z" />
    <glyph glyph-name="Ebreve" unicode="&#x114;" horiz-adv-x="705" 
d="M373 843q32 0 48.5 20.5t16.5 50.5v13h76v-15q0 -62 -37 -101.5t-104 -39.5t-104 39.5t-37 101.5v15h76v-13q0 -30 16.5 -50.5t48.5 -20.5zM110 0v710h510v-90h-414v-198h340v-90h-340v-242h451v-90h-547z" />
    <glyph glyph-name="ebreve" unicode="&#x115;" horiz-adv-x="565" 
d="M285 644q29 0 44 20t15 49v17h75v-19q0 -61 -34.5 -99.5t-99.5 -38.5t-99.5 38.5t-34.5 99.5v19h75v-17q0 -28 15 -48.5t44 -20.5zM285 507q101 0 162.5 -71t61.5 -188v-14h-357q4 -71 41 -117t101 -46q82 0 128 67l78 -28q-15 -42 -65 -82t-141 -40q-106 0 -170 74
t-64 185q0 115 61.5 187.5t163.5 72.5zM285 429q-54 0 -87 -32.5t-43 -90.5h258q-24 123 -128 123z" />
    <glyph glyph-name="Edotaccent" unicode="&#x116;" horiz-adv-x="705" 
d="M326 778v143h94v-143h-94zM110 0v710h510v-90h-414v-198h340v-90h-340v-242h451v-90h-547z" />
    <glyph glyph-name="edotaccent" unicode="&#x117;" horiz-adv-x="565" 
d="M238 589v143h94v-143h-94zM285 507q101 0 162.5 -71t61.5 -188v-14h-357q4 -71 41 -117t101 -46q82 0 128 67l78 -28q-15 -42 -65 -82t-141 -40q-106 0 -170 74t-64 185q0 115 61.5 187.5t163.5 72.5zM285 429q-54 0 -87 -32.5t-43 -90.5h258q-24 123 -128 123z" />
    <glyph glyph-name="Eogonek" unicode="&#x118;" horiz-adv-x="705" 
d="M110 0v710h510v-90h-414v-198h340v-90h-340v-242h451v-90h-105q-27 -25 -36 -33t-24.5 -24t-20.5 -26t-5 -19q0 -30 39 -30h67v-82h-72q-129 0 -129 94q0 24 15.5 47.5t28 34.5t46.5 38h-351z" />
    <glyph glyph-name="eogonek" unicode="&#x119;" horiz-adv-x="565" 
d="M500 110q-15 -42 -80 -100q-48 -43 -69 -68t-21 -44q0 -30 39 -30h67v-82h-72q-129 0 -129 90q0 56 83 113q-8 -1 -24 -1q-106 0 -170 74t-64 185q0 115 61.5 187.5t163.5 72.5q101 0 162.5 -71t61.5 -188v-14h-357q4 -71 41 -117t101 -46q82 0 128 67zM285 429
q-54 0 -87 -32.5t-43 -90.5h258q-24 123 -128 123z" />
    <glyph glyph-name="Ecaron" unicode="&#x11a;" horiz-adv-x="705" 
d="M201 931h98l74 -87l73 87h94l-129 -156h-78zM110 0v710h510v-90h-414v-198h340v-90h-340v-242h451v-90h-547z" />
    <glyph glyph-name="ecaron" unicode="&#x11b;" horiz-adv-x="565" 
d="M354 772h85l-116 -193h-76l-118 193h88l68 -112zM285 507q101 0 162.5 -71t61.5 -188v-14h-357q4 -71 41 -117t101 -46q82 0 128 67l78 -28q-15 -42 -65 -82t-141 -40q-106 0 -170 74t-64 185q0 115 61.5 187.5t163.5 72.5zM285 429q-54 0 -87 -32.5t-43 -90.5h258
q-24 123 -128 123z" />
    <glyph glyph-name="Gcircumflex" unicode="&#x11c;" horiz-adv-x="777" 
d="M470 775l-73 87l-74 -87h-98l132 156h78l129 -156h-94zM688 83q-99 -95 -273 -95q-155 0 -249 103t-94 265q0 158 91 262t233 104q64 0 115.5 -15.5t82.5 -40.5t48.5 -48t26.5 -46l-92 -33q-65 93 -181 93q-104 0 -164 -78t-60 -198q0 -126 65.5 -202t177.5 -76
q118 0 181 45v188h-186v87h278v-315z" />
    <glyph glyph-name="gcircumflex" unicode="&#x11d;" horiz-adv-x="607" 
d="M361 576l-69 112l-68 -112h-88l118 193h76l116 -193h-85zM424 78q-6 -12 -15.5 -23.5t-27.5 -29t-45.5 -28t-60.5 -10.5q-90 0 -151.5 70.5t-61.5 188.5q0 119 61.5 189.5t151.5 70.5q33 0 60.5 -10.5t45 -27.5t27.5 -30t16 -26v82h91v-483q0 -110 -58 -173.5t-171 -63.5
q-53 0 -95 14t-66 35.5t-36 38t-18 31.5l90 24q40 -60 125 -60q138 0 138 154v67zM426 246q0 76 -37 126t-97 50q-61 0 -98.5 -50t-37.5 -126q0 -75 37.5 -125t98.5 -50q60 0 97 50t37 125z" />
    <glyph glyph-name="Gbreve" unicode="&#x11e;" horiz-adv-x="777" 
d="M396 843q32 0 48.5 20.5t16.5 50.5v13h76v-15q0 -62 -37 -101.5t-104 -39.5t-104 39.5t-37 101.5v15h76v-13q0 -30 16.5 -50.5t48.5 -20.5zM688 83q-99 -95 -273 -95q-155 0 -249 103t-94 265q0 158 91 262t233 104q64 0 115.5 -15.5t82.5 -40.5t48.5 -48t26.5 -46
l-92 -33q-65 93 -181 93q-104 0 -164 -78t-60 -198q0 -126 65.5 -202t177.5 -76q118 0 181 45v188h-186v87h278v-315z" />
    <glyph glyph-name="gbreve" unicode="&#x11f;" horiz-adv-x="607" 
d="M292 644q29 0 44 20t15 49v17h75v-19q0 -61 -34.5 -99.5t-99.5 -38.5t-99.5 38.5t-34.5 99.5v19h75v-17q0 -28 15 -48.5t44 -20.5zM424 78q-6 -12 -15.5 -23.5t-27.5 -29t-45.5 -28t-60.5 -10.5q-90 0 -151.5 70.5t-61.5 188.5q0 119 61.5 189.5t151.5 70.5
q33 0 60.5 -10.5t45 -27.5t27.5 -30t16 -26v82h91v-483q0 -110 -58 -173.5t-171 -63.5q-53 0 -95 14t-66 35.5t-36 38t-18 31.5l90 24q40 -60 125 -60q138 0 138 154v67zM426 246q0 76 -37 126t-97 50q-61 0 -98.5 -50t-37.5 -126q0 -75 37.5 -125t98.5 -50q60 0 97 50
t37 125z" />
    <glyph glyph-name="Gdotaccent" unicode="&#x120;" horiz-adv-x="777" 
d="M349 778v143h94v-143h-94zM688 83q-99 -95 -273 -95q-155 0 -249 103t-94 265q0 158 91 262t233 104q64 0 115.5 -15.5t82.5 -40.5t48.5 -48t26.5 -46l-92 -33q-65 93 -181 93q-104 0 -164 -78t-60 -198q0 -126 65.5 -202t177.5 -76q118 0 181 45v188h-186v87h278v-315z
" />
    <glyph glyph-name="gdotaccent" unicode="&#x121;" horiz-adv-x="607" 
d="M245 589v143h94v-143h-94zM424 78q-6 -12 -15.5 -23.5t-27.5 -29t-45.5 -28t-60.5 -10.5q-90 0 -151.5 70.5t-61.5 188.5q0 119 61.5 189.5t151.5 70.5q33 0 60.5 -10.5t45 -27.5t27.5 -30t16 -26v82h91v-483q0 -110 -58 -173.5t-171 -63.5q-53 0 -95 14t-66 35.5t-36 38
t-18 31.5l90 24q40 -60 125 -60q138 0 138 154v67zM426 246q0 76 -37 126t-97 50q-61 0 -98.5 -50t-37.5 -126q0 -75 37.5 -125t98.5 -50q60 0 97 50t37 125z" />
    <glyph glyph-name="Gcommaaccent" unicode="&#x122;" horiz-adv-x="777" 
d="M688 83q-99 -95 -273 -95q-155 0 -249 103t-94 265q0 158 91 262t233 104q64 0 115.5 -15.5t82.5 -40.5t48.5 -48t26.5 -46l-92 -33q-65 93 -181 93q-104 0 -164 -78t-60 -198q0 -126 65.5 -202t177.5 -76q118 0 181 45v188h-186v87h278v-315zM450 -325h-67q35 65 35 115
h-52v115h112v-98q0 -68 -28 -132z" />
    <glyph glyph-name="gcommaaccent" unicode="&#x123;" horiz-adv-x="607" 
d="M244 819h67q-35 -65 -35 -115h52v-115h-112v98q0 68 28 132zM424 78q-6 -12 -15.5 -23.5t-27.5 -29t-45.5 -28t-60.5 -10.5q-90 0 -151.5 70.5t-61.5 188.5q0 119 61.5 189.5t151.5 70.5q33 0 60.5 -10.5t45 -27.5t27.5 -30t16 -26v82h91v-483q0 -110 -58 -173.5
t-171 -63.5q-53 0 -95 14t-66 35.5t-36 38t-18 31.5l90 24q40 -60 125 -60q138 0 138 154v67zM426 246q0 76 -37 126t-97 50q-61 0 -98.5 -50t-37.5 -126q0 -75 37.5 -125t98.5 -50q60 0 97 50t37 125z" />
    <glyph glyph-name="Hcircumflex" unicode="&#x124;" horiz-adv-x="807" 
d="M477 775l-73 87l-74 -87h-98l132 156h78l129 -156h-94zM110 0v710h97v-307h393v307h97v-710h-97v313h-393v-313h-97z" />
    <glyph glyph-name="hcircumflex" unicode="&#x125;" horiz-adv-x="609" 
d="M380 801l-73 87l-74 -87h-98l132 156h78l129 -156h-94zM92 0v736h91v-329q16 39 54 68.5t94 29.5q86 0 138 -58t52 -158v-289h-92v272q0 72 -32 110.5t-88 38.5q-59 0 -92.5 -39t-33.5 -110v-272h-91z" />
    <glyph glyph-name="Hbar" unicode="&#x126;" horiz-adv-x="807" 
d="M110 0v514h-98v76h98v120h97v-120h393v120h97v-120h98v-76h-98v-514h-97v313h-393v-313h-97zM207 403h393v111h-393v-111z" />
    <glyph glyph-name="hbar" unicode="&#x127;" horiz-adv-x="609" 
d="M92 0v574h-91v74h91v88h91v-88h180v-74h-180v-167q16 39 54 68.5t94 29.5q86 0 138 -58t52 -158v-289h-92v272q0 72 -32 110.5t-88 38.5q-59 0 -92.5 -39t-33.5 -110v-272h-91z" />
    <glyph glyph-name="Itilde" unicode="&#x128;" horiz-adv-x="319" 
d="M155 816l-36 22q-23 15 -34 15q-17 0 -17 -24v-56h-73v66q0 94 77 94q8 0 17 -2t15 -3.5t15.5 -6.5t13.5 -7.5t15.5 -9.5t14.5 -9l36 -22q26 -15 34 -15q17 0 17 24v56h73v-66q0 -94 -77 -94q-10 0 -19 1.5t-20.5 7t-15.5 7.5t-19 11.5t-17 10.5zM111 0v710h97v-710h-97z
" />
    <glyph glyph-name="itilde" unicode="&#x129;" horiz-adv-x="277" 
d="M58 575h-70v74q0 44 19.5 69t58.5 25q25 0 42 -9.5t42 -33.5l24 -23q19 -17 28 -17q17 0 17 23v65h70v-74q0 -44 -19.5 -69t-58.5 -25q-24 0 -41 10t-42 33l-24 23q-19 17 -28 17q-18 0 -18 -23v-65zM93 0v494h91v-494h-91z" />
    <glyph glyph-name="Imacron" unicode="&#x12a;" horiz-adv-x="319" 
d="M317 813h-316v78h316v-78zM111 0v710h97v-710h-97z" />
    <glyph glyph-name="imacron" unicode="&#x12b;" horiz-adv-x="277" 
d="M276 621h-275v78h275v-78zM93 0v494h91v-494h-91z" />
    <glyph glyph-name="Ibreve" unicode="&#x12c;" horiz-adv-x="319" 
d="M159 843q32 0 48.5 20.5t16.5 50.5v13h76v-15q0 -62 -37 -101.5t-104 -39.5t-104 39.5t-37 101.5v15h76v-13q0 -30 16.5 -50.5t48.5 -20.5zM111 0v710h97v-710h-97z" />
    <glyph glyph-name="ibreve" unicode="&#x12d;" horiz-adv-x="277" 
d="M138 644q29 0 44 20t15 49v17h75v-19q0 -61 -34.5 -99.5t-99.5 -38.5t-99.5 38.5t-34.5 99.5v19h75v-17q0 -28 15 -48.5t44 -20.5zM93 0v494h91v-494h-91z" />
    <glyph glyph-name="Iogonek" unicode="&#x12e;" horiz-adv-x="319" 
d="M111 0v710h97v-710q-27 -25 -36 -33t-24.5 -24t-20.5 -26t-5 -19q0 -30 39 -30h67v-82h-72q-129 0 -129 94q0 24 14 47t27 35.5t43 37.5z" />
    <glyph glyph-name="iogonek" unicode="&#x12f;" horiz-adv-x="277" 
d="M91 589v143h95v-143h-95zM93 0v494h91v-494h-1q-27 -25 -36 -33t-24.5 -24t-20.5 -26t-5 -19q0 -30 39 -30h67v-82h-72q-129 0 -129 94q0 24 15.5 47.5t28 34.5t46.5 38h1z" />
    <glyph glyph-name="Idotaccent" unicode="&#x130;" horiz-adv-x="319" 
d="M112 778v143h94v-143h-94zM111 0v710h97v-710h-97z" />
    <glyph glyph-name="dotlessi" unicode="&#x131;" horiz-adv-x="277" 
d="M93 0v494h91v-494h-91z" />
    <glyph glyph-name="IJ" unicode="&#x132;" horiz-adv-x="951" 
d="M111 0v710h97v-710h-97zM844 216q0 -110 -60.5 -168.5t-161.5 -58.5q-99 0 -159 58.5t-60 168.5v98h96v-98q0 -63 32.5 -99t90.5 -36q60 0 92.5 36t32.5 99v494h97v-494z" />
    <glyph glyph-name="ij" unicode="&#x133;" horiz-adv-x="555" 
d="M91 589v143h95v-143h-95zM369 589v143h95v-143h-95zM93 0v494h91v-494h-91zM462 -48q0 -166 -163 -166h-101v85h86q87 0 87 91v532h91v-542z" />
    <glyph glyph-name="Jcircumflex" unicode="&#x134;" horiz-adv-x="632" 
d="M549 775l-73 87l-74 -87h-98l132 156h78l129 -156h-94zM525 216q0 -110 -60.5 -168.5t-161.5 -58.5q-99 0 -159 58.5t-60 168.5v98h96v-98q0 -63 32.5 -99t90.5 -36q60 0 92.5 36t32.5 99v494h97v-494z" />
    <glyph glyph-name="jcircumflex" unicode="&#x135;" horiz-adv-x="278" 
d="M208 576l-69 112l-68 -112h-88l118 193h76l116 -193h-85zM185 -48q0 -166 -163 -166h-101v85h86q87 0 87 91v532h91v-542z" />
    <glyph glyph-name="Kcommaaccent" unicode="&#x136;" horiz-adv-x="722" 
d="M110 0v710h97v-326l353 326h133l-379 -348l399 -362h-136l-370 329v-329h-97zM410 -325h-67q35 65 35 115h-52v115h112v-98q0 -68 -28 -132z" />
    <glyph glyph-name="kcommaaccent" unicode="&#x137;" horiz-adv-x="556" 
d="M92 0v736h88v-454l233 212h125l-260 -233l273 -261h-123l-248 232v-232h-88zM332 -325h-67q35 65 35 115h-52v115h112v-98q0 -68 -28 -132z" />
    <glyph glyph-name="Lacute" unicode="&#x139;" horiz-adv-x="644" 
d="M110 778l102 150h110l-110 -150h-102zM110 0v710h97v-619h394v-91h-491z" />
    <glyph glyph-name="lacute" unicode="&#x13a;" horiz-adv-x="279" 
d="M89 804l102 150h110l-110 -150h-102zM94 0v736h91v-736h-91z" />
    <glyph glyph-name="Lcommaaccent" unicode="&#x13b;" horiz-adv-x="642" 
d="M110 0v710h97v-619h394v-91h-491zM403 -325h-67q35 65 35 115h-52v115h112v-98q0 -68 -28 -132z" />
    <glyph glyph-name="lcommaaccent" unicode="&#x13c;" horiz-adv-x="279" 
d="M94 0v736h91v-736h-91zM170 -325h-67q35 65 35 115h-52v115h112v-98q0 -68 -28 -132z" />
    <glyph glyph-name="Lcaron" unicode="&#x13d;" horiz-adv-x="644" 
d="M272 579l49 193h87l-56 -193h-80zM110 0v710h97v-619h394v-91h-491z" />
    <glyph glyph-name="lcaron" unicode="&#x13e;" horiz-adv-x="279" 
d="M247 579l49 193h87l-56 -193h-80zM94 0v736h91v-736h-91z" />
    <glyph glyph-name="Ldot" unicode="&#x13f;" horiz-adv-x="645" 
d="M110 0v710h97v-619h394v-91h-491zM429 324v142h116v-142h-116z" />
    <glyph glyph-name="ldot" unicode="&#x140;" horiz-adv-x="437" 
d="M94 0v736h91v-736h-91zM300 305v142h116v-142h-116z" />
    <glyph glyph-name="Lslash" unicode="&#x141;" horiz-adv-x="644" 
d="M112 0v228l-95 -54v89l95 54v393h97v-337l247 141v-92l-247 -140v-191h394v-91h-491z" />
    <glyph glyph-name="lslash" unicode="&#x142;" horiz-adv-x="349" 
d="M127 0v315l-103 -57v87l103 58v333h91v-282l107 60v-90l-107 -59v-365h-91z" />
    <glyph glyph-name="Nacute" unicode="&#x143;" horiz-adv-x="813" 
d="M369 778l102 150h110l-110 -150h-102zM703 710v-715h-73l-427 591v-586h-93v710h116l384 -538v538h93z" />
    <glyph glyph-name="nacute" unicode="&#x144;" horiz-adv-x="609" 
d="M263 579l98 183h100l-105 -183h-93zM92 0v494h91v-83q16 37 54 65.5t94 28.5q86 0 138 -56.5t52 -154.5v-294h-92v277q0 70 -32 107t-88 37q-59 0 -92.5 -37.5t-33.5 -106.5v-277h-91z" />
    <glyph glyph-name="Ncommaaccent" unicode="&#x145;" horiz-adv-x="813" 
d="M703 710v-715h-73l-427 591v-586h-93v710h116l384 -538v538h93zM439 -325h-67q35 65 35 115h-52v115h112v-98q0 -68 -28 -132z" />
    <glyph glyph-name="ncommaaccent" unicode="&#x146;" horiz-adv-x="609" 
d="M92 0v494h91v-83q16 37 54 65.5t94 28.5q86 0 138 -56.5t52 -154.5v-294h-92v277q0 70 -32 107t-88 37q-59 0 -92.5 -37.5t-33.5 -106.5v-277h-91zM339 -325h-67q35 65 35 115h-52v115h112v-98q0 -68 -28 -132z" />
    <glyph glyph-name="Ncaron" unicode="&#x147;" horiz-adv-x="813" 
d="M246 931h98l74 -87l73 87h94l-129 -156h-78zM703 710v-715h-73l-427 591v-586h-93v710h116l384 -538v538h93z" />
    <glyph glyph-name="ncaron" unicode="&#x148;" horiz-adv-x="609" 
d="M371 772h85l-116 -193h-76l-118 193h88l68 -112zM92 0v494h91v-83q16 37 54 65.5t94 28.5q86 0 138 -56.5t52 -154.5v-294h-92v277q0 70 -32 107t-88 37q-59 0 -92.5 -37.5t-33.5 -106.5v-277h-91z" />
    <glyph glyph-name="napostrophe" unicode="&#x149;" horiz-adv-x="840" 
d="M123 394l-57 21q60 105 60 191h-55v130h116v-120q0 -121 -64 -222zM323 0v494h91v-83q16 37 54 65.5t94 28.5q86 0 138 -56.5t52 -154.5v-294h-92v277q0 70 -32 107t-88 37q-59 0 -92.5 -37.5t-33.5 -106.5v-277h-91z" />
    <glyph glyph-name="Eng" unicode="&#x14a;" horiz-adv-x="815" 
d="M613 -35q0 51 -56 129l-354 497v-591h-93v710h118l384 -539v539h93v-745q0 -179 -176 -179h-79v88h60q103 0 103 91z" />
    <glyph glyph-name="eng" unicode="&#x14b;" horiz-adv-x="609" 
d="M92 0v494h91v-83q16 37 54 65.5t94 28.5q86 0 138 -56.5t52 -154.5v-342q0 -166 -163 -166h-102v85h86q87 0 87 91v315q0 70 -32 107t-88 37q-59 0 -92.5 -37.5t-33.5 -106.5v-277h-91z" />
    <glyph glyph-name="Omacron" unicode="&#x14c;" horiz-adv-x="782" 
d="M549 813h-316v78h316v-78zM391 -12q-145 0 -232 103t-87 264q0 160 87.5 263.5t231.5 103.5q143 0 231 -104t88 -263t-88 -263t-231 -104zM391 78q103 0 161 78t58 199q0 119 -58.5 198t-160.5 79t-160.5 -78.5t-58.5 -198.5q0 -122 58 -199.5t161 -77.5z" />
    <glyph glyph-name="omacron" unicode="&#x14d;" horiz-adv-x="584" 
d="M438 621h-290v78h290v-78zM292 506q104 0 168 -73.5t64 -185.5t-64 -185.5t-168 -73.5t-168 73.5t-64 185.5t64 185.5t168 73.5zM292 72q65 0 101.5 49.5t36.5 125.5t-36.5 125.5t-101.5 49.5t-101.5 -49.5t-36.5 -125.5t36 -125.5t102 -49.5z" />
    <glyph glyph-name="Obreve" unicode="&#x14e;" horiz-adv-x="782" 
d="M391 843q32 0 48.5 20.5t16.5 50.5v13h76v-15q0 -62 -37 -101.5t-104 -39.5t-104 39.5t-37 101.5v15h76v-13q0 -30 16.5 -50.5t48.5 -20.5zM391 -12q-145 0 -232 103t-87 264q0 160 87.5 263.5t231.5 103.5q143 0 231 -104t88 -263t-88 -263t-231 -104zM391 78
q103 0 161 78t58 199q0 119 -58.5 198t-160.5 79t-160.5 -78.5t-58.5 -198.5q0 -122 58 -199.5t161 -77.5z" />
    <glyph glyph-name="obreve" unicode="&#x14f;" horiz-adv-x="584" 
d="M292 644q29 0 44 20t15 49v17h75v-19q0 -61 -34.5 -99.5t-99.5 -38.5t-99.5 38.5t-34.5 99.5v19h75v-17q0 -28 15 -48.5t44 -20.5zM292 506q104 0 168 -73.5t64 -185.5t-64 -185.5t-168 -73.5t-168 73.5t-64 185.5t64 185.5t168 73.5zM292 72q65 0 101.5 49.5t36.5 125.5
t-36.5 125.5t-101.5 49.5t-101.5 -49.5t-36.5 -125.5t36 -125.5t102 -49.5z" />
    <glyph glyph-name="Ohungarumlaut" unicode="&#x150;" horiz-adv-x="782" 
d="M432 778l78 150h92l-85 -150h-85zM258 778l78 150h92l-85 -150h-85zM391 -12q-145 0 -232 103t-87 264q0 160 87.5 263.5t231.5 103.5q143 0 231 -104t88 -263t-88 -263t-231 -104zM391 78q103 0 161 78t58 199q0 119 -58.5 198t-160.5 79t-160.5 -78.5t-58.5 -198.5
q0 -122 58 -199.5t161 -77.5z" />
    <glyph glyph-name="ohungarumlaut" unicode="&#x151;" horiz-adv-x="584" 
d="M338 579l74 183h88l-81 -183h-81zM169 579l74 183h88l-81 -183h-81zM292 506q104 0 168 -73.5t64 -185.5t-64 -185.5t-168 -73.5t-168 73.5t-64 185.5t64 185.5t168 73.5zM292 72q65 0 101.5 49.5t36.5 125.5t-36.5 125.5t-101.5 49.5t-101.5 -49.5t-36.5 -125.5
t36 -125.5t102 -49.5z" />
    <glyph glyph-name="OE" unicode="&#x152;" horiz-adv-x="1054" 
d="M428 0q-161 0 -259.5 98.5t-98.5 256.5q0 156 99 255.5t259 99.5h541v-90h-363v-198h289v-90h-289v-242h400v-90h-578zM428 90h81v530h-81q-119 0 -188.5 -74t-69.5 -191t69.5 -191t188.5 -74z" />
    <glyph glyph-name="oe" unicode="&#x153;" horiz-adv-x="932" 
d="M662 -12q-69 0 -119 31.5t-73 78.5q-20 -46 -67 -78t-113 -32q-102 0 -166 73.5t-64 185.5t64 186t166 74q66 0 115 -30.5t69 -74.5q22 46 68 75.5t111 29.5q99 0 160.5 -71t61.5 -188v-14h-353q4 -71 40.5 -117t99.5 -46q85 0 123 61h87q-5 -20 -16.5 -40.5t-34.5 -46
t-64 -41.5t-95 -16zM653 429q-53 0 -85.5 -32.5t-42.5 -90.5h254q-24 123 -126 123zM292 71q66 0 102 49.5t36 126.5t-36 126.5t-102 49.5q-64 0 -101 -50t-37 -126t36.5 -126t101.5 -50z" />
    <glyph glyph-name="Racute" unicode="&#x154;" horiz-adv-x="751" 
d="M316 778l102 150h110l-110 -150h-102zM110 0v710h320q113 0 173 -50.5t60 -144.5q0 -154 -154 -187l187 -328h-105l-186 320h-198v-320h-97zM429 620h-222v-211h222q134 0 134 106q0 105 -134 105z" />
    <glyph glyph-name="racute" unicode="&#x155;" horiz-adv-x="449" 
d="M216 579l98 183h100l-105 -183h-93zM183 279v-279h-91v494h91v-89q14 36 54 64.5t114 28.5h65v-91h-73q-84 0 -122 -31t-38 -97z" />
    <glyph glyph-name="Rcommaaccent" unicode="&#x156;" horiz-adv-x="751" 
d="M110 0v710h320q113 0 173 -50.5t60 -144.5q0 -154 -154 -187l187 -328h-105l-186 320h-198v-320h-97zM429 620h-222v-211h222q134 0 134 106q0 105 -134 105zM414 -325h-67q35 65 35 115h-52v115h112v-98q0 -68 -28 -132z" />
    <glyph glyph-name="rcommaaccent" unicode="&#x157;" horiz-adv-x="449" 
d="M183 279v-279h-91v494h91v-89q14 36 54 64.5t114 28.5h65v-91h-73q-84 0 -122 -31t-38 -97zM169 -325h-67q35 65 35 115h-52v115h112v-98q0 -68 -28 -132z" />
    <glyph glyph-name="Rcaron" unicode="&#x158;" horiz-adv-x="751" 
d="M194 931h98l74 -87l73 87h94l-129 -156h-78zM110 0v710h320q113 0 173 -50.5t60 -144.5q0 -154 -154 -187l187 -328h-105l-186 320h-198v-320h-97zM429 620h-222v-211h222q134 0 134 106q0 105 -134 105z" />
    <glyph glyph-name="rcaron" unicode="&#x159;" horiz-adv-x="449" 
d="M332 772h85l-116 -193h-76l-118 193h88l68 -112zM183 279v-279h-91v494h91v-89q14 36 54 64.5t114 28.5h65v-91h-73q-84 0 -122 -31t-38 -97z" />
    <glyph glyph-name="Sacute" unicode="&#x15a;" horiz-adv-x="705" 
d="M293 778l102 150h110l-110 -150h-102zM333 634q-74 0 -115.5 -28.5t-41.5 -77.5q0 -84 135 -105q22 -3 52 -7.5t42 -6.5q107 -16 169 -62t62 -145q0 -94 -72 -154.5t-195 -60.5q-57 0 -105.5 12.5t-81 31t-59 43.5t-41 46.5t-24.5 44.5l95 35q11 -19 16 -26t25.5 -30
t40.5 -34.5t56 -22.5t77 -11q77 0 124 33.5t47 88.5q0 54 -37.5 80t-104.5 36q-27 4 -94 14q-107 16 -165.5 61.5t-58.5 136.5q0 90 70.5 143t183.5 53q65 0 117 -14.5t84 -39.5t50 -48t29 -49l-89 -33q-66 96 -191 96z" />
    <glyph glyph-name="sacute" unicode="&#x15b;" horiz-adv-x="538" 
d="M213 579l98 183h100l-105 -183h-93zM301 205l-69 8q-76 9 -120.5 46.5t-44.5 103.5q0 65 52.5 105t136.5 40q42 0 77 -8.5t56.5 -19.5t38 -27t24 -27t12.5 -22l-80 -29q-39 54 -128 54q-49 0 -74.5 -17t-25.5 -46q0 -56 88 -66l67 -8q169 -20 169 -153q0 -68 -52 -110.5
t-143 -42.5q-53 0 -95.5 12.5t-68 33t-40 39t-23.5 37.5l84 30q39 -71 143 -71q48 0 76 19t28 49q0 60 -88 70z" />
    <glyph glyph-name="Scircumflex" unicode="&#x15c;" horiz-adv-x="705" 
d="M417 775l-73 87l-74 -87h-98l132 156h78l129 -156h-94zM333 634q-74 0 -115.5 -28.5t-41.5 -77.5q0 -84 135 -105q22 -3 52 -7.5t42 -6.5q107 -16 169 -62t62 -145q0 -94 -72 -154.5t-195 -60.5q-57 0 -105.5 12.5t-81 31t-59 43.5t-41 46.5t-24.5 44.5l95 35
q11 -19 16 -26t25.5 -30t40.5 -34.5t56 -22.5t77 -11q77 0 124 33.5t47 88.5q0 54 -37.5 80t-104.5 36q-27 4 -94 14q-107 16 -165.5 61.5t-58.5 136.5q0 90 70.5 143t183.5 53q65 0 117 -14.5t84 -39.5t50 -48t29 -49l-89 -33q-66 96 -191 96z" />
    <glyph glyph-name="scircumflex" unicode="&#x15d;" horiz-adv-x="538" 
d="M335 576l-69 112l-68 -112h-88l118 193h76l116 -193h-85zM301 205l-69 8q-76 9 -120.5 46.5t-44.5 103.5q0 65 52.5 105t136.5 40q42 0 77 -8.5t56.5 -19.5t38 -27t24 -27t12.5 -22l-80 -29q-39 54 -128 54q-49 0 -74.5 -17t-25.5 -46q0 -56 88 -66l67 -8
q169 -20 169 -153q0 -68 -52 -110.5t-143 -42.5q-53 0 -95.5 12.5t-68 33t-40 39t-23.5 37.5l84 30q39 -71 143 -71q48 0 76 19t28 49q0 60 -88 70z" />
    <glyph glyph-name="Scedilla" unicode="&#x15e;" horiz-adv-x="706" 
d="M378 -156q0 34 -41 34h-61v118q-88 19 -140.5 67t-77.5 102l95 35q11 -19 16 -26t25.5 -30t40.5 -34.5t56 -22.5t77 -11q77 0 124 33.5t47 88.5q0 54 -37.5 80t-104.5 36q-27 4 -94 14q-107 16 -165.5 61.5t-58.5 136.5q0 90 70.5 143t183.5 53q65 0 117 -14.5t84 -39.5
t50 -48t29 -49l-89 -33q-66 96 -191 96q-74 0 -115.5 -28.5t-41.5 -77.5q0 -84 135 -105q22 -3 52 -7.5t42 -6.5q107 -16 169 -62t62 -145q0 -94 -72 -154.5t-195 -60.5h-13v-42q54 0 81.5 -27.5t27.5 -73.5q0 -49 -29 -79t-88 -30h-95v74h84q41 0 41 35z" />
    <glyph glyph-name="scedilla" unicode="&#x15f;" horiz-adv-x="538" 
d="M301 -156q0 34 -41 34h-61v118q-104 27 -141 112l84 30q39 -71 143 -71q48 0 76 19t28 49q0 60 -88 70l-69 8q-76 9 -120.5 46.5t-44.5 103.5q0 65 52.5 105t136.5 40q42 0 77 -8.5t56.5 -19.5t38 -27t24 -27t12.5 -22l-80 -29q-39 54 -128 54q-49 0 -74.5 -17t-25.5 -46
q0 -56 88 -66l67 -8q169 -20 169 -153q0 -68 -52 -110.5t-143 -42.5h-6v-41q54 0 81.5 -27.5t27.5 -73.5q0 -49 -29 -79t-88 -30h-95v74h84q41 0 41 35z" />
    <glyph glyph-name="Scaron" unicode="&#x160;" horiz-adv-x="705" 
d="M171 931h98l74 -87l73 87h94l-129 -156h-78zM333 634q-74 0 -115.5 -28.5t-41.5 -77.5q0 -84 135 -105q22 -3 52 -7.5t42 -6.5q107 -16 169 -62t62 -145q0 -94 -72 -154.5t-195 -60.5q-57 0 -105.5 12.5t-81 31t-59 43.5t-41 46.5t-24.5 44.5l95 35q11 -19 16 -26
t25.5 -30t40.5 -34.5t56 -22.5t77 -11q77 0 124 33.5t47 88.5q0 54 -37.5 80t-104.5 36q-27 4 -94 14q-107 16 -165.5 61.5t-58.5 136.5q0 90 70.5 143t183.5 53q65 0 117 -14.5t84 -39.5t50 -48t29 -49l-89 -33q-66 96 -191 96z" />
    <glyph glyph-name="scaron" unicode="&#x161;" horiz-adv-x="538" 
d="M335 772h85l-116 -193h-76l-118 193h88l68 -112zM301 205l-69 8q-76 9 -120.5 46.5t-44.5 103.5q0 65 52.5 105t136.5 40q42 0 77 -8.5t56.5 -19.5t38 -27t24 -27t12.5 -22l-80 -29q-39 54 -128 54q-49 0 -74.5 -17t-25.5 -46q0 -56 88 -66l67 -8q169 -20 169 -153
q0 -68 -52 -110.5t-143 -42.5q-53 0 -95.5 12.5t-68 33t-40 39t-23.5 37.5l84 30q39 -71 143 -71q48 0 76 19t28 49q0 60 -88 70z" />
    <glyph glyph-name="Tcommaaccent" unicode="&#x162;" horiz-adv-x="719" 
d="M311 0v620h-271v90h639v-90h-271v-620h-97zM390 -325h-67q35 65 35 115h-52v115h112v-98q0 -68 -28 -132z" />
    <glyph glyph-name="tcommaaccent" unicode="&#x163;" horiz-adv-x="465" 
d="M145 161v251h-114v82h114v216h91v-216h179v-82h-179v-232q0 -52 21 -74t75 -22h83v-84h-106q-164 0 -164 161zM299 -325h-67q35 65 35 115h-52v115h112v-98q0 -68 -28 -132z" />
    <glyph glyph-name="Tcaron" unicode="&#x164;" horiz-adv-x="719" 
d="M187 931h98l74 -87l73 87h94l-129 -156h-78zM311 0v620h-271v90h639v-90h-271v-620h-97z" />
    <glyph glyph-name="tcaron" unicode="&#x165;" horiz-adv-x="465" 
d="M299 579l49 193h87l-56 -193h-80zM145 161v251h-114v82h114v216h91v-216h179v-82h-179v-232q0 -52 21 -74t75 -22h83v-84h-106q-164 0 -164 161z" />
    <glyph glyph-name="Tbar" unicode="&#x166;" horiz-adv-x="719" 
d="M311 0v335h-184v84h184v201h-271v90h639v-90h-271v-201h184v-84h-184v-335h-97z" />
    <glyph glyph-name="tbar" unicode="&#x167;" horiz-adv-x="488" 
d="M160 161v80h-114v74h114v97h-114v82h114v216h91v-216h179v-82h-179v-97h179v-74h-179v-61q0 -52 21 -74t75 -22h83v-84h-106q-164 0 -164 161z" />
    <glyph glyph-name="Utilde" unicode="&#x168;" horiz-adv-x="794" 
d="M393 816l-36 22q-23 15 -34 15q-17 0 -17 -24v-56h-73v66q0 94 77 94q8 0 17 -2t15 -3.5t15.5 -6.5t13.5 -7.5t15.5 -9.5t14.5 -9l36 -22q26 -15 34 -15q17 0 17 24v56h73v-66q0 -94 -77 -94q-10 0 -19 1.5t-20.5 7t-15.5 7.5t-19 11.5t-17 10.5zM590 282v428h97v-436
q0 -122 -76.5 -204t-213.5 -82q-141 0 -215.5 80.5t-74.5 205.5v436h97v-428q0 -91 50 -146t143 -55q91 0 142 55.5t51 145.5z" />
    <glyph glyph-name="utilde" unicode="&#x169;" horiz-adv-x="598" 
d="M218 575h-71v74q0 44 19.5 69t58.5 25q25 0 43 -10t44 -33l25 -23q19 -17 29 -17q17 0 17 23v65h71v-74q0 -44 -19.5 -69t-58.5 -25q-25 0 -43 10t-43 33l-25 23q-19 17 -30 17q-17 0 -17 -23v-65zM300 -10q-102 0 -157 56t-55 150v298h92v-293q0 -57 31 -91t89 -34
q57 0 88.5 34t31.5 91v293h90v-298q0 -89 -56 -147.5t-154 -58.5z" />
    <glyph glyph-name="Umacron" unicode="&#x16a;" horiz-adv-x="794" 
d="M555 813h-316v78h316v-78zM590 282v428h97v-436q0 -122 -76.5 -204t-213.5 -82q-141 0 -215.5 80.5t-74.5 205.5v436h97v-428q0 -91 50 -146t143 -55q91 0 142 55.5t51 145.5z" />
    <glyph glyph-name="umacron" unicode="&#x16b;" horiz-adv-x="598" 
d="M446 621h-290v78h290v-78zM300 -10q-102 0 -157 56t-55 150v298h92v-293q0 -57 31 -91t89 -34q57 0 88.5 34t31.5 91v293h90v-298q0 -89 -56 -147.5t-154 -58.5z" />
    <glyph glyph-name="Ubreve" unicode="&#x16c;" horiz-adv-x="794" 
d="M397 843q32 0 48.5 20.5t16.5 50.5v13h76v-15q0 -62 -37 -101.5t-104 -39.5t-104 39.5t-37 101.5v15h76v-13q0 -30 16.5 -50.5t48.5 -20.5zM590 282v428h97v-436q0 -122 -76.5 -204t-213.5 -82q-141 0 -215.5 80.5t-74.5 205.5v436h97v-428q0 -91 50 -146t143 -55
q91 0 142 55.5t51 145.5z" />
    <glyph glyph-name="ubreve" unicode="&#x16d;" horiz-adv-x="598" 
d="M300 644q29 0 44 20t15 49v17h75v-19q0 -61 -34.5 -99.5t-99.5 -38.5t-99.5 38.5t-34.5 99.5v19h75v-17q0 -28 15 -48.5t44 -20.5zM300 -10q-102 0 -157 56t-55 150v298h92v-293q0 -57 31 -91t89 -34q57 0 88.5 34t31.5 91v293h90v-298q0 -89 -56 -147.5t-154 -58.5z" />
    <glyph glyph-name="Uring" unicode="&#x16e;" horiz-adv-x="794" 
d="M397 768q-55 0 -91.5 36t-36.5 89q0 54 36.5 90.5t91.5 36.5t91.5 -36.5t36.5 -90.5q0 -53 -36.5 -89t-91.5 -36zM397 829q27 0 44.5 18.5t17.5 45.5q0 28 -17 46t-45 18t-45 -18t-17 -46q0 -27 17.5 -45.5t44.5 -18.5zM590 282v428h97v-436q0 -122 -76.5 -204
t-213.5 -82q-141 0 -215.5 80.5t-74.5 205.5v436h97v-428q0 -91 50 -146t143 -55q91 0 142 55.5t51 145.5z" />
    <glyph glyph-name="uring" unicode="&#x16f;" horiz-adv-x="598" 
d="M300 567q-55 0 -91.5 36t-36.5 89q0 54 36.5 90.5t91.5 36.5t91.5 -36.5t36.5 -90.5q0 -53 -36.5 -89t-91.5 -36zM300 628q27 0 44.5 18.5t17.5 45.5q0 28 -17 46t-45 18t-45 -18t-17 -46q0 -27 17.5 -45.5t44.5 -18.5zM300 -10q-102 0 -157 56t-55 150v298h92v-293
q0 -57 31 -91t89 -34q57 0 88.5 34t31.5 91v293h90v-298q0 -89 -56 -147.5t-154 -58.5z" />
    <glyph glyph-name="Uhungarumlaut" unicode="&#x170;" horiz-adv-x="794" 
d="M438 778l78 150h92l-85 -150h-85zM264 778l78 150h92l-85 -150h-85zM590 282v428h97v-436q0 -122 -76.5 -204t-213.5 -82q-141 0 -215.5 80.5t-74.5 205.5v436h97v-428q0 -91 50 -146t143 -55q91 0 142 55.5t51 145.5z" />
    <glyph glyph-name="uhungarumlaut" unicode="&#x171;" horiz-adv-x="598" 
d="M341 579l74 183h88l-81 -183h-81zM172 579l74 183h88l-81 -183h-81zM300 -10q-102 0 -157 56t-55 150v298h92v-293q0 -57 31 -91t89 -34q57 0 88.5 34t31.5 91v293h90v-298q0 -89 -56 -147.5t-154 -58.5z" />
    <glyph glyph-name="Uogonek" unicode="&#x172;" horiz-adv-x="794" 
d="M553 12q-54 -44 -75.5 -68t-21.5 -45q0 -31 40 -31h66v-82h-72q-129 0 -129 94q0 52 79 110q-28 -2 -43 -2q-141 0 -215.5 80.5t-74.5 205.5v436h97v-428q0 -91 50 -146t143 -55q91 0 142 55.5t51 145.5v428h97v-436q0 -152 -134 -262z" />
    <glyph glyph-name="uogonek" unicode="&#x173;" horiz-adv-x="598" 
d="M422 10q-49 -46 -67 -68.5t-18 -42.5q0 -31 39 -31h67v-82h-72q-129 0 -129 94q0 32 21 56.5t61 54.5q-8 -1 -24 -1q-102 0 -157 56t-55 150v298h92v-293q0 -57 31 -91t89 -34q57 0 88.5 34t31.5 91v293h90v-298q0 -103 -88 -186z" />
    <glyph glyph-name="Wcircumflex" unicode="&#x174;" horiz-adv-x="1040" 
d="M598 775l-73 87l-74 -87h-98l132 156h78l129 -156h-94zM569 714l174 -560l163 556h91l-211 -714h-86l-177 558l-177 -558h-81l-222 714h102l166 -550l171 554h87z" />
    <glyph glyph-name="wcircumflex" unicode="&#x175;" horiz-adv-x="809" 
d="M476 576l-69 112l-68 -112h-88l118 193h76l116 -193h-85zM533 -4l-127 375l-127 -375h-81l-170 498h98l119 -365l123 369h84l122 -364l117 360h90l-168 -498h-80z" />
    <glyph glyph-name="Ycircumflex" unicode="&#x176;" horiz-adv-x="685" 
d="M422 775l-73 87l-74 -87h-98l132 156h78l129 -156h-94zM297 285l-282 425h120l213 -327l213 327h109l-276 -424v-286h-97v285z" />
    <glyph glyph-name="ycircumflex" unicode="&#x177;" horiz-adv-x="535" 
d="M340 576l-69 112l-68 -112h-88l118 193h76l116 -193h-85zM136 -214l88 222l-199 486h100l146 -367l146 367h93l-283 -708h-91z" />
    <glyph glyph-name="Ydieresis" unicode="&#x178;" horiz-adv-x="685" 
d="M205 778v139h92v-139h-92zM399 778v139h92v-139h-92zM297 285l-282 425h120l213 -327l213 327h109l-276 -424v-286h-97v285z" />
    <glyph glyph-name="Zacute" unicode="&#x179;" horiz-adv-x="709" 
d="M289 778l102 150h110l-110 -150h-102zM55 0v57l424 563h-415v90h557v-57l-428 -563h471v-90h-609z" />
    <glyph glyph-name="zacute" unicode="&#x17a;" horiz-adv-x="559" 
d="M222 579l98 183h100l-105 -183h-93zM56 0v53l289 359h-285v82h423v-52l-295 -360h327v-82h-459z" />
    <glyph glyph-name="Zdotaccent" unicode="&#x17b;" horiz-adv-x="709" 
d="M292 778v143h94v-143h-94zM55 0v57l424 563h-415v90h557v-57l-428 -563h471v-90h-609z" />
    <glyph glyph-name="zdotaccent" unicode="&#x17c;" horiz-adv-x="559" 
d="M225 589v143h94v-143h-94zM56 0v53l289 359h-285v82h423v-52l-295 -360h327v-82h-459z" />
    <glyph glyph-name="Zcaron" unicode="&#x17d;" horiz-adv-x="709" 
d="M167 931h98l74 -87l73 87h94l-129 -156h-78zM55 0v57l424 563h-415v90h557v-57l-428 -563h471v-90h-609z" />
    <glyph glyph-name="zcaron" unicode="&#x17e;" horiz-adv-x="559" 
d="M337 772h85l-116 -193h-76l-118 193h88l68 -112zM56 0v53l289 359h-285v82h423v-52l-295 -360h327v-82h-459z" />
    <glyph glyph-name="uni018F" unicode="&#x18f;" horiz-adv-x="750" 
d="M362 631q-137 0 -190 -128l-87 31q25 78 94 133t183 55q143 0 229.5 -105t86.5 -262q0 -161 -82 -264t-225 -103q-136 0 -217.5 100.5t-81.5 256.5q0 16 2 48h503q-7 104 -62.5 171t-152.5 67zM371 78q91 0 143 62t62 165h-402q9 -101 60.5 -164t136.5 -63z" />
    <glyph glyph-name="florin" unicode="&#x192;" horiz-adv-x="583" 
d="M45 342v83h164l19 119q14 88 56 127t137 39h146v-83h-137q-55 0 -78.5 -21.5t-31.5 -74.5l-17 -106h176v-83h-189l-89 -556h-92l87 556h-151z" />
    <glyph glyph-name="Aringacute" unicode="&#x1fa;" horiz-adv-x="744" 
d="M329 1059l92 140h102l-100 -140h-94zM369 768q-55 0 -91.5 36t-36.5 89q0 54 36.5 90.5t91.5 36.5t91.5 -36.5t36.5 -90.5q0 -53 -36.5 -89t-91.5 -36zM369 829q27 0 44.5 18.5t17.5 45.5q0 28 -17 46t-45 18t-45 -18t-17 -46q0 -27 17.5 -45.5t44.5 -18.5zM609 0
l-70 171h-340l-70 -171h-96l296 714h86l296 -714h-102zM236 259h266l-133 324z" />
    <glyph glyph-name="aringacute" unicode="&#x1fb;" horiz-adv-x="573" 
d="M231 858l89 150h96l-96 -150h-89zM274 567q-55 0 -91.5 36t-36.5 89q0 54 36.5 90.5t91.5 36.5t91.5 -36.5t36.5 -90.5q0 -53 -36.5 -89t-91.5 -36zM274 628q27 0 44.5 18.5t17.5 45.5q0 28 -17 46t-45 18t-45 -18t-17 -46q0 -27 17.5 -45.5t44.5 -18.5zM487 128
q0 -45 36 -51v-82q-96 0 -118 74q-47 -80 -151 -80q-86 0 -141 46t-55 121q0 71 48.5 110.5t137.5 39.5h156q0 56 -34.5 88.5t-91.5 32.5q-81 0 -116 -67l-83 29q7 15 18 31t33.5 38t61 35.5t86.5 13.5q103 0 158 -54.5t55 -145.5v-179zM265 65q55 0 95 29t40 74v66h-151
q-46 0 -73 -20t-27 -58q0 -41 31.5 -66t84.5 -25z" />
    <glyph glyph-name="AEacute" unicode="&#x1fc;" horiz-adv-x="1042" 
d="M646 778l102 150h110l-110 -150h-102zM0 0l449 710h508v-90h-363v-198h289v-90h-289v-242h400v-90h-497v183h-273l-114 -183h-110zM277 269h220v353z" />
    <glyph glyph-name="aeacute" unicode="&#x1fd;" horiz-adv-x="898" 
d="M399 579l98 183h100l-105 -183h-93zM628 71q81 0 127 67l78 -28q-6 -17 -19 -35t-36.5 -39t-62.5 -34.5t-87 -13.5q-69 0 -119.5 32.5t-74.5 80.5q-47 -112 -176 -112q-88 0 -144 45.5t-56 121.5q0 71 49 110.5t139 39.5h151q0 56 -34 88.5t-89 32.5q-81 0 -116 -67
l-83 29q7 15 18 31t33.5 38t61 35.5t86.5 13.5q62 0 108 -25t67 -66q55 91 171 91q99 0 160.5 -71t61.5 -188v-14h-353q4 -71 40.5 -117t98.5 -46zM620 429q-53 0 -85.5 -32.5t-42.5 -90.5h254q-24 123 -126 123zM262 65q55 0 95 31t40 82v56h-146q-47 0 -74.5 -20.5
t-27.5 -57.5q0 -40 31 -65.5t82 -25.5z" />
    <glyph glyph-name="Oslashacute" unicode="&#x1fe;" horiz-adv-x="782" 
d="M341 778l102 150h110l-110 -150h-102zM61 0l84 108q-73 99 -73 247q0 160 87.5 263.5t231.5 103.5q106 0 185 -60l37 48h108l-85 -109q74 -101 74 -246q0 -159 -88 -263t-231 -104q-108 0 -187 60l-38 -48h-105zM172 355q0 -99 35 -167l313 401q-52 43 -129 43
q-102 0 -160.5 -78.5t-58.5 -198.5zM391 78q102 0 160.5 78.5t58.5 198.5q0 99 -36 167l-313 -401q52 -43 130 -43z" />
    <glyph glyph-name="oslashacute" unicode="&#x1ff;" horiz-adv-x="584" 
d="M246 579l98 183h100l-105 -183h-93zM48 0l63 79q-51 68 -51 168q0 113 64 186.5t168 73.5q73 0 129 -39l20 26h95l-62 -78q50 -70 50 -169q0 -112 -64 -185.5t-168 -73.5q-74 0 -129 39l-22 -27h-93zM154 247q0 -56 16 -94l198 249q-33 22 -76 22q-65 0 -101.5 -50
t-36.5 -127zM430 247q0 56 -16 94l-199 -248q32 -23 77 -23q65 0 101.5 50t36.5 127z" />
    <glyph glyph-name="Scommaaccent" unicode="&#x218;" horiz-adv-x="705" 
d="M333 634q-74 0 -115.5 -28.5t-41.5 -77.5q0 -84 135 -105q22 -3 52 -7.5t42 -6.5q107 -16 169 -62t62 -145q0 -94 -72 -154.5t-195 -60.5q-57 0 -105.5 12.5t-81 31t-59 43.5t-41 46.5t-24.5 44.5l95 35q11 -19 16 -26t25.5 -30t40.5 -34.5t56 -22.5t77 -11
q77 0 124 33.5t47 88.5q0 54 -37.5 80t-104.5 36q-27 4 -94 14q-107 16 -165.5 61.5t-58.5 136.5q0 90 70.5 143t183.5 53q65 0 117 -14.5t84 -39.5t50 -48t29 -49l-89 -33q-66 96 -191 96zM407 -325h-67q35 65 35 115h-52v115h112v-98q0 -68 -28 -132z" />
    <glyph glyph-name="scommaaccent" unicode="&#x219;" horiz-adv-x="538" 
d="M301 205l-69 8q-76 9 -120.5 46.5t-44.5 103.5q0 65 52.5 105t136.5 40q42 0 77 -8.5t56.5 -19.5t38 -27t24 -27t12.5 -22l-80 -29q-39 54 -128 54q-49 0 -74.5 -17t-25.5 -46q0 -56 88 -66l67 -8q169 -20 169 -153q0 -68 -52 -110.5t-143 -42.5q-53 0 -95.5 12.5t-68 33
t-40 39t-23.5 37.5l84 30q39 -71 143 -71q48 0 76 19t28 49q0 60 -88 70zM314 -325h-67q35 65 35 115h-52v115h112v-98q0 -68 -28 -132z" />
    <glyph glyph-name="uni021A" unicode="&#x21a;" horiz-adv-x="723" 
d="M311 0v620h-271v90h639v-90h-271v-620h-97zM392 -325h-67q35 65 35 115h-52v115h112v-98q0 -68 -28 -132z" />
    <glyph glyph-name="uni021B" unicode="&#x21b;" horiz-adv-x="481" 
d="M145 161v251h-114v82h114v216h91v-216h179v-82h-179v-232q0 -52 21 -74t75 -22h83v-84h-106q-164 0 -164 161zM314 -325h-67q35 65 35 115h-52v115h112v-98q0 -68 -28 -132z" />
    <glyph glyph-name="dotlessj" unicode="&#x237;" horiz-adv-x="278" 
d="M185 -48q0 -166 -163 -166h-101v85h86q87 0 87 91v532h91v-542z" />
    <glyph glyph-name="uni0259" unicode="&#x259;" horiz-adv-x="569" 
d="M284 -12q-101 0 -162.5 71t-61.5 188v14h357q-4 71 -41 117t-101 46q-82 0 -128 -67l-78 28q15 42 65 82t141 40q106 0 170 -74t64 -185q0 -115 -61.5 -187.5t-163.5 -72.5zM284 66q54 0 87 32.5t43 90.5h-258q24 -123 128 -123z" />
    <glyph glyph-name="uni02BC" unicode="&#x2bc;" horiz-adv-x="292" 
d="M140 394l-57 21q60 105 60 191h-55v130h116v-120q0 -121 -64 -222z" />
    <glyph glyph-name="circumflex" unicode="&#x2c6;" horiz-adv-x="600" 
d="M329 576l-69 112l-68 -112h-88l118 193h76l116 -193h-85z" />
    <glyph glyph-name="caron" unicode="&#x2c7;" horiz-adv-x="600" 
d="M329 772h85l-116 -193h-76l-118 193h88l68 -112z" />
    <glyph glyph-name="breve" unicode="&#x2d8;" horiz-adv-x="600" 
d="M300 644q29 0 44 20t15 49v17h75v-19q0 -61 -34.5 -99.5t-99.5 -38.5t-99.5 38.5t-34.5 99.5v19h75v-17q0 -28 15 -48.5t44 -20.5z" />
    <glyph glyph-name="dotaccent" unicode="&#x2d9;" horiz-adv-x="600" 
d="M253 589v143h94v-143h-94z" />
    <glyph glyph-name="ring" unicode="&#x2da;" horiz-adv-x="600" 
d="M300 567q-55 0 -91.5 36t-36.5 89q0 54 36.5 90.5t91.5 36.5t91.5 -36.5t36.5 -90.5q0 -53 -36.5 -89t-91.5 -36zM300 628q27 0 44.5 18.5t17.5 45.5q0 28 -17 46t-45 18t-45 -18t-17 -46q0 -27 17.5 -45.5t44.5 -18.5z" />
    <glyph glyph-name="ogonek" unicode="&#x2db;" horiz-adv-x="600" 
d="M234 -120q0 24 15.5 47.5t28 34.5t46.5 38h91q-27 -25 -36 -33t-24.5 -24t-20.5 -26t-5 -19q0 -30 39 -30h67v-82h-72q-129 0 -129 94z" />
    <glyph glyph-name="tilde" unicode="&#x2dc;" horiz-adv-x="600" 
d="M218 575h-71v74q0 44 19.5 69t58.5 25q25 0 43 -10t44 -33l25 -23q19 -17 29 -17q17 0 17 23v65h71v-74q0 -44 -19.5 -69t-58.5 -25q-25 0 -43 10t-43 33l-25 23q-19 17 -30 17q-17 0 -17 -23v-65z" />
    <glyph glyph-name="hungarumlaut" unicode="&#x2dd;" horiz-adv-x="600" 
d="M303 579l74 183h88l-81 -183h-81zM134 579l74 183h88l-81 -183h-81z" />
    <glyph glyph-name="uni0401" unicode="&#x401;" horiz-adv-x="705" 
d="M230 778v139h92v-139h-92zM424 778v139h92v-139h-92zM110 0v710h510v-90h-414v-198h340v-90h-340v-242h451v-90h-547z" />
    <glyph glyph-name="uni0402" unicode="&#x402;" horiz-adv-x="920" 
d="M303 0v620h-263v90h643v-90h-283v-218q79 25 161 25q131 0 200 -64.5t69 -185.5q0 -96 -59.5 -169.5t-157.5 -73.5q-50 0 -94 18l32 81q33 -13 62 -13q60 0 90 46t30 110q0 167 -173 167q-37 0 -77 -6.5t-61 -13.5l-22 -7v-316h-97z" />
    <glyph glyph-name="uni0403" unicode="&#x403;" horiz-adv-x="687" 
d="M309 778l102 150h110l-110 -150h-102zM110 0v710h539v-91h-442v-619h-97z" />
    <glyph glyph-name="uni0404" unicode="&#x404;" horiz-adv-x="730" 
d="M381 -12q-139 0 -224 105t-85 262t85 262t224 105q56 0 103 -14t76.5 -34.5t52 -47.5t32.5 -48.5t16 -41.5l-91 -33q-8 18 -19.5 36t-33 41t-57 37t-79.5 14q-88 0 -141 -64t-63 -164h255v-90h-256q10 -102 63 -168t142 -66q132 0 192 130l86 -31q-5 -18 -15 -38.5
t-32 -48.5t-51.5 -50t-76.5 -37.5t-103 -15.5z" />
    <glyph glyph-name="uni0405" unicode="&#x405;" horiz-adv-x="706" 
d="M333 634q-74 0 -115.5 -28.5t-41.5 -77.5q0 -84 135 -105q22 -3 52 -7.5t42 -6.5q107 -16 169 -62t62 -145q0 -94 -72 -154.5t-195 -60.5q-57 0 -105.5 12.5t-81 31t-59 43.5t-41 46.5t-24.5 44.5l95 35q11 -19 16 -26t25.5 -30t40.5 -34.5t56 -22.5t77 -11
q77 0 124 33.5t47 88.5q0 54 -37.5 80t-104.5 36q-27 4 -94 14q-107 16 -165.5 61.5t-58.5 136.5q0 90 70.5 143t183.5 53q65 0 117 -14.5t84 -39.5t50 -48t29 -49l-89 -33q-66 96 -191 96z" />
    <glyph glyph-name="uni0406" unicode="&#x406;" horiz-adv-x="319" 
d="M111 0v710h97v-710h-97z" />
    <glyph glyph-name="uni0407" unicode="&#x407;" horiz-adv-x="318" 
d="M16 778v139h92v-139h-92zM210 778v139h92v-139h-92zM111 0v710h97v-710h-97z" />
    <glyph glyph-name="uni0408" unicode="&#x408;" horiz-adv-x="637" 
d="M525 216q0 -110 -60.5 -168.5t-161.5 -58.5q-99 0 -159 58.5t-60 168.5v98h96v-98q0 -63 32.5 -99t90.5 -36q60 0 92.5 36t32.5 99v494h97v-494z" />
    <glyph glyph-name="uni0409" unicode="&#x409;" horiz-adv-x="1169" 
d="M269 292q-15 -160 -57.5 -229t-147.5 -69h-11l-13 95h17q61 0 85 46t36 168l38 407h451v-268h191q121 0 186 -60.5t65 -162.5q0 -105 -64 -162t-187 -57h-288v620h-270zM861 352h-194v-262h194q73 0 110.5 34t37.5 97q0 60 -38 95.5t-110 35.5z" />
    <glyph glyph-name="uni040A" unicode="&#x40a;" horiz-adv-x="1179" 
d="M110 0v710h97v-288h376v288h97v-288h191q119 0 183.5 -57.5t64.5 -154.5q0 -101 -63.5 -155.5t-184.5 -54.5h-288v332h-376v-332h-97zM874 332h-194v-242h194q145 0 145 122q0 54 -37 87t-108 33z" />
    <glyph glyph-name="uni040B" unicode="&#x40b;" horiz-adv-x="920" 
d="M303 0v620h-263v90h643v-90h-283v-218q79 25 166 25q134 0 199 -62.5t65 -199.5v-165h-97v162q0 96 -42 138.5t-131 42.5q-37 0 -77 -6.5t-61 -13.5l-22 -7v-316h-97z" />
    <glyph glyph-name="uni040C" unicode="&#x40c;" horiz-adv-x="722" 
d="M299 778l102 150h110l-110 -150h-102zM110 0v710h97v-326l353 326h133l-379 -348l399 -362h-136l-370 329v-329h-97z" />
    <glyph glyph-name="uni040E" unicode="&#x40e;" horiz-adv-x="698" 
d="M374 843q32 0 48.5 20.5t16.5 50.5v13l76 -10v-5q0 -62 -37 -101.5t-104 -39.5t-104 39.5t-37 101.5v5l76 10v-13q0 -30 16.5 -50.5t48.5 -20.5zM75 140v14l95 16v-30q0 -60 53 -60q28 0 44.5 17.5t40.5 66.5l10 21l-293 525h112l234 -420l212 420h100l-287 -568
q-21 -41 -34 -62t-34 -45.5t-47 -34.5t-61 -10q-68 0 -106.5 40t-38.5 110z" />
    <glyph glyph-name="uni040F" unicode="&#x40f;" horiz-adv-x="797" 
d="M110 710h97v-620h383v620h97v-710h-245v-161h-87v161h-245v710z" />
    <glyph glyph-name="uni0410" unicode="&#x410;" horiz-adv-x="744" 
d="M609 0l-70 171h-340l-70 -171h-96l296 714h86l296 -714h-102zM236 259h266l-133 324z" />
    <glyph glyph-name="uni0411" unicode="&#x411;" horiz-adv-x="721" 
d="M398 420q121 0 186 -57.5t65 -155.5q0 -99 -64 -153t-187 -54h-288v710h484v-91h-387v-199h191zM401 330h-194v-240h194q148 0 148 119q0 55 -38 88t-110 33z" />
    <glyph glyph-name="uni0412" unicode="&#x412;" horiz-adv-x="752" 
d="M110 0v710h346q100 0 154 -50.5t54 -140.5q0 -54 -33 -93.5t-79 -53.5q55 -14 91.5 -58.5t36.5 -109.5q0 -96 -63 -150t-184 -54h-323zM451 621h-245v-210h246q53 0 82.5 27.5t29.5 77.5q0 105 -113 105zM430 322h-224v-233h224q151 0 151 117q0 116 -151 116z" />
    <glyph glyph-name="uni0413" unicode="&#x413;" horiz-adv-x="687" 
d="M110 0v710h539v-91h-442v-619h-97z" />
    <glyph glyph-name="uni0414" unicode="&#x414;" horiz-adv-x="787" 
d="M185 710h472v-620h110v-251h-87v161h-583v-161h-87v251h83q40 62 55 223zM560 90v530h-291l-29 -314q-15 -158 -45 -216h365z" />
    <glyph glyph-name="uni0415" unicode="&#x415;" horiz-adv-x="705" 
d="M110 0v710h510v-90h-414v-198h340v-90h-340v-242h451v-90h-547z" />
    <glyph glyph-name="uni0416" unicode="&#x416;" horiz-adv-x="1072" 
d="M9 0l372 356l-355 354h133l327 -328v328h97v-328l327 328h133l-354 -352l374 -358h-136l-344 331v-331h-97v331l-344 -331h-133z" />
    <glyph glyph-name="uni0417" unicode="&#x417;" horiz-adv-x="716" 
d="M357 722q125 0 196.5 -52.5t71.5 -137.5q0 -62 -33 -104t-79 -56q55 -14 91.5 -57t36.5 -104q0 -104 -70.5 -163.5t-197.5 -59.5q-130 0 -204 55t-98 135l87 31q19 -54 72.5 -92t141.5 -38q82 0 126 34.5t44 96.5q0 112 -151 112h-104v89h108q130 0 130 111
q0 53 -43.5 81t-124.5 28q-80 0 -129 -37t-68 -91l-87 31q22 80 95.5 134t188.5 54z" />
    <glyph glyph-name="uni0418" unicode="&#x418;" horiz-adv-x="817" 
d="M110 0v710h97v-572l403 572h97v-710h-97v574l-403 -574h-97z" />
    <glyph glyph-name="uni0419" unicode="&#x419;" horiz-adv-x="817" 
d="M409 843q32 0 48.5 20.5t16.5 50.5v13l76 -10v-5q0 -62 -37 -101.5t-104 -39.5t-104 39.5t-37 101.5v5l76 10v-13q0 -30 16.5 -50.5t48.5 -20.5zM110 0v710h97v-572l403 572h97v-710h-97v574l-403 -574h-97z" />
    <glyph glyph-name="uni041A" unicode="&#x41a;" horiz-adv-x="722" 
d="M110 0v710h97v-326l353 326h133l-379 -348l399 -362h-136l-370 329v-329h-97z" />
    <glyph glyph-name="uni041B" unicode="&#x41b;" horiz-adv-x="797" 
d="M269 292q-15 -160 -57.5 -229t-147.5 -69h-11l-13 95h17q61 0 85 46t36 168l38 407h471v-710h-97v620h-290z" />
    <glyph glyph-name="uni041C" unicode="&#x41c;" horiz-adv-x="951" 
d="M110 0v710h149l219 -566l218 566h145v-710h-92v618l-242 -622h-67l-240 616v-612h-90z" />
    <glyph glyph-name="uni041D" unicode="&#x41d;" horiz-adv-x="807" 
d="M110 0v710h97v-307h393v307h97v-710h-97v313h-393v-313h-97z" />
    <glyph glyph-name="uni041E" unicode="&#x41e;" horiz-adv-x="782" 
d="M391 -12q-145 0 -232 103t-87 264q0 160 87.5 263.5t231.5 103.5q143 0 231 -104t88 -263t-88 -263t-231 -104zM391 78q103 0 161 78t58 199q0 119 -58.5 198t-160.5 79t-160.5 -78.5t-58.5 -198.5q0 -122 58 -199.5t161 -77.5z" />
    <glyph glyph-name="uni041F" unicode="&#x41f;" horiz-adv-x="797" 
d="M110 0v710h577v-710h-97v620h-383v-620h-97z" />
    <glyph glyph-name="uni0420" unicode="&#x420;" horiz-adv-x="723" 
d="M110 0v710h317q115 0 175.5 -52t60.5 -147q0 -93 -61 -148t-175 -55h-220v-308h-97zM430 620h-223v-222h223q65 0 99 30.5t34 80.5q0 53 -33.5 82t-99.5 29z" />
    <glyph glyph-name="uni0421" unicode="&#x421;" horiz-adv-x="730" 
d="M381 -12q-139 0 -224 105t-85 262t85 262t224 105q56 0 103 -14t76.5 -34.5t52 -47.5t32.5 -48.5t16 -41.5l-91 -33q-8 18 -19.5 36t-33 41t-57 37t-79.5 14q-98 0 -152.5 -79.5t-54.5 -196.5t54.5 -196.5t152.5 -79.5q132 0 192 130l86 -31q-5 -18 -15 -38.5t-32 -48.5
t-51.5 -50t-76.5 -37.5t-103 -15.5z" />
    <glyph glyph-name="uni0422" unicode="&#x422;" horiz-adv-x="723" 
d="M311 0v620h-271v90h639v-90h-271v-620h-97z" />
    <glyph glyph-name="uni0423" unicode="&#x423;" horiz-adv-x="698" 
d="M75 140v14l95 16v-30q0 -60 53 -60q28 0 44.5 17.5t40.5 66.5l10 21l-293 525h112l234 -420l212 420h100l-287 -568q-21 -41 -34 -62t-34 -45.5t-47 -34.5t-61 -10q-68 0 -106.5 40t-38.5 110z" />
    <glyph glyph-name="uni0424" unicode="&#x424;" horiz-adv-x="1029" 
d="M334 125q-134 0 -204 64.5t-70 176.5q0 114 69.5 175.5t204.5 61.5h132v117h97v-117h132q135 0 204.5 -61.5t69.5 -175.5q0 -112 -70 -176.5t-204 -64.5h-132v-135h-97v135h-132zM466 215v298h-135q-85 0 -128 -38.5t-43 -110.5q0 -68 43.5 -108.5t127.5 -40.5h135z
M698 513h-135v-298h135q84 0 127.5 40.5t43.5 108.5q0 72 -43 110.5t-128 38.5z" />
    <glyph glyph-name="uni0425" unicode="&#x425;" horiz-adv-x="785" 
d="M151 0h-117l297 373l-271 337h127l206 -259l207 259h118l-266 -333l299 -377h-121l-240 299z" />
    <glyph glyph-name="uni0426" unicode="&#x426;" horiz-adv-x="817" 
d="M590 90v620h97v-620h110v-251h-87v161h-600v710h97v-620h383z" />
    <glyph glyph-name="uni0427" unicode="&#x427;" horiz-adv-x="767" 
d="M560 0v298q-93 -25 -196 -25q-139 0 -206.5 62t-67.5 200v175h97v-172q0 -97 42.5 -138t133.5 -41q45 0 94 6.5t76 12.5l27 6v326h97v-710h-97z" />
    <glyph glyph-name="uni0428" unicode="&#x428;" horiz-adv-x="1097" 
d="M110 710h97v-620h293v620h97v-620h293v620h97v-710h-877v710z" />
    <glyph glyph-name="uni0429" unicode="&#x429;" horiz-adv-x="1117" 
d="M110 710h97v-620h293v620h97v-620h293v620h97v-620h110v-251h-87v161h-900v710z" />
    <glyph glyph-name="uni042A" unicode="&#x42a;" horiz-adv-x="819" 
d="M38 619v91h279v-268h191q121 0 186 -60.5t65 -162.5q0 -105 -64 -162t-187 -57h-288v619h-182zM511 352h-194v-262h194q73 0 110.5 34t37.5 97q0 60 -38 95.5t-110 35.5z" />
    <glyph glyph-name="uni042B" unicode="&#x42b;" horiz-adv-x="955" 
d="M398 442q121 0 186 -60.5t65 -162.5q0 -105 -64 -162t-187 -57h-288v710h97v-268h191zM748 0v710h97v-710h-97zM401 352h-194v-262h194q73 0 110.5 34t37.5 97q0 60 -38 95.5t-110 35.5z" />
    <glyph glyph-name="uni042C" unicode="&#x42c;" horiz-adv-x="709" 
d="M398 442q121 0 186 -60.5t65 -162.5q0 -105 -64 -162t-187 -57h-288v710h97v-268h191zM401 352h-194v-262h194q73 0 110.5 34t37.5 97q0 60 -38 95.5t-110 35.5z" />
    <glyph glyph-name="uni042D" unicode="&#x42d;" horiz-adv-x="730" 
d="M349 -12q-56 0 -103 15.5t-76.5 37.5t-51.5 50t-32 48.5t-15 38.5l86 31q60 -130 192 -130q89 0 142 66t63 168h-256v90h255q3 -24 3 -48q0 -14 -2 -42h31v90h-32q-10 100 -63 164t-141 64q-44 0 -79.5 -14t-57 -37t-33 -41t-19.5 -36l-91 33q6 20 16 41.5t32.5 48.5
t52 47.5t76.5 34.5t103 14q139 0 224 -105t85 -262t-85 -262t-224 -105z" />
    <glyph glyph-name="uni042E" unicode="&#x42e;" horiz-adv-x="1012" 
d="M110 0v710h97v-307h117q13 141 96 230t211 89q139 0 224 -104t85 -263t-85 -263t-224 -104q-131 0 -213.5 90t-93.5 235h-117v-313h-97zM631 78q98 0 153.5 78t55.5 199q0 120 -55.5 198.5t-153.5 78.5t-153.5 -78.5t-55.5 -198.5q0 -122 55.5 -199.5t153.5 -77.5z" />
    <glyph glyph-name="uni042F" unicode="&#x42f;" horiz-adv-x="761" 
d="M170 0h-105l189 313q-156 34 -156 192q0 99 60 152t173 53h320v-710h-97v300h-200zM332 389h222v231h-222q-134 0 -134 -115q0 -116 134 -116z" />
    <glyph glyph-name="uni0430" unicode="&#x430;" horiz-adv-x="601" 
d="M487 128q0 -45 36 -51v-82q-96 0 -118 74q-47 -80 -151 -80q-86 0 -141 46t-55 121q0 71 48.5 110.5t137.5 39.5h156q0 56 -34.5 88.5t-91.5 32.5q-81 0 -116 -67l-83 29q7 15 18 31t33.5 38t61 35.5t86.5 13.5q103 0 158 -54.5t55 -145.5v-179zM265 65q55 0 95 29t40 74
v66h-151q-46 0 -73 -20t-27 -58q0 -41 31.5 -66t84.5 -25z" />
    <glyph glyph-name="uni0431" unicode="&#x431;" horiz-adv-x="594" 
d="M70 258q0 55 7 147q11 128 72.5 198t199.5 100q110 23 147 39l12 -83q-42 -21 -158 -45q-98 -22 -139 -65.5t-50 -143.5q47 81 152 81q99 0 160 -67.5t61 -181.5q0 -107 -64.5 -178t-167.5 -71q-107 0 -169.5 73t-62.5 197zM302 72q65 0 101.5 47t36.5 118t-36.5 118
t-101.5 47t-101.5 -47t-36.5 -118q0 -72 36 -118.5t102 -46.5z" />
    <glyph glyph-name="uni0432" unicode="&#x432;" horiz-adv-x="565" 
d="M92 0v494h233q75 0 122.5 -33t47.5 -97q0 -43 -21.5 -71t-52.5 -38q38 -10 63.5 -38t25.5 -72q0 -65 -50.5 -105t-134.5 -40h-233zM325 414h-142v-122h142q43 0 61.5 15t18.5 49q0 58 -80 58zM327 212h-144v-132h143q49 0 69 16.5t20 48.5q0 33 -19 50t-69 17z" />
    <glyph glyph-name="uni0433" unicode="&#x433;" horiz-adv-x="460" 
d="M92 0v494h328v-82h-237v-412h-91z" />
    <glyph glyph-name="uni0434" unicode="&#x434;" horiz-adv-x="601" 
d="M96 -149h-81v231h59q22 29 34.5 81t20.5 146l17 185h345v-412h90v-231h-81v149h-404v-149zM400 82v330h-180l-10 -110q-16 -168 -48 -220h238z" />
    <glyph glyph-name="uni0435" unicode="&#x435;" horiz-adv-x="565" 
d="M285 507q101 0 162.5 -71t61.5 -188v-14h-357q4 -71 41 -117t101 -46q82 0 128 67l78 -28q-15 -42 -65 -82t-141 -40q-106 0 -170 74t-64 185q0 115 61.5 187.5t163.5 72.5zM285 429q-54 0 -87 -32.5t-43 -90.5h258q-24 123 -128 123z" />
    <glyph glyph-name="uni0436" unicode="&#x436;" horiz-adv-x="796" 
d="M352 0v225l-228 -225h-119l257 253l-245 241h122l213 -215v215h88v-215l213 215h121l-243 -239l260 -255h-123l-228 225v-225h-88z" />
    <glyph glyph-name="uni0437" unicode="&#x437;" horiz-adv-x="534" 
d="M269 71q114 0 114 72q0 30 -22 49t-66 19h-78v82h78q37 0 58.5 16.5t21.5 48.5q0 31 -26.5 48t-74.5 17q-93 0 -126 -77l-81 30q19 52 72.5 91.5t136.5 39.5q88 0 138.5 -39t50.5 -107q0 -42 -22 -69.5t-52 -36.5q37 -11 62 -39.5t25 -73.5q0 -70 -57 -112t-152 -42
q-163 0 -213 135l78 28q42 -80 135 -80z" />
    <glyph glyph-name="uni0438" unicode="&#x438;" horiz-adv-x="617" 
d="M92 0v494h91v-363l251 363h91v-494h-91v366l-251 -366h-91z" />
    <glyph glyph-name="uni0439" unicode="&#x439;" horiz-adv-x="617" 
d="M308 644q29 0 44 20t15 49v17l75 -10v-9q0 -61 -34.5 -99.5t-99.5 -38.5t-99.5 38.5t-34.5 99.5v9l75 10v-17q0 -28 15 -48.5t44 -20.5zM92 0v494h91v-363l251 363h91v-494h-91v366l-251 -366h-91z" />
    <glyph glyph-name="uni043A" unicode="&#x43a;" horiz-adv-x="556" 
d="M92 0v494h88v-217l233 217h121l-258 -236l275 -258h-123l-248 227v-227h-88z" />
    <glyph glyph-name="uni043B" unicode="&#x43b;" horiz-adv-x="592" 
d="M135 220l27 274h338v-494h-91v412h-174l-19 -198q-12 -118 -47 -169.5t-112 -51.5h-15l-12 82h12q50 0 67 29t26 116z" />
    <glyph glyph-name="uni043C" unicode="&#x43c;" horiz-adv-x="756" 
d="M92 0v494h141l147 -361l147 361h137v-494h-89v410l-168 -413h-63l-166 408v-405h-86z" />
    <glyph glyph-name="uni043D" unicode="&#x43d;" horiz-adv-x="607" 
d="M92 0v494h91v-202h241v202h91v-494h-91v210h-241v-210h-91z" />
    <glyph glyph-name="uni043E" unicode="&#x43e;" horiz-adv-x="584" 
d="M292 506q104 0 168 -73.5t64 -185.5t-64 -185.5t-168 -73.5t-168 73.5t-64 185.5t64 185.5t168 73.5zM292 72q65 0 101.5 49.5t36.5 125.5t-36.5 125.5t-101.5 49.5t-101.5 -49.5t-36.5 -125.5t36 -125.5t102 -49.5z" />
    <glyph glyph-name="uni043F" unicode="&#x43f;" horiz-adv-x="597" 
d="M92 0v494h413v-494h-91v412h-231v-412h-91z" />
    <glyph glyph-name="uni0440" unicode="&#x440;" horiz-adv-x="611" 
d="M182 77v-291h-90v708h90v-81q6 13 16 26t28 30t47 27.5t63 10.5q91 0 152 -70.5t61 -189.5t-61 -189t-152 -70q-44 0 -80 19t-50.5 36t-23.5 34zM180 247q0 -76 37.5 -126t100.5 -50q62 0 100 50t38 126q0 77 -37.5 126.5t-100.5 49.5t-100.5 -49.5t-37.5 -126.5z" />
    <glyph glyph-name="uni0441" unicode="&#x441;" horiz-adv-x="542" 
d="M404 347q-41 76 -119 76q-58 0 -94.5 -50t-36.5 -126t36.5 -126t95.5 -50q82 0 122 80l78 -28q-4 -14 -14.5 -31.5t-32.5 -43.5t-62 -43t-91 -17q-97 0 -161.5 73.5t-64.5 185.5t64 186t161 74q49 0 87.5 -14t61 -36.5t34 -41.5t18.5 -39z" />
    <glyph glyph-name="uni0442" unicode="&#x442;" horiz-adv-x="511" 
d="M210 0v412h-170v82h431v-82h-170v-412h-91z" />
    <glyph glyph-name="uni0443" unicode="&#x443;" horiz-adv-x="535" 
d="M136 -214l88 222l-199 486h100l146 -367l146 367h93l-283 -708h-91z" />
    <glyph glyph-name="uni0444" unicode="&#x444;" horiz-adv-x="725" 
d="M317 -214v202q-116 5 -186.5 78t-70.5 181t70.5 181t186.5 78v230h91v-230q116 -5 186.5 -78t70.5 -181t-70.5 -181t-186.5 -78v-202h-91zM154 247q0 -72 42.5 -121t120.5 -54v350q-78 -5 -120.5 -54t-42.5 -121zM571 247q0 73 -42.5 121.5t-120.5 52.5v-348
q78 4 120.5 52.5t42.5 121.5z" />
    <glyph glyph-name="uni0445" unicode="&#x445;" horiz-adv-x="552" 
d="M131 0h-107l197 246l-198 248h118l138 -176l141 176h109l-196 -244l196 -250h-112l-142 178z" />
    <glyph glyph-name="uni0446" unicode="&#x446;" horiz-adv-x="615" 
d="M414 82v412h91v-412h90v-231h-81v149h-422v494h91v-412h231z" />
    <glyph glyph-name="uni0447" unicode="&#x447;" horiz-adv-x="580" 
d="M397 0v188q-44 -13 -109 -13q-104 0 -156 44.5t-52 144.5v130h91v-120q0 -62 25.5 -90t91.5 -28q29 0 56.5 3t39.5 6l13 3v226h91v-494h-91z" />
    <glyph glyph-name="uni0448" unicode="&#x448;" horiz-adv-x="859" 
d="M92 494h91v-412h201v412h91v-412h201v412h91v-494h-675v494z" />
    <glyph glyph-name="uni0449" unicode="&#x449;" horiz-adv-x="877" 
d="M92 494h91v-412h201v412h91v-412h201v412h91v-412h90v-231h-81v149h-684v494z" />
    <glyph glyph-name="uni044A" unicode="&#x44a;" horiz-adv-x="618" 
d="M40 494h241v-159h110q98 0 147.5 -45.5t49.5 -120.5q0 -71 -50 -120t-146 -49h-202v412h-150v82zM381 253h-100v-171h100q111 0 111 87q0 39 -29 61.5t-82 22.5z" />
    <glyph glyph-name="uni044B" unicode="&#x44b;" horiz-adv-x="756" 
d="M293 335q98 0 147.5 -45.5t49.5 -120.5q0 -71 -50 -120t-146 -49h-202v494h91v-159h110zM573 0v494h91v-494h-91zM283 253h-100v-171h100q111 0 111 87q0 39 -29 61.5t-82 22.5z" />
    <glyph glyph-name="uni044C" unicode="&#x44c;" horiz-adv-x="520" 
d="M293 335q98 0 147.5 -45.5t49.5 -120.5q0 -71 -50 -120t-146 -49h-202v494h91v-159h110zM283 253h-100v-171h100q111 0 111 87q0 39 -29 61.5t-82 22.5z" />
    <glyph glyph-name="uni044D" unicode="&#x44d;" horiz-adv-x="542" 
d="M138 347l-82 29q7 20 18.5 39t34 41.5t61 36.5t87.5 14q97 0 161 -74t64 -186t-64.5 -185.5t-161.5 -73.5q-51 0 -91 17t-62 43t-32.5 43.5t-14.5 31.5l78 28q40 -80 122 -80q53 0 89 40.5t42 98.5h-179v82h178q-8 56 -43 93.5t-86 37.5q-78 0 -119 -76z" />
    <glyph glyph-name="uni044E" unicode="&#x44e;" horiz-adv-x="801" 
d="M92 0v494h91v-202h97q13 95 75 154.5t154 59.5q104 0 168 -73.5t64 -185.5t-64 -185.5t-168 -73.5q-94 0 -156.5 62t-73.5 160h-96v-210h-91zM509 72q65 0 101.5 49.5t36.5 125.5t-36.5 125.5t-101.5 49.5t-101.5 -49.5t-36.5 -125.5t36 -125.5t102 -49.5z" />
    <glyph glyph-name="uni044F" unicode="&#x44f;" horiz-adv-x="560" 
d="M468 0h-91v181h-106l-121 -181h-105l131 193q-58 13 -87 51t-29 92q0 67 45 112.5t131 45.5h232v-494zM247 263h130v149h-130q-91 0 -91 -76q0 -34 23.5 -53.5t67.5 -19.5z" />
    <glyph glyph-name="uni0451" unicode="&#x451;" horiz-adv-x="565" 
d="M147 589v139h92v-139h-92zM331 589v139h92v-139h-92zM285 507q101 0 162.5 -71t61.5 -188v-14h-357q4 -71 41 -117t101 -46q82 0 128 67l78 -28q-15 -42 -65 -82t-141 -40q-106 0 -170 74t-64 185q0 115 61.5 187.5t163.5 72.5zM285 429q-54 0 -87 -32.5t-43 -90.5h258
q-24 123 -128 123z" />
    <glyph glyph-name="uni0452" unicode="&#x452;" horiz-adv-x="609" 
d="M92 0v574h-91v74h91v88h91v-88h180v-74h-180v-163q16 37 54 65.5t94 28.5q86 0 138 -56.5t52 -154.5v-342q0 -166 -163 -166h-121v85h105q87 0 87 91v315q0 70 -32 107t-88 37q-59 0 -92.5 -37.5t-33.5 -106.5v-277h-91z" />
    <glyph glyph-name="uni0453" unicode="&#x453;" horiz-adv-x="460" 
d="M212 579l98 183h100l-105 -183h-93zM92 0v494h328v-82h-237v-412h-91z" />
    <glyph glyph-name="uni0454" unicode="&#x454;" horiz-adv-x="542" 
d="M404 347q-41 76 -119 76q-51 0 -86 -38t-43 -93h178v-82h-179q5 -58 41.5 -98.5t89.5 -40.5q82 0 122 80l78 -28q-4 -14 -14.5 -31.5t-32.5 -43.5t-62 -43t-91 -17q-97 0 -161.5 73.5t-64.5 185.5t64 186t161 74q49 0 87.5 -14t61 -36.5t34 -41.5t18.5 -39z" />
    <glyph glyph-name="uni0455" unicode="&#x455;" horiz-adv-x="538" 
d="M301 205l-69 8q-76 9 -120.5 46.5t-44.5 103.5q0 65 52.5 105t136.5 40q42 0 77 -8.5t56.5 -19.5t38 -27t24 -27t12.5 -22l-80 -29q-39 54 -128 54q-49 0 -74.5 -17t-25.5 -46q0 -56 88 -66l67 -8q169 -20 169 -153q0 -68 -52 -110.5t-143 -42.5q-53 0 -95.5 12.5t-68 33
t-40 39t-23.5 37.5l84 30q39 -71 143 -71q48 0 76 19t28 49q0 60 -88 70z" />
    <glyph glyph-name="uni0456" unicode="&#x456;" horiz-adv-x="277" 
d="M91 589v143h95v-143h-95zM93 0v494h91v-494h-91z" />
    <glyph glyph-name="uni0457" unicode="&#x457;" horiz-adv-x="277" 
d="M20 589v143h92v-143h-92zM164 589v143h92v-143h-92zM93 0v494h91v-494h-91z" />
    <glyph glyph-name="uni0458" unicode="&#x458;" horiz-adv-x="279" 
d="M93 589v143h95v-143h-95zM186 -48q0 -166 -163 -166h-101v85h86q87 0 87 91v532h91v-542z" />
    <glyph glyph-name="uni0459" unicode="&#x459;" horiz-adv-x="817" 
d="M135 220l27 274h318v-159h110q98 0 147.5 -45.5t49.5 -120.5q0 -71 -50 -120t-146 -49h-202v412h-154l-19 -198q-12 -118 -47 -169.5t-112 -51.5h-15l-12 82h12q50 0 67 29t26 116zM580 253h-100v-171h100q111 0 111 87q0 39 -29 61.5t-82 22.5z" />
    <glyph glyph-name="uni045A" unicode="&#x45a;" horiz-adv-x="852" 
d="M92 0v494h91v-172h241v172h91v-172h121q93 0 139.5 -43.5t46.5 -114.5q0 -69 -47.5 -116.5t-137.5 -47.5h-213v240h-241v-240h-91zM626 240h-111v-158h111q100 0 100 82q0 36 -26 56t-74 20z" />
    <glyph glyph-name="uni045B" unicode="&#x45b;" horiz-adv-x="609" 
d="M92 0v574h-91v74h91v88h91v-88h180v-74h-180v-167q16 39 54 68.5t94 29.5q86 0 138 -58t52 -158v-289h-92v272q0 72 -32 110.5t-88 38.5q-59 0 -92.5 -39t-33.5 -110v-272h-91z" />
    <glyph glyph-name="uni045C" unicode="&#x45c;" horiz-adv-x="556" 
d="M239 579l98 183h100l-105 -183h-93zM92 0v494h88v-217l233 217h121l-258 -236l275 -258h-123l-248 227v-227h-88z" />
    <glyph glyph-name="uni045E" unicode="&#x45e;" horiz-adv-x="535" 
d="M270 644q29 0 44 20t15 49v17l75 -10v-9q0 -61 -34.5 -99.5t-99.5 -38.5t-99.5 38.5t-34.5 99.5v9l75 10v-17q0 -28 15 -48.5t44 -20.5zM136 -214l88 222l-199 486h100l146 -367l146 367h93l-283 -708h-91z" />
    <glyph glyph-name="uni045F" unicode="&#x45f;" horiz-adv-x="597" 
d="M258 -149v149h-166v494h91v-412h231v412h91v-494h-166v-149h-81z" />
    <glyph glyph-name="uni0490" unicode="&#x490;" horiz-adv-x="687" 
d="M110 0v710h452v160h87v-251h-442v-619h-97z" />
    <glyph glyph-name="uni0491" unicode="&#x491;" horiz-adv-x="460" 
d="M92 0v494h247v149h81v-231h-237v-412h-91z" />
    <glyph glyph-name="uni0492" unicode="&#x492;" horiz-adv-x="698" 
d="M121 0v314h-109v88h109v308h539v-91h-442v-217h260v-88h-260v-314h-97z" />
    <glyph glyph-name="uni0493" unicode="&#x493;" horiz-adv-x="470" 
d="M102 0v201h-83v74h83v219h328v-82h-237v-137h145v-74h-145v-201h-91z" />
    <glyph glyph-name="uni0496" unicode="&#x496;" horiz-adv-x="1074" 
d="M9 0l372 356l-355 354h133l327 -328v328h97v-328l327 328h133l-354 -352l280 -268h94v-251h-87v161h-49l-344 331v-331h-97v331l-344 -331h-133z" />
    <glyph glyph-name="uni0497" unicode="&#x497;" horiz-adv-x="800" 
d="M352 0v225l-228 -225h-119l254 251l-247 243h127l213 -215v215h88v-215l213 215h125l-245 -241l175 -171h112v-231h-81v149h-71l-228 225v-225h-88z" />
    <glyph glyph-name="uni0498" unicode="&#x498;" horiz-adv-x="716" 
d="M357 722q125 0 196.5 -52.5t71.5 -137.5q0 -62 -33 -104t-79 -56q55 -14 91.5 -57t36.5 -104q0 -93 -57.5 -151t-161.5 -69v-152h-87v150q-113 9 -177.5 62t-86.5 127l87 31q19 -54 72.5 -92t141.5 -38q82 0 126 34.5t44 96.5q0 112 -151 112h-104v89h108q130 0 130 111
q0 53 -43.5 81t-124.5 28q-80 0 -129 -37t-68 -91l-87 31q22 80 95.5 134t188.5 54z" />
    <glyph glyph-name="uni0499" unicode="&#x499;" horiz-adv-x="534" 
d="M230 -149v139q-130 16 -174 133l78 28q42 -80 135 -80q114 0 114 72q0 30 -22 49t-66 19h-78v82h78q37 0 58.5 16.5t21.5 48.5q0 31 -26.5 48t-74.5 17q-93 0 -126 -77l-81 30q19 52 72.5 91.5t136.5 39.5q88 0 138.5 -39t50.5 -107q0 -42 -22 -69.5t-52 -36.5
q37 -11 62 -39.5t25 -73.5q0 -62 -45 -102.5t-122 -49.5v-139h-81z" />
    <glyph glyph-name="uni049A" unicode="&#x49a;" horiz-adv-x="722" 
d="M110 0v710h97v-326l353 326h133l-379 -348l300 -272h119v-251h-87v161h-69l-370 329v-329h-97z" />
    <glyph glyph-name="uni049B" unicode="&#x49b;" horiz-adv-x="557" 
d="M92 0v494h88v-217l233 217h125l-260 -238l186 -174h116v-231h-81v149h-71l-248 227v-227h-88z" />
    <glyph glyph-name="uni049C" unicode="&#x49c;" horiz-adv-x="786" 
d="M110 0v710h97v-710h-97zM373 160h-88v385h88v-158l267 323h115l-291 -347l313 -363h-120l-284 326v-166z" />
    <glyph glyph-name="uni049D" unicode="&#x49d;" horiz-adv-x="603" 
d="M301 100h-81v304h81v-119l173 209h106l-203 -236l221 -258h-109l-188 220v-120zM92 0v494h88v-494h-88z" />
    <glyph glyph-name="uni04A0" unicode="&#x4a0;" horiz-adv-x="947" 
d="M335 0v619h-297v91h394v-326l353 326h133l-379 -348l399 -362h-136l-370 329v-329h-97z" />
    <glyph glyph-name="uni04A1" unicode="&#x4a1;" horiz-adv-x="679" 
d="M215 0v412h-175v82h263v-217l233 217h121l-258 -236l275 -258h-123l-248 227v-227h-88z" />
    <glyph glyph-name="uni04A2" unicode="&#x4a2;" horiz-adv-x="827" 
d="M110 0v710h97v-307h393v307h97v-620h110v-251h-87v161h-120v313h-393v-313h-97z" />
    <glyph glyph-name="uni04A3" unicode="&#x4a3;" horiz-adv-x="625" 
d="M92 0v494h91v-202h241v202h91v-412h90v-231h-81v149h-100v210h-241v-210h-91z" />
    <glyph glyph-name="uni04AA" unicode="&#x4aa;" horiz-adv-x="730" 
d="M659 178q-6 -21 -19.5 -45t-38.5 -55.5t-69.5 -55t-99.5 -31.5v-152h-87v151q-125 14 -199 116t-74 249q0 157 85 262t224 105q56 0 103 -14t76.5 -34.5t52 -47.5t32.5 -48.5t16 -41.5l-91 -33q-8 18 -19.5 36t-33 41t-57 37t-79.5 14q-98 0 -152.5 -79.5t-54.5 -196.5
t54.5 -196.5t152.5 -79.5q132 0 192 130z" />
    <glyph glyph-name="uni04AB" unicode="&#x4ab;" horiz-adv-x="542" 
d="M248 -149v140q-83 15 -135.5 85.5t-52.5 170.5q0 112 64 186t161 74q49 0 87.5 -14t61 -36.5t34 -41.5t18.5 -39l-82 -29q-41 76 -119 76q-58 0 -94.5 -50t-36.5 -126t36.5 -126t95.5 -50q82 0 122 80l78 -28q-3 -12 -12 -27.5t-26 -38t-48.5 -40.5t-70.5 -25v-141h-81z
" />
    <glyph glyph-name="uni04AE" unicode="&#x4ae;" horiz-adv-x="685" 
d="M297 285l-282 425h120l213 -327l213 327h109l-276 -424v-286h-97v285z" />
    <glyph glyph-name="uni04AF" unicode="&#x4af;" horiz-adv-x="534" 
d="M224 -214v212l-199 496h102l144 -377l144 377h94l-194 -495v-213h-91z" />
    <glyph glyph-name="uni04B0" unicode="&#x4b0;" horiz-adv-x="685" 
d="M87 198v88h209l-281 424h120l213 -327l213 327h109l-276 -424h200v-88h-200v-198h-97v198h-210z" />
    <glyph glyph-name="uni04B1" unicode="&#x4b1;" horiz-adv-x="534" 
d="M83 0h140l-198 494h102l144 -377l144 377h94l-194 -494h141v-74h-141v-140h-91v140h-141v74z" />
    <glyph glyph-name="uni04B2" unicode="&#x4b2;" horiz-adv-x="785" 
d="M151 0h-117l297 373l-271 337h127l206 -259l207 259h118l-266 -333l228 -287h106v-251h-87v161h-69l-240 299z" />
    <glyph glyph-name="uni04B3" unicode="&#x4b3;" horiz-adv-x="552" 
d="M131 0h-107l197 246l-198 248h118l138 -176l141 176h109l-196 -244l132 -168h104v-231h-81v149h-71l-142 178z" />
    <glyph glyph-name="uni04B6" unicode="&#x4b6;" horiz-adv-x="787" 
d="M560 0v298q-93 -25 -196 -25q-139 0 -206.5 62t-67.5 200v175h97v-172q0 -97 42.5 -138t133.5 -41q45 0 94 6.5t76 12.5l27 6v326h97v-620h110v-251h-87v161h-120z" />
    <glyph glyph-name="uni04B7" unicode="&#x4b7;" horiz-adv-x="598" 
d="M397 268v226h91v-412h90v-231h-81v149h-100v188q-44 -13 -109 -13q-104 0 -156 44.5t-52 144.5v130h91v-120q0 -62 25.5 -90t91.5 -28q29 0 56.5 3t39.5 6z" />
    <glyph glyph-name="uni04B8" unicode="&#x4b8;" horiz-adv-x="767" 
d="M423 140h-88v134q-124 7 -184.5 69t-60.5 192v175h97v-172q0 -90 36.5 -131.5t111.5 -46.5v165h88v-165q29 2 63.5 8t53.5 11l20 5v326h97v-710h-97v298q-61 -17 -137 -23v-135z" />
    <glyph glyph-name="uni04B9" unicode="&#x4b9;" horiz-adv-x="600" 
d="M339 70h-81v107q-88 7 -133 52t-45 135v130h91v-120q0 -54 19.5 -82t67.5 -34v116h81v-117q21 1 40.5 4t28.5 5l9 2v226h91v-494h-91v188q-30 -8 -78 -12v-106z" />
    <glyph glyph-name="uni04BA" unicode="&#x4ba;" horiz-adv-x="767" 
d="M207 710v-298q93 25 196 25q139 0 206.5 -62t67.5 -200v-175h-97v172q0 97 -42.5 138t-133.5 41q-45 0 -94 -6.5t-76 -12.5l-27 -6v-326h-97v710h97z" />
    <glyph glyph-name="uni04BB" unicode="&#x4bb;" horiz-adv-x="609" 
d="M92 0v736h91v-329q16 39 54 68.5t94 29.5q86 0 138 -58t52 -158v-289h-92v272q0 72 -32 110.5t-88 38.5q-59 0 -92.5 -39t-33.5 -110v-272h-91z" />
    <glyph glyph-name="uni04C0" unicode="&#x4c0;" horiz-adv-x="319" 
d="M111 0v710h97v-710h-97z" />
    <glyph glyph-name="uni04C1" unicode="&#x4c1;" horiz-adv-x="1072" 
d="M534 843q32 0 48.5 20.5t16.5 50.5v13l76 -10v-5q0 -62 -37 -101.5t-104 -39.5t-104 39.5t-37 101.5v5l76 10v-13q0 -30 16.5 -50.5t48.5 -20.5zM9 0l372 356l-355 354h133l327 -328v328h97v-328l327 328h133l-354 -352l374 -358h-136l-344 331v-331h-97v331l-344 -331
h-133z" />
    <glyph glyph-name="uni04C2" unicode="&#x4c2;" horiz-adv-x="796" 
d="M397 644q29 0 44 20t15 49v17l75 -10v-9q0 -61 -34.5 -99.5t-99.5 -38.5t-99.5 38.5t-34.5 99.5v9l75 10v-17q0 -28 15 -48.5t44 -20.5zM352 0v225l-228 -225h-119l257 253l-245 241h122l213 -215v215h88v-215l213 215h121l-243 -239l260 -255h-123l-228 225v-225h-88z
" />
    <glyph glyph-name="uni04CF" unicode="&#x4cf;" horiz-adv-x="223" 
d="M94 0v736h91v-736h-91z" />
    <glyph glyph-name="uni04D0" unicode="&#x4d0;" horiz-adv-x="744" 
d="M367 843q32 0 48.5 20.5t16.5 50.5v13l76 -10v-5q0 -62 -37 -101.5t-104 -39.5t-104 39.5t-37 101.5v5l76 10v-13q0 -30 16.5 -50.5t48.5 -20.5zM609 0l-70 171h-340l-70 -171h-96l296 714h86l296 -714h-102zM236 259h266l-133 324z" />
    <glyph glyph-name="uni04D1" unicode="&#x4d1;" horiz-adv-x="601" 
d="M290 644q29 0 44 20t15 49v17l75 -10v-9q0 -61 -34.5 -99.5t-99.5 -38.5t-99.5 38.5t-34.5 99.5v9l75 10v-17q0 -28 15 -48.5t44 -20.5zM487 128q0 -45 36 -51v-82q-96 0 -118 74q-47 -80 -151 -80q-86 0 -141 46t-55 121q0 71 48.5 110.5t137.5 39.5h156
q0 56 -34.5 88.5t-91.5 32.5q-81 0 -116 -67l-83 29q7 15 18 31t33.5 38t61 35.5t86.5 13.5q103 0 158 -54.5t55 -145.5v-179zM265 65q55 0 95 29t40 74v66h-151q-46 0 -73 -20t-27 -58q0 -41 31.5 -66t84.5 -25z" />
    <glyph glyph-name="uni04D6" unicode="&#x4d6;" horiz-adv-x="705" 
d="M373 843q32 0 48.5 20.5t16.5 50.5v13l76 -10v-5q0 -62 -37 -101.5t-104 -39.5t-104 39.5t-37 101.5v5l76 10v-13q0 -30 16.5 -50.5t48.5 -20.5zM110 0v710h510v-90h-414v-198h340v-90h-340v-242h451v-90h-547z" />
    <glyph glyph-name="uni04D7" unicode="&#x4d7;" horiz-adv-x="565" 
d="M285 644q29 0 44 20t15 49v17l75 -10v-9q0 -61 -34.5 -99.5t-99.5 -38.5t-99.5 38.5t-34.5 99.5v9l75 10v-17q0 -28 15 -48.5t44 -20.5zM285 507q101 0 162.5 -71t61.5 -188v-14h-357q4 -71 41 -117t101 -46q82 0 128 67l78 -28q-15 -42 -65 -82t-141 -40q-106 0 -170 74
t-64 185q0 115 61.5 187.5t163.5 72.5zM285 429q-54 0 -87 -32.5t-43 -90.5h258q-24 123 -128 123z" />
    <glyph glyph-name="uni04D8" unicode="&#x4d8;" horiz-adv-x="750" 
d="M362 631q-137 0 -190 -128l-87 31q25 78 94 133t183 55q143 0 229.5 -105t86.5 -262q0 -161 -82 -264t-225 -103q-136 0 -217.5 100.5t-81.5 256.5q0 16 2 48h503q-7 104 -62.5 171t-152.5 67zM371 78q91 0 143 62t62 165h-402q9 -101 60.5 -164t136.5 -63z" />
    <glyph glyph-name="uni04D9" unicode="&#x4d9;" horiz-adv-x="569" 
d="M284 -12q-101 0 -162.5 71t-61.5 188v14h357q-4 71 -41 117t-101 46q-82 0 -128 -67l-78 28q15 42 65 82t141 40q106 0 170 -74t64 -185q0 -115 -61.5 -187.5t-163.5 -72.5zM284 66q54 0 87 32.5t43 90.5h-258q24 -123 128 -123z" />
    <glyph glyph-name="uni04E2" unicode="&#x4e2;" horiz-adv-x="817" 
d="M568 813h-316v78h316v-78zM110 0v710h97v-572l403 572h97v-710h-97v574l-403 -574h-97z" />
    <glyph glyph-name="uni04E3" unicode="&#x4e3;" horiz-adv-x="617" 
d="M454 621h-290v78h290v-78zM92 0v494h91v-363l251 363h91v-494h-91v366l-251 -366h-91z" />
    <glyph glyph-name="uni04E6" unicode="&#x4e6;" horiz-adv-x="782" 
d="M248 778v139h92v-139h-92zM442 778v139h92v-139h-92zM391 -12q-145 0 -232 103t-87 264q0 160 87.5 263.5t231.5 103.5q143 0 231 -104t88 -263t-88 -263t-231 -104zM391 78q103 0 161 78t58 199q0 119 -58.5 198t-160.5 79t-160.5 -78.5t-58.5 -198.5q0 -122 58 -199.5
t161 -77.5z" />
    <glyph glyph-name="uni04E7" unicode="&#x4e7;" horiz-adv-x="584" 
d="M154 589v139h92v-139h-92zM338 589v139h92v-139h-92zM292 506q104 0 168 -73.5t64 -185.5t-64 -185.5t-168 -73.5t-168 73.5t-64 185.5t64 185.5t168 73.5zM292 72q65 0 101.5 49.5t36.5 125.5t-36.5 125.5t-101.5 49.5t-101.5 -49.5t-36.5 -125.5t36 -125.5t102 -49.5z
" />
    <glyph glyph-name="uni04E8" unicode="&#x4e8;" horiz-adv-x="782" 
d="M391 -12q-145 0 -232 103t-87 264q0 160 87.5 263.5t231.5 103.5q143 0 231 -104t88 -263t-88 -263t-231 -104zM391 632q-92 0 -149.5 -64t-67.5 -165h434q-10 100 -67.5 164.5t-149.5 64.5zM391 78q93 0 150 65.5t67 169.5h-434q10 -105 67 -170t150 -65z" />
    <glyph glyph-name="uni04E9" unicode="&#x4e9;" horiz-adv-x="584" 
d="M292 506q104 0 168 -73.5t64 -185.5t-64 -185.5t-168 -73.5t-168 73.5t-64 185.5t64 185.5t168 73.5zM292 422q-55 0 -90.5 -36t-44.5 -94h270q-10 58 -45.5 94t-89.5 36zM292 72q57 0 92 38t44 100h-272q9 -62 44 -100t92 -38z" />
    <glyph glyph-name="uni04EE" unicode="&#x4ee;" horiz-adv-x="698" 
d="M531 813h-316v78h316v-78zM75 140v14l95 16v-30q0 -60 53 -60q28 0 44.5 17.5t40.5 66.5l10 21l-293 525h112l234 -420l212 420h100l-287 -568q-21 -41 -34 -62t-34 -45.5t-47 -34.5t-61 -10q-68 0 -106.5 40t-38.5 110z" />
    <glyph glyph-name="uni04EF" unicode="&#x4ef;" horiz-adv-x="535" 
d="M415 621h-290v78h290v-78zM136 -214l88 222l-199 486h100l146 -367l146 367h93l-283 -708h-91z" />
    <glyph glyph-name="uni04F2" unicode="&#x4f2;" horiz-adv-x="698" 
d="M410 778l78 150h92l-85 -150h-85zM236 778l78 150h92l-85 -150h-85zM75 140v14l95 16v-30q0 -60 53 -60q28 0 44.5 17.5t40.5 66.5l10 21l-293 525h112l234 -420l212 420h100l-287 -568q-21 -41 -34 -62t-34 -45.5t-47 -34.5t-61 -10q-68 0 -106.5 40t-38.5 110z" />
    <glyph glyph-name="uni04F3" unicode="&#x4f3;" horiz-adv-x="535" 
d="M316 579l74 183h88l-81 -183h-81zM147 579l74 183h88l-81 -183h-81zM136 -214l88 222l-199 486h100l146 -367l146 367h93l-283 -708h-91z" />
    <glyph glyph-name="Wgrave" unicode="&#x1e80;" horiz-adv-x="1040" 
d="M575 778h-102l-109 150h110zM569 714l174 -560l163 556h91l-211 -714h-86l-177 558l-177 -558h-81l-222 714h102l166 -550l171 554h87z" />
    <glyph glyph-name="wgrave" unicode="&#x1e81;" horiz-adv-x="809" 
d="M453 579h-93l-105 183h100zM533 -4l-127 375l-127 -375h-81l-170 498h98l119 -365l123 369h84l122 -364l117 360h90l-168 -498h-80z" />
    <glyph glyph-name="Wacute" unicode="&#x1e82;" horiz-adv-x="1040" 
d="M474 778l102 150h110l-110 -150h-102zM569 714l174 -560l163 556h91l-211 -714h-86l-177 558l-177 -558h-81l-222 714h102l166 -550l171 554h87z" />
    <glyph glyph-name="wacute" unicode="&#x1e83;" horiz-adv-x="809" 
d="M361 579l98 183h100l-105 -183h-93zM533 -4l-127 375l-127 -375h-81l-170 498h98l119 -365l123 369h84l122 -364l117 360h90l-168 -498h-80z" />
    <glyph glyph-name="Wdieresis" unicode="&#x1e84;" horiz-adv-x="1040" 
d="M381 778v139h92v-139h-92zM575 778v139h92v-139h-92zM569 714l174 -560l163 556h91l-211 -714h-86l-177 558l-177 -558h-81l-222 714h102l166 -550l171 554h87z" />
    <glyph glyph-name="wdieresis" unicode="&#x1e85;" horiz-adv-x="809" 
d="M269 589v139h92v-139h-92zM453 589v139h92v-139h-92zM533 -4l-127 375l-127 -375h-81l-170 498h98l119 -365l123 369h84l122 -364l117 360h90l-168 -498h-80z" />
    <glyph glyph-name="Ygrave" unicode="&#x1ef2;" horiz-adv-x="685" 
d="M408 778h-102l-109 150h110zM297 285l-282 425h120l213 -327l213 327h109l-276 -424v-286h-97v285z" />
    <glyph glyph-name="ygrave" unicode="&#x1ef3;" horiz-adv-x="535" 
d="M324 579h-93l-105 183h100zM136 -214l88 222l-199 486h100l146 -367l146 367h93l-283 -708h-91z" />
    <glyph glyph-name="thinspace" unicode="&#x2009;" horiz-adv-x="166" 
 />
    <glyph glyph-name="hairspace" unicode="&#x200a;" horiz-adv-x="83" 
 />
    <glyph glyph-name="endash" unicode="&#x2013;" horiz-adv-x="704" 
d="M84 257v76h536v-76h-536z" />
    <glyph glyph-name="emdash" unicode="&#x2014;" horiz-adv-x="1000" 
d="M84 257v76h832v-76h-832z" />
    <glyph glyph-name="quoteleft" unicode="&#x2018;" horiz-adv-x="292" 
d="M152 746l57 -21q-60 -105 -60 -191h55v-130h-116v120q0 121 64 222z" />
    <glyph glyph-name="quoteright" unicode="&#x2019;" horiz-adv-x="292" 
d="M140 394l-57 21q60 105 60 191h-55v130h116v-120q0 -121 -64 -222z" />
    <glyph glyph-name="quotesinglbase" unicode="&#x201a;" horiz-adv-x="292" 
d="M140 -212l-57 21q60 105 60 191h-55v130h116v-120q0 -121 -64 -222z" />
    <glyph glyph-name="quotedblleft" unicode="&#x201c;" horiz-adv-x="495" 
d="M355 746l57 -21q-60 -105 -60 -191h55v-130h-116v120q0 121 64 222zM152 746l57 -21q-60 -105 -60 -191h55v-130h-116v120q0 121 64 222z" />
    <glyph glyph-name="quotedblright" unicode="&#x201d;" horiz-adv-x="495" 
d="M140 394l-57 21q60 105 60 191h-55v130h116v-120q0 -121 -64 -222zM343 394l-57 21q60 105 60 191h-55v130h116v-120q0 -121 -64 -222z" />
    <glyph glyph-name="quotedblbase" unicode="&#x201e;" horiz-adv-x="495" 
d="M140 -212l-57 21q60 105 60 191h-55v130h116v-120q0 -121 -64 -222zM343 -212l-57 21q60 105 60 191h-55v130h116v-120q0 -121 -64 -222z" />
    <glyph glyph-name="dagger" unicode="&#x2020;" horiz-adv-x="522" 
d="M217 0v441h-162v81h162v188h88v-188h162v-81h-162v-441h-88z" />
    <glyph glyph-name="daggerdbl" unicode="&#x2021;" horiz-adv-x="522" 
d="M55 188v81h162v172h-162v81h162v188h88v-188h162v-81h-162v-172h162v-81h-162v-188h-88v188h-162z" />
    <glyph glyph-name="bullet" unicode="&#x2022;" horiz-adv-x="596" 
d="M298 510q81 0 137.5 -57t56.5 -137q0 -81 -56.5 -137.5t-137.5 -56.5t-137.5 56.5t-56.5 137.5q0 80 56.5 137t137.5 57z" />
    <glyph glyph-name="ellipsis" unicode="&#x2026;" horiz-adv-x="796" 
d="M88 0v143h116v-143h-116zM340 0v143h116v-143h-116zM592 0v143h116v-143h-116z" />
    <glyph glyph-name="perthousand" unicode="&#x2030;" horiz-adv-x="1450" 
d="M252 356q-77 0 -129.5 52.5t-52.5 130.5t52.5 130.5t129.5 52.5t129.5 -52.5t52.5 -130.5t-52.5 -130.5t-129.5 -52.5zM208 0l502 710h95l-503 -710h-94zM252 430q45 0 74 31t29 78t-29 78t-74 31t-74 -31t-29 -78t29 -78t74 -31zM762 -14q-77 0 -129.5 52.5t-52.5 130.5
t52.5 130.5t129.5 52.5t129.5 -52.5t52.5 -130.5t-52.5 -130.5t-129.5 -52.5zM1197 -14q-77 0 -129.5 52.5t-52.5 130.5t52.5 130.5t129.5 52.5t129.5 -52.5t52.5 -130.5t-52.5 -130.5t-129.5 -52.5zM762 60q45 0 74 31t29 78t-29 78t-74 31t-74 -31t-29 -78t29 -78t74 -31z
M1197 60q45 0 74 31t29 78t-29 78t-74 31t-74 -31t-29 -78t29 -78t74 -31z" />
    <glyph glyph-name="minute" unicode="&#x2032;" horiz-adv-x="286" 
d="M134 405h-84l101 305h85z" />
    <glyph glyph-name="second" unicode="&#x2033;" horiz-adv-x="469" 
d="M132 405h-82l101 305h83zM314 405h-82l104 305h83z" />
    <glyph glyph-name="guilsinglleft" unicode="&#x2039;" horiz-adv-x="341" 
d="M179 453h92l-115 -177l115 -179h-93l-113 178z" />
    <glyph glyph-name="guilsinglright" unicode="&#x203a;" horiz-adv-x="341" 
d="M162 97h-92l115 177l-115 179h93l113 -178z" />
    <glyph glyph-name="fraction" unicode="&#x2044;" horiz-adv-x="525" 
d="M0 0l433 710h92l-433 -710h-92z" />
    <glyph glyph-name="won" unicode="&#x20a9;" horiz-adv-x="1016" 
d="M50 318v78h119l-85 314h96l81 -314h123l83 318h91l83 -318h125l79 314h87l-80 -314h114v-78h-134l-82 -322h-89l-86 322h-128l-86 -322h-84l-87 322h-140zM468 396h86l-43 161zM281 318l41 -159l42 159h-83zM662 318l43 -165l42 165h-85z" />
    <glyph glyph-name="Euro" unicode="&#x20ac;" horiz-adv-x="697" 
d="M48 235v78h103v91h-103v78h103q0 114 63.5 177t170.5 63t169.5 -59t67.5 -157l-96 -11q-2 24 -9 45t-21.5 44t-43 37t-67.5 14q-66 0 -103 -42.5t-37 -110.5h182v-78h-182v-91h182v-78h-182v-6q0 -71 37.5 -112t104.5 -41q127 0 142 145l90 -12q-5 -102 -65 -161
t-169 -59q-107 0 -170.5 62t-63.5 178v6h-103z" />
    <glyph glyph-name="uni20B4" unicode="&#x20b4;" horiz-adv-x="605" 
d="M50 392v78h361q16 26 16 59q0 47 -32.5 74.5t-87.5 27.5q-56 0 -88 -29t-32 -78v-3l-92 9q0 87 56 136t156 49q93 0 153.5 -51t60.5 -135q0 -31 -11 -59h45v-78h-505zM82 191q0 25 8 52h-40v78h505v-78h-366q-12 -21 -12 -52q0 -51 34 -82.5t96 -31.5q58 0 94 31t36 86v4
l94 -11q0 -86 -59.5 -140t-164.5 -54t-165 55t-60 143z" />
    <glyph glyph-name="uni20B8" unicode="&#x20b8;" horiz-adv-x="643" 
d="M40 632v78h563v-78h-563zM273 0v451h-233v90h563v-90h-233v-451h-97z" />
    <glyph glyph-name="uni20BD" unicode="&#x20bd;" horiz-adv-x="747" 
d="M30 139v78h144v91h-144v78h144v324h277q115 0 175.5 -52t60.5 -147q0 -93 -61 -148t-175 -55h-180v-91h264v-78h-264v-139h-97v139h-144zM454 620h-183v-232h183q65 0 99 33t34 88q0 53 -33.5 82t-99.5 29z" />
    <glyph glyph-name="uni2116" unicode="&#x2116;" horiz-adv-x="1161" 
d="M942 316q-74 0 -123 55.5t-49 147.5t49 147.5t123 55.5t123 -55.5t49 -147.5t-49 -147.5t-123 -55.5zM703 710v-715h-73l-427 591v-586h-93v710h116l384 -538v538h93zM942 390q42 0 67.5 34t25.5 95t-25.5 95t-67.5 34t-67.5 -34t-25.5 -95t25.5 -95t67.5 -34zM790 179
v86h304v-86h-304z" />
    <glyph glyph-name="trademark" unicode="&#x2122;" horiz-adv-x="1017" 
d="M175 314v324h-145v72h371v-72h-145v-324h-81zM478 314v396h122l109 -279l110 279h118v-396h-77v320l-128 -322h-52l-128 324v-322h-74z" />
    <glyph glyph-name="onethird" unicode="&#x2153;" horiz-adv-x="938" 
d="M233 284h-85v332l-105 -59v79l126 76h64v-428zM162 0l433 710h92l-433 -710h-92zM721 68q35 0 55 15.5t20 42.5q0 56 -65 56h-39v74h36q55 0 55 50q0 25 -17.5 39.5t-47.5 14.5q-54 0 -66 -50l-82 20q6 36 42 69.5t106 33.5q71 0 110.5 -32.5t39.5 -87.5q0 -63 -56 -88
q28 -9 49 -35t21 -70q0 -57 -43 -92t-118 -35q-73 0 -111 33t-48 75l81 20q19 -53 78 -53z" />
    <glyph glyph-name="twothirds" unicode="&#x2154;" horiz-adv-x="1056" 
d="M380 359v-75h-322v55l151 143q32 31 45.5 52t13.5 46q0 27 -17.5 44t-47.5 17q-35 0 -50.5 -21.5t-15.5 -51.5l-82 9q1 60 40.5 100t107.5 40q70 0 110 -37t40 -97q0 -45 -22 -78.5t-70 -77.5l-74 -68h193zM280 0l433 710h92l-433 -710h-92zM839 68q35 0 55 15.5t20 42.5
q0 56 -65 56h-39v74h36q55 0 55 50q0 25 -17.5 39.5t-47.5 14.5q-54 0 -66 -50l-82 20q6 36 42 69.5t106 33.5q71 0 110.5 -32.5t39.5 -87.5q0 -63 -56 -88q28 -9 49 -35t21 -70q0 -57 -43 -92t-118 -35q-73 0 -111 33t-48 75l81 20q19 -53 78 -53z" />
    <glyph glyph-name="oneeighth" unicode="&#x215b;" horiz-adv-x="959" 
d="M233 284h-85v332l-105 -59v79l126 76h64v-428zM162 0l433 710h92l-433 -710h-92zM746 433q70 0 108.5 -32t38.5 -86q0 -39 -19.5 -63t-45.5 -33q28 -9 50 -35.5t22 -68.5q0 -55 -41 -88.5t-113 -33.5h-18q-71 0 -111.5 33.5t-40.5 88.5q0 42 22 68.5t50 35.5
q-26 9 -45.5 33t-19.5 63q0 54 38.5 86t107.5 32h17zM667 308q0 -26 18 -41.5t47 -15.5h12q29 0 46.5 15.5t17.5 41.5q0 27 -17.5 42t-46.5 15h-12q-29 0 -47 -15t-18 -42zM662 123q0 -29 19 -45.5t50 -16.5h14q31 0 50 16.5t19 45.5q0 28 -19 44.5t-50 16.5h-14
q-31 0 -50 -16.5t-19 -44.5z" />
    <glyph glyph-name="threeeighths" unicode="&#x215c;" horiz-adv-x="1056" 
d="M211 352q35 0 55 15.5t20 42.5q0 56 -65 56h-47v74h44q55 0 55 50q0 25 -17.5 39.5t-47.5 14.5q-54 0 -66 -50l-82 20q6 36 42 69.5t106 33.5q71 0 110.5 -32.5t39.5 -87.5q0 -63 -56 -88q28 -9 49 -35t21 -70q0 -57 -43 -92t-118 -35q-73 0 -111 33t-48 75l81 20
q19 -53 78 -53zM259 0l433 710h92l-433 -710h-92zM843 433q70 0 108.5 -32t38.5 -86q0 -39 -19.5 -63t-45.5 -33q28 -9 50 -35.5t22 -68.5q0 -55 -41 -88.5t-113 -33.5h-18q-71 0 -111.5 33.5t-40.5 88.5q0 42 22 68.5t50 35.5q-26 9 -45.5 33t-19.5 63q0 54 38.5 86
t107.5 32h17zM764 308q0 -26 18 -41.5t47 -15.5h12q29 0 46.5 15.5t17.5 41.5q0 27 -17.5 42t-46.5 15h-12q-29 0 -47 -15t-18 -42zM759 123q0 -29 19 -45.5t50 -16.5h14q31 0 50 16.5t19 45.5q0 28 -19 44.5t-50 16.5h-14q-31 0 -50 -16.5t-19 -44.5z" />
    <glyph glyph-name="fiveeighths" unicode="&#x215d;" horiz-adv-x="1057" 
d="M151 468h-74v242h284v-71h-204v-97q29 31 83 31q59 0 98 -38.5t39 -104.5v-4q0 -66 -43.5 -107.5t-116.5 -41.5q-75 0 -112.5 34.5t-46.5 79.5l82 20q16 -59 77 -59q33 0 54 21t21 53v3q0 33 -20.5 53t-54.5 20q-47 0 -66 -34zM260 0l433 710h92l-433 -710h-92zM844 433
q70 0 108.5 -32t38.5 -86q0 -39 -19.5 -63t-45.5 -33q28 -9 50 -35.5t22 -68.5q0 -55 -41 -88.5t-113 -33.5h-18q-71 0 -111.5 33.5t-40.5 88.5q0 42 22 68.5t50 35.5q-26 9 -45.5 33t-19.5 63q0 54 38.5 86t107.5 32h17zM765 308q0 -26 18 -41.5t47 -15.5h12
q29 0 46.5 15.5t17.5 41.5q0 27 -17.5 42t-46.5 15h-12q-29 0 -47 -15t-18 -42zM760 123q0 -29 19 -45.5t50 -16.5h14q31 0 50 16.5t19 45.5q0 28 -19 44.5t-50 16.5h-14q-31 0 -50 -16.5t-19 -44.5z" />
    <glyph glyph-name="seveneighths" unicode="&#x215e;" horiz-adv-x="974" 
d="M168 284h-94l191 351h-215v75h315v-57zM177 0l433 710h92l-433 -710h-92zM761 433q70 0 108.5 -32t38.5 -86q0 -39 -19.5 -63t-45.5 -33q28 -9 50 -35.5t22 -68.5q0 -55 -41 -88.5t-113 -33.5h-18q-71 0 -111.5 33.5t-40.5 88.5q0 42 22 68.5t50 35.5q-26 9 -45.5 33
t-19.5 63q0 54 38.5 86t107.5 32h17zM682 308q0 -26 18 -41.5t47 -15.5h12q29 0 46.5 15.5t17.5 41.5q0 27 -17.5 42t-46.5 15h-12q-29 0 -47 -15t-18 -42zM677 123q0 -29 19 -45.5t50 -16.5h14q31 0 50 16.5t19 45.5q0 28 -19 44.5t-50 16.5h-14q-31 0 -50 -16.5t-19 -44.5
z" />
    <glyph glyph-name="minus" unicode="&#x2212;" horiz-adv-x="696" 
d="M612 275h-528v80h528v-80z" />
    <glyph glyph-name="Pcircle" unicode="&#x24c5;" horiz-adv-x="884" 
d="M442 -12q-158 0 -262.5 105t-104.5 262q0 156 105 261.5t262 105.5q156 0 261.5 -105.5t105.5 -261.5t-105.5 -261.5t-261.5 -105.5zM442 56q130 0 211.5 86t81.5 213q0 126 -82 212.5t-211 86.5q-130 0 -211.5 -86.5t-81.5 -212.5q0 -127 82 -213t211 -86zM286 170v374
h202q146 0 146 -122q0 -58 -36.5 -90.5t-109.5 -32.5h-114v-129h-88zM489 468h-115v-92h115q57 0 57 46t-57 46z" />
    <glyph glyph-name="commaaccent" unicode="&#xf6c3;" horiz-adv-x="500" 
d="M279 -325h-67q35 65 35 115h-52v115h112v-98q0 -68 -28 -132z" />
    <glyph glyph-name="cyrbreve" unicode="&#xf6d4;" horiz-adv-x="600" 
d="M300 644q29 0 44 20t15 49v17l75 -10v-9q0 -61 -34.5 -99.5t-99.5 -38.5t-99.5 38.5t-34.5 99.5v9l75 10v-17q0 -28 15 -48.5t44 -20.5z" />
    <glyph glyph-name="idotaccent" horiz-adv-x="277" 
d="M91 589v143h95v-143h-95zM93 0v494h91v-494h-91z" />
    <glyph glyph-name="ringacute" horiz-adv-x="600" 
d="M257 858l89 150h96l-96 -150h-89zM300 567q-55 0 -91.5 36t-36.5 89q0 54 36.5 90.5t91.5 36.5t91.5 -36.5t36.5 -90.5q0 -53 -36.5 -89t-91.5 -36zM300 628q27 0 44.5 18.5t17.5 45.5q0 28 -17 46t-45 18t-45 -18t-17 -46q0 -27 17.5 -45.5t44.5 -18.5z" />
    <glyph glyph-name="f_b" horiz-adv-x="1030" 
d="M31 412v82h114v78q0 164 175 164h100v-82h-90q-94 0 -94 -95v-65h152v-82h-152v-412h-91v412h-114zM601 77v-77h-90v736h90v-323q9 19 23 36.5t50 37.5t81 20q91 0 152 -70.5t61 -189.5t-61 -189t-152 -70q-34 0 -63 10t-47 26.5t-28 28.5t-16 24zM599 247q0 -76 37 -126
t101 -50q62 0 100 50t38 126q0 77 -37.5 126.5t-100.5 49.5q-64 0 -101 -49.5t-37 -126.5z" />
    <glyph glyph-name="f_h" horiz-adv-x="1028" 
d="M31 412v82h114v78q0 164 175 164h100v-82h-90q-94 0 -94 -95v-65h152v-82h-152v-412h-91v412h-114zM511 0v736h91v-329q16 39 54 68.5t94 29.5q86 0 138 -58t52 -158v-289h-92v272q0 72 -32 110.5t-88 38.5q-59 0 -92.5 -39t-33.5 -110v-272h-91z" />
    <glyph glyph-name="f_i" horiz-adv-x="696" 
d="M31 412v82h114v78q0 164 175 164h100v-82h-90q-94 0 -94 -95v-65h152v-82h-152v-412h-91v412h-114zM510 589v143h95v-143h-95zM512 0v494h91v-494h-91z" />
    <glyph glyph-name="f_j" horiz-adv-x="697" 
d="M31 412v82h114v78q0 164 175 164h100v-82h-90q-94 0 -94 -95v-65h152v-82h-152v-412h-91v412h-114zM511 589v143h95v-143h-95zM604 -48q0 -166 -163 -166h-101v85h86q87 0 87 91v532h91v-542z" />
    <glyph glyph-name="f_k" horiz-adv-x="975" 
d="M31 412v82h114v78q0 164 175 164h100v-82h-90q-94 0 -94 -95v-65h152v-82h-152v-412h-91v412h-114zM511 0v736h88v-454l233 212h125l-260 -233l273 -261h-123l-248 232v-232h-88z" />
    <glyph glyph-name="f_l" horiz-adv-x="698" 
d="M31 412v82h114v78q0 164 175 164h100v-82h-90q-94 0 -94 -95v-65h152v-82h-152v-412h-91v412h-114zM513 0v736h91v-736h-91z" />
    <glyph glyph-name="uni02BC.uc" horiz-adv-x="292" 
d="M140 368l-57 21q60 105 60 191h-55v130h116v-120q0 -121 -64 -222z" />
    <glyph glyph-name="hyphen.uc" horiz-adv-x="496" 
d="M84 295v86h328v-86h-328z" />
    <glyph glyph-name="endash.uc" horiz-adv-x="704" 
d="M84 300v76h536v-76h-536z" />
    <glyph glyph-name="emdash.uc" horiz-adv-x="1000" 
d="M84 300v76h832v-76h-832z" />
    <glyph glyph-name="quoteleft.uc" horiz-adv-x="292" 
d="M152 720l57 -21q-60 -105 -60 -191h55v-130h-116v120q0 121 64 222z" />
    <glyph glyph-name="quoteright.uc" horiz-adv-x="292" 
d="M140 368l-57 21q60 105 60 191h-55v130h116v-120q0 -121 -64 -222z" />
    <glyph glyph-name="quotedblleft.uc" horiz-adv-x="495" 
d="M355 720l57 -21q-60 -105 -60 -191h55v-130h-116v120q0 121 64 222zM152 720l57 -21q-60 -105 -60 -191h55v-130h-116v120q0 121 64 222z" />
    <glyph glyph-name="quotedblright.uc" horiz-adv-x="495" 
d="M140 368l-57 21q60 105 60 191h-55v130h116v-120q0 -121 -64 -222zM343 368l-57 21q60 105 60 191h-55v130h116v-120q0 -121 -64 -222z" />
    <glyph glyph-name="guilsinglleft.uc" horiz-adv-x="341" 
d="M179 485h92l-115 -177l115 -179h-93l-113 178z" />
    <glyph glyph-name="guilsinglright.uc" horiz-adv-x="341" 
d="M162 129h-92l115 177l-115 179h93l113 -178z" />
    <glyph glyph-name="guillemotleft.uc" horiz-adv-x="551" 
d="M175 485h90l-111 -177l111 -179h-91l-109 178zM391 485h90l-111 -177l111 -179h-91l-109 178z" />
    <glyph glyph-name="guillemotright.uc" horiz-adv-x="551" 
d="M376 129h-90l111 177l-111 179h91l109 -178zM160 129h-90l111 177l-111 179h91l109 -178z" />
    <glyph glyph-name="at.uc" horiz-adv-x="1030" 
d="M735 558l-51 -288q-13 -74 50 -74q58 0 102 59t44 166q0 140 -91.5 227t-254.5 87q-168 0 -275.5 -110t-107.5 -288q0 -171 107 -277.5t285 -106.5q66 0 124.5 14t98 36t58.5 35.5t32 25.5l64 -36q-16 -20 -44 -42t-74 -47.5t-114.5 -42t-144.5 -16.5q-147 0 -256 62
t-163.5 165t-54.5 232q0 203 131.5 335.5t333.5 132.5q103 0 186 -32t135 -86t79 -123t27 -146q0 -128 -63.5 -212t-165.5 -84q-52 0 -82.5 19.5t-37.5 50.5q-40 -70 -125 -70q-81 0 -131.5 56t-50.5 154q0 97 56 163t147 66q51 0 83.5 -24t45.5 -56l14 75h84zM515 481
q-53 0 -85.5 -42t-32.5 -107q0 -58 26 -92t74 -34q53 0 85.5 42t32.5 107q0 58 -26 92t-74 34z" />
    <glyph glyph-name="exclamdown.uc" horiz-adv-x="336" 
d="M110 710h116v-141h-116v141zM124 478h88v-478h-88v478z" />
    <glyph glyph-name="questiondown.uc" horiz-adv-x="526" 
d="M335 710v-142h-116v142h116zM231 478h92v-9q0 -46 -12 -70.5t-56 -67.5l-45 -44q-58 -58 -58 -114q0 -47 30 -75t81 -28q34 0 58 12.5t35 33t15.5 36.5t6.5 33l89 -18q-7 -80 -60 -129.5t-144 -49.5q-96 0 -150 49.5t-54 135.5q0 54 22 92.5t71 85.5l46 43q19 18 26 36
t7 48z" />
    <glyph glyph-name="acute.uc" horiz-adv-x="600" 
d="M194 778l102 150h110l-110 -150h-102z" />
    <glyph glyph-name="grave.uc" horiz-adv-x="600" 
d="M405 778h-102l-109 150h110z" />
    <glyph glyph-name="hungarumlaut.uc" horiz-adv-x="600" 
d="M302 778l78 150h92l-85 -150h-85zM128 778l78 150h92l-85 -150h-85z" />
    <glyph glyph-name="circumflex.uc" horiz-adv-x="600" 
d="M334 775l-73 87l-74 -87h-98l132 156h78l129 -156h-94z" />
    <glyph glyph-name="caron.uc" horiz-adv-x="600" 
d="M86 931h98l74 -87l73 87h94l-129 -156h-78z" />
    <glyph glyph-name="breve.uc" horiz-adv-x="600" 
d="M300 843q32 0 48.5 20.5t16.5 50.5v13h76v-15q0 -62 -37 -101.5t-104 -39.5t-104 39.5t-37 101.5v15h76v-13q0 -30 16.5 -50.5t48.5 -20.5z" />
    <glyph glyph-name="tilde.uc" horiz-adv-x="600" 
d="M296 816l-36 22q-23 15 -34 15q-17 0 -17 -24v-56h-73v66q0 94 77 94q8 0 17 -2t15 -3.5t15.5 -6.5t13.5 -7.5t15.5 -9.5t14.5 -9l36 -22q26 -15 34 -15q17 0 17 24v56h73v-66q0 -94 -77 -94q-10 0 -19 1.5t-20.5 7t-15.5 7.5t-19 11.5t-17 10.5z" />
    <glyph glyph-name="macron.uc" horiz-adv-x="500" 
d="M408 813h-316v78h316v-78z" />
    <glyph glyph-name="dieresis.uc" horiz-adv-x="600" 
d="M157 778v139h92v-139h-92zM351 778v139h92v-139h-92z" />
    <glyph glyph-name="dotaccent.uc" horiz-adv-x="600" 
d="M253 778v143h94v-143h-94z" />
    <glyph glyph-name="ring.uc" horiz-adv-x="600" 
d="M300 768q-55 0 -91.5 36t-36.5 89q0 54 36.5 90.5t91.5 36.5t91.5 -36.5t36.5 -90.5q0 -53 -36.5 -89t-91.5 -36zM300 829q27 0 44.5 18.5t17.5 45.5q0 28 -17 46t-45 18t-45 -18t-17 -46q0 -27 17.5 -45.5t44.5 -18.5z" />
    <glyph glyph-name="cyrbreve.uc" horiz-adv-x="600" 
d="M300 843q32 0 48.5 20.5t16.5 50.5v13l76 -10v-5q0 -62 -37 -101.5t-104 -39.5t-104 39.5t-37 101.5v5l76 10v-13q0 -30 16.5 -50.5t48.5 -20.5z" />
    <glyph glyph-name="ringacute.uc" horiz-adv-x="600" 
d="M260 1059l92 140h102l-100 -140h-94zM300 768q-55 0 -91.5 36t-36.5 89q0 54 36.5 90.5t91.5 36.5t91.5 -36.5t36.5 -90.5q0 -53 -36.5 -89t-91.5 -36zM300 829q27 0 44.5 18.5t17.5 45.5q0 28 -17 46t-45 18t-45 -18t-17 -46q0 -27 17.5 -45.5t44.5 -18.5z" />
    <glyph glyph-name="zero.den" horiz-adv-x="455" 
d="M228 434q74 0 116.5 -42.5t42.5 -117.5v-122q0 -76 -42.5 -118t-116.5 -42t-117 42t-43 118v122q0 75 43 117.5t117 42.5zM228 69q36 0 55.5 23t19.5 61v120q0 38 -19.5 61t-55.5 23t-55.5 -23t-19.5 -61v-120q0 -38 19.5 -61t55.5 -23z" />
    <glyph glyph-name="one.den" horiz-adv-x="316" 
d="M233 0h-85v332l-105 -59v79l126 76h64v-428z" />
    <glyph glyph-name="two.den" horiz-adv-x="419" 
d="M380 75v-75h-322v55l151 143q32 31 45.5 52t13.5 46q0 27 -17.5 44t-47.5 17q-35 0 -50.5 -21.5t-15.5 -51.5l-82 9q1 60 40.5 100t107.5 40q70 0 110 -37t40 -97q0 -45 -22 -78.5t-70 -77.5l-74 -68h193z" />
    <glyph glyph-name="three.den" horiz-adv-x="428" 
d="M211 68q35 0 55 15.5t20 42.5q0 56 -65 56h-39v74h36q55 0 55 50q0 25 -17.5 39.5t-47.5 14.5q-54 0 -66 -50l-82 20q6 36 42 69.5t106 33.5q71 0 110.5 -32.5t39.5 -87.5q0 -63 -56 -88q28 -9 49 -35t21 -70q0 -57 -43 -92t-118 -35q-73 0 -111 33t-48 75l81 20
q19 -53 78 -53z" />
    <glyph glyph-name="four.den" horiz-adv-x="460" 
d="M421 112h-84v-112h-81v112h-214v60l193 254h102v-244h84v-70zM129 182h127v170z" />
    <glyph glyph-name="five.den" horiz-adv-x="435" 
d="M151 184h-74v242h284v-71h-204v-97q29 31 83 31q59 0 98 -38.5t39 -104.5v-4q0 -66 -43.5 -107.5t-116.5 -41.5q-75 0 -112.5 34.5t-46.5 79.5l82 20q16 -59 77 -59q33 0 54 21t21 53v3q0 33 -20.5 53t-54.5 20q-47 0 -66 -34z" />
    <glyph glyph-name="six.den" horiz-adv-x="435" 
d="M381 144q0 -66 -44.5 -108.5t-118.5 -42.5q-75 0 -119 42t-44 109q0 45 17 80t53 82l93 120h95l-122 -156q22 15 57 15q59 0 96 -38.5t37 -102.5zM296 144q0 34 -20.5 55.5t-57.5 21.5q-35 0 -56.5 -22t-21.5 -55t21 -54.5t57 -21.5t57 21.5t21 54.5z" />
    <glyph glyph-name="seven.den" horiz-adv-x="411" 
d="M168 0h-94l191 351h-215v75h315v-57z" />
    <glyph glyph-name="eight.den" horiz-adv-x="442" 
d="M229 433q70 0 108.5 -32t38.5 -86q0 -39 -19.5 -63t-45.5 -33q28 -9 50 -35.5t22 -68.5q0 -55 -41 -88.5t-113 -33.5h-18q-71 0 -111.5 33.5t-40.5 88.5q0 42 22 68.5t50 35.5q-26 9 -45.5 33t-19.5 63q0 54 38.5 86t107.5 32h17zM150 308q0 -26 18 -41.5t47 -15.5h12
q29 0 46.5 15.5t17.5 41.5q0 27 -17.5 42t-46.5 15h-12q-29 0 -47 -15t-18 -42zM145 123q0 -29 19 -45.5t50 -16.5h14q31 0 50 16.5t19 45.5q0 28 -19 44.5t-50 16.5h-14q-31 0 -50 -16.5t-19 -44.5z" />
    <glyph glyph-name="nine.den" horiz-adv-x="435" 
d="M54 282q0 66 44.5 108.5t118.5 42.5q75 0 119 -42t44 -109q0 -46 -17 -81t-53 -81l-93 -120h-95l124 157q-23 -16 -59 -16q-59 0 -96 38.5t-37 102.5zM139 282q0 -34 21 -55.5t58 -21.5q35 0 56.5 22t21.5 55t-21.5 54.5t-56.5 21.5q-37 0 -58 -21.5t-21 -54.5z" />
    <glyph glyph-name="zero.num" horiz-adv-x="455" 
d="M228 718q74 0 116.5 -42.5t42.5 -117.5v-122q0 -76 -42.5 -118t-116.5 -42t-117 42t-43 118v122q0 75 43 117.5t117 42.5zM228 353q36 0 55.5 23t19.5 61v120q0 38 -19.5 61t-55.5 23t-55.5 -23t-19.5 -61v-120q0 -38 19.5 -61t55.5 -23z" />
    <glyph glyph-name="one.num" horiz-adv-x="316" 
d="M233 284h-85v332l-105 -59v79l126 76h64v-428z" />
    <glyph glyph-name="two.num" horiz-adv-x="419" 
d="M380 359v-75h-322v55l151 143q32 31 45.5 52t13.5 46q0 27 -17.5 44t-47.5 17q-35 0 -50.5 -21.5t-15.5 -51.5l-82 9q1 60 40.5 100t107.5 40q70 0 110 -37t40 -97q0 -45 -22 -78.5t-70 -77.5l-74 -68h193z" />
    <glyph glyph-name="three.num" horiz-adv-x="428" 
d="M211 352q35 0 55 15.5t20 42.5q0 56 -65 56h-47v74h44q55 0 55 50q0 25 -17.5 39.5t-47.5 14.5q-54 0 -66 -50l-82 20q6 36 42 69.5t106 33.5q71 0 110.5 -32.5t39.5 -87.5q0 -63 -56 -88q28 -9 49 -35t21 -70q0 -57 -43 -92t-118 -35q-73 0 -111 33t-48 75l81 20
q19 -53 78 -53z" />
    <glyph glyph-name="four.num" horiz-adv-x="460" 
d="M421 396h-84v-112h-81v112h-214v60l193 254h102v-244h84v-70zM129 466h127v170z" />
    <glyph glyph-name="five.num" horiz-adv-x="435" 
d="M151 468h-74v242h284v-71h-204v-97q29 31 83 31q59 0 98 -38.5t39 -104.5v-4q0 -66 -43.5 -107.5t-116.5 -41.5q-75 0 -112.5 34.5t-46.5 79.5l82 20q16 -59 77 -59q33 0 54 21t21 53v3q0 33 -20.5 53t-54.5 20q-47 0 -66 -34z" />
    <glyph glyph-name="six.num" horiz-adv-x="435" 
d="M381 428q0 -66 -44.5 -108.5t-118.5 -42.5q-75 0 -119 42t-44 109q0 45 17 80t53 82l93 120h95l-122 -156q22 15 57 15q59 0 96 -38.5t37 -102.5zM296 428q0 34 -20.5 55.5t-57.5 21.5q-35 0 -56.5 -22t-21.5 -55t21 -54.5t57 -21.5t57 21.5t21 54.5z" />
    <glyph glyph-name="seven.num" horiz-adv-x="411" 
d="M168 284h-94l191 351h-215v75h315v-57z" />
    <glyph glyph-name="eight.num" horiz-adv-x="442" 
d="M229 717q70 0 108.5 -32t38.5 -86q0 -39 -19.5 -63t-45.5 -33q28 -9 50 -35.5t22 -68.5q0 -55 -41 -88.5t-113 -33.5h-18q-71 0 -111.5 33.5t-40.5 88.5q0 42 22 68.5t50 35.5q-26 9 -45.5 33t-19.5 63q0 54 38.5 86t107.5 32h17zM150 592q0 -26 18 -41.5t47 -15.5h12
q29 0 46.5 15.5t17.5 41.5q0 27 -17.5 42t-46.5 15h-12q-29 0 -47 -15t-18 -42zM145 407q0 -29 19 -45.5t50 -16.5h14q31 0 50 16.5t19 45.5q0 28 -19 44.5t-50 16.5h-14q-31 0 -50 -16.5t-19 -44.5z" />
    <glyph glyph-name="nine.num" horiz-adv-x="435" 
d="M54 566q0 66 44.5 108.5t118.5 42.5q75 0 119 -42t44 -109q0 -46 -17 -81t-53 -81l-93 -120h-95l124 157q-23 -16 -59 -16q-59 0 -96 38.5t-37 102.5zM139 566q0 -34 21 -55.5t58 -21.5q35 0 56.5 22t21.5 55t-21.5 54.5t-56.5 21.5q-37 0 -58 -21.5t-21 -54.5z" />
    <glyph glyph-name="zero.old" horiz-adv-x="648" 
d="M324 574q114 0 183 -84t69 -208q0 -125 -69 -209.5t-183 -84.5t-183 84.5t-69 209.5t68.5 208.5t183.5 83.5zM324 74q74 0 115 61t41 147t-41 146t-115 60t-115 -60.5t-41 -145.5q0 -86 41 -147t115 -61z" />
    <glyph glyph-name="one.old" horiz-adv-x="415" 
d="M293 0h-93v458l-152 -89v90l173 108h72v-567z" />
    <glyph glyph-name="two.old" horiz-adv-x="594" 
d="M530 84v-84h-455v60l180 132q77 57 109 95t32 88q0 51 -29.5 82.5t-80.5 31.5q-59 0 -87 -38t-29 -86l-93 11q3 82 58.5 140t150.5 58q93 0 148.5 -56.5t55.5 -142.5q0 -40 -14.5 -75t-44.5 -66.5t-56 -52t-69 -51.5l-65 -46h289z" />
    <glyph glyph-name="three.old" horiz-adv-x="605" 
d="M298 -74q63 0 100.5 33.5t37.5 92.5q0 60 -36 92t-103 32h-51v86h58q54 0 84 29.5t30 83.5q0 52 -34 82.5t-88 30.5q-97 0 -122 -109l-92 26q3 26 16.5 53t37.5 54t65.5 44.5t93.5 17.5q103 0 161 -54t58 -141q0 -60 -31.5 -99t-71.5 -55q48 -14 84.5 -59t36.5 -120
q0 -93 -62.5 -149.5t-171.5 -56.5q-56 0 -100.5 17.5t-70 45t-39.5 55t-19 54.5l91 29q29 -115 138 -115z" />
    <glyph glyph-name="four.old" horiz-adv-x="659" 
d="M621 71h-136v-219h-94v219h-345v53l333 438h106v-407h136v-84zM169 155h222v293z" />
    <glyph glyph-name="five.old" horiz-adv-x="622" 
d="M195 158h-81v404h405v-88h-312v-212q48 50 129 50q90 0 151 -62.5t61 -171.5v-1q0 -104 -64.5 -169.5t-169.5 -65.5q-100 0 -158.5 52t-72.5 131l92 26q4 -15 6.5 -25t13 -30.5t24 -33.5t38.5 -23.5t57 -10.5q62 0 100 41.5t38 107.5q0 68 -37 108.5t-100 40.5
q-76 0 -118 -65q-1 -2 -2 -3z" />
    <glyph glyph-name="six.old" horiz-adv-x="620" 
d="M548 233q0 -105 -64.5 -175t-173.5 -70q-112 0 -175 67.5t-63 177.5q0 70 27.5 128t82.5 132l161 217h108l-203 -277q42 33 105 33q85 0 140 -63.5t55 -169.5zM452 233q0 69 -37.5 114t-104.5 45q-66 0 -104 -45t-38 -114t38 -114t104 -45t104 45t38 114z" />
    <glyph glyph-name="seven.old" horiz-adv-x="578" 
d="M191 -148h-106l329 622h-349v88h458v-73z" />
    <glyph glyph-name="eight.old" horiz-adv-x="648" 
d="M329 722q108 0 166.5 -54.5t58.5 -141.5q0 -65 -34 -106t-78 -54q48 -15 86.5 -60t38.5 -114q0 -91 -64.5 -147.5t-175.5 -56.5h-11q-108 0 -171.5 56.5t-63.5 147.5q0 69 38.5 114t86.5 60q-44 13 -78 54t-34 106q0 87 59 141.5t166 54.5h10zM190 522q0 -52 35 -83
t94 -31h10q59 0 94 31t35 83t-35 83t-94 31h-10q-59 0 -94 -31t-35 -83zM178 198q0 -56 38 -90t101 -34h14q64 0 101.5 34t37.5 90t-37.5 90t-101.5 34h-14q-63 0 -101 -34t-38 -90z" />
    <glyph glyph-name="nine.old" horiz-adv-x="620" 
d="M72 329q0 105 64.5 175t173.5 70q112 0 175 -67.5t63 -177.5q0 -70 -27.5 -128t-82.5 -132l-161 -217h-108l203 277q-42 -33 -105 -33q-85 0 -140 63.5t-55 169.5zM168 329q0 -69 37.5 -114t104.5 -45q66 0 104 45t38 114t-38 114t-104 45t-104 -45t-38 -114z" />
    <glyph glyph-name="zero.sub" horiz-adv-x="520" 
d="M260 379q83 0 131.5 -49t48.5 -134v-146q0 -87 -48.5 -135t-131.5 -48t-131.5 48t-48.5 135v146q0 85 48.5 134t131.5 49zM260 -55q46 0 70.5 29.5t24.5 77.5v142q0 48 -24.5 77.5t-70.5 29.5t-70 -29.5t-24 -77.5v-142q0 -48 24 -77.5t70 -29.5z" />
    <glyph glyph-name="one.sub" horiz-adv-x="355" 
d="M257 -124h-86v398l-122 -70v81l144 87h64v-496z" />
    <glyph glyph-name="two.sub" horiz-adv-x="476" 
d="M433 -47v-77h-367v55l173 166q40 39 57.5 66t17.5 61q0 35 -22 56t-61 21q-77 0 -85 -88l-81 12q2 66 46.5 109.5t120.5 43.5q79 0 124 -42t45 -110q0 -54 -25.5 -93.5t-82.5 -91.5l-94 -88h234z" />
    <glyph glyph-name="three.sub" horiz-adv-x="487" 
d="M241 -56q43 0 68 20t25 55q0 73 -85 73h-48v76h46q35 0 54 17.5t19 48.5q0 32 -22.5 50.5t-59.5 18.5q-40 0 -60 -20.5t-25 -44.5l-83 20q6 43 48.5 81.5t119.5 38.5q79 0 123.5 -37.5t44.5 -100.5q0 -40 -20.5 -66t-46.5 -37q33 -10 57.5 -41t24.5 -83q0 -65 -48.5 -105
t-131.5 -40q-85 0 -131 40t-52 85l85 20q2 -10 8 -20t16.5 -22t29.5 -19.5t44 -7.5z" />
    <glyph glyph-name="four.sub" horiz-adv-x="523" 
d="M479 17h-101v-141h-84v141h-246v60l227 293h103v-280h101v-73zM141 90h153v199z" />
    <glyph glyph-name="five.sub" horiz-adv-x="496" 
d="M165 91h-74v279h319v-74h-237v-125q36 36 98 36q67 0 112.5 -44.5t45.5 -119.5v-6q0 -75 -49.5 -122t-131.5 -47q-84 0 -127.5 38.5t-52.5 93.5l83 19q5 -27 28.5 -50.5t68.5 -23.5q43 0 69 25.5t26 66.5v5q0 42 -26 67t-69 25q-56 0 -83 -43z" />
    <glyph glyph-name="six.sub" horiz-adv-x="497" 
d="M433 40q0 -75 -50 -123.5t-135 -48.5t-134.5 48t-49.5 124q0 52 20 92.5t61 93.5l111 144h98l-143 -182q29 17 67 17q69 0 112 -45.5t43 -119.5zM347 40q0 43 -26 70t-73 27q-44 0 -71 -27.5t-27 -69.5q0 -41 26.5 -68.5t71.5 -27.5q46 0 72.5 27.5t26.5 68.5z" />
    <glyph glyph-name="seven.sub" horiz-adv-x="470" 
d="M182 -124h-95l229 417h-257v77h358v-60z" />
    <glyph glyph-name="eight.sub" horiz-adv-x="505" 
d="M262 378q78 0 121.5 -37t43.5 -99q0 -46 -23.5 -74t-54.5 -38q34 -10 60.5 -40t26.5 -80q0 -64 -47 -103t-128 -39h-20q-80 0 -126 39t-46 103q0 50 26.5 80t60.5 40q-31 10 -54.5 38t-23.5 74q0 61 43.5 98.5t121.5 37.5h19zM164 236q0 -33 22 -52t58 -19h17q36 0 58 19
t22 52t-22 52t-58 19h-17q-36 0 -58 -19t-22 -52zM156 16q0 -35 24 -56t63 -21h19q39 0 63 21t24 56q0 36 -24 57t-63 21h-19q-39 0 -63 -21t-24 -57z" />
    <glyph glyph-name="nine.sub" horiz-adv-x="497" 
d="M63 206q0 75 50 123.5t135 48.5t134.5 -47.5t49.5 -124.5q0 -52 -20 -93t-61 -93l-110 -144h-99l143 181q-28 -16 -66 -16q-69 0 -112.5 45t-43.5 120zM149 206q0 -43 26 -70t73 -27q44 0 71 27t27 70q0 41 -26.5 68.5t-71.5 27.5q-46 0 -72.5 -27.5t-26.5 -68.5z" />
    <glyph glyph-name="zero.sup" horiz-adv-x="520" 
d="M260 745q83 0 131.5 -49t48.5 -134v-146q0 -87 -48.5 -135t-131.5 -48t-131.5 48t-48.5 135v146q0 85 48.5 134t131.5 49zM260 311q46 0 70.5 29.5t24.5 77.5v142q0 48 -24.5 77.5t-70.5 29.5t-70 -29.5t-24 -77.5v-142q0 -48 24 -77.5t70 -29.5z" />
    <glyph glyph-name="one.sup" horiz-adv-x="355" 
d="M257 242h-86v398l-122 -70v81l144 87h64v-496z" />
    <glyph glyph-name="two.sup" horiz-adv-x="476" 
d="M433 319v-77h-367v55l173 166q40 39 57.5 66t17.5 61q0 35 -22 56t-61 21q-77 0 -85 -88l-81 12q2 66 46.5 109.5t120.5 43.5q79 0 124 -42t45 -110q0 -54 -25.5 -93.5t-82.5 -91.5l-94 -88h234z" />
    <glyph glyph-name="three.sup" horiz-adv-x="487" 
d="M241 310q43 0 68 20t25 55q0 73 -85 73h-48v76h46q35 0 54 17.5t19 48.5q0 32 -22.5 50.5t-59.5 18.5q-40 0 -60 -20.5t-25 -44.5l-83 20q6 43 48.5 81.5t119.5 38.5q79 0 123.5 -37.5t44.5 -100.5q0 -40 -20.5 -66t-46.5 -37q33 -10 57.5 -41t24.5 -83q0 -65 -48.5 -105
t-131.5 -40q-85 0 -131 40t-52 85l85 20q2 -10 8 -20t16.5 -22t29.5 -19.5t44 -7.5z" />
    <glyph glyph-name="four.sup" horiz-adv-x="523" 
d="M479 383h-101v-141h-84v141h-246v60l227 293h103v-280h101v-73zM141 456h153v199z" />
    <glyph glyph-name="five.sup" horiz-adv-x="496" 
d="M165 457h-74v279h319v-74h-237v-125q36 36 98 36q67 0 112.5 -44.5t45.5 -119.5v-6q0 -75 -49.5 -122t-131.5 -47q-84 0 -127.5 38.5t-52.5 93.5l83 19q5 -27 28.5 -50.5t68.5 -23.5q43 0 69 25.5t26 66.5v5q0 42 -26 67t-69 25q-56 0 -83 -43z" />
    <glyph glyph-name="six.sup" horiz-adv-x="497" 
d="M433 406q0 -75 -50 -123.5t-135 -48.5t-134.5 48t-49.5 124q0 52 20 92.5t61 93.5l111 144h98l-143 -182q29 17 67 17q69 0 112 -45.5t43 -119.5zM347 406q0 43 -26 70t-73 27q-44 0 -71 -27.5t-27 -69.5q0 -41 26.5 -68.5t71.5 -27.5q46 0 72.5 27.5t26.5 68.5z" />
    <glyph glyph-name="seven.sup" horiz-adv-x="470" 
d="M182 242h-95l229 417h-257v77h358v-60z" />
    <glyph glyph-name="eight.sup" horiz-adv-x="505" 
d="M262 744q78 0 121.5 -37t43.5 -99q0 -46 -23.5 -74t-54.5 -38q34 -10 60.5 -40t26.5 -80q0 -64 -47 -103t-128 -39h-20q-80 0 -126 39t-46 103q0 50 26.5 80t60.5 40q-31 10 -54.5 38t-23.5 74q0 61 43.5 98.5t121.5 37.5h19zM164 602q0 -33 22 -52t58 -19h17q36 0 58 19
t22 52t-22 52t-58 19h-17q-36 0 -58 -19t-22 -52zM156 382q0 -35 24 -56t63 -21h19q39 0 63 21t24 56q0 36 -24 57t-63 21h-19q-39 0 -63 -21t-24 -57z" />
    <glyph glyph-name="nine.sup" horiz-adv-x="497" 
d="M63 572q0 75 50 123.5t135 48.5t134.5 -47.5t49.5 -124.5q0 -52 -20 -93t-61 -93l-110 -144h-99l143 181q-28 -16 -66 -16q-69 0 -112.5 45t-43.5 120zM149 572q0 -43 26 -70t73 -27q44 0 71 27t27 70q0 41 -26.5 68.5t-71.5 27.5q-46 0 -72.5 -27.5t-26.5 -68.5z" />
    <glyph glyph-name="four.denalt" horiz-adv-x="488" 
d="M80 122v304h84v-231h117v174h84v-174h84v-73h-84v-122h-84v122h-201z" />
    <glyph glyph-name="four.numalt" horiz-adv-x="488" 
d="M80 406v304h84v-231h117v174h84v-174h84v-73h-84v-122h-84v122h-201z" />
    <glyph glyph-name="four.oldalt" horiz-adv-x="676" 
d="M115 82v480h96v-393h194v298h97v-298h136v-87h-136v-230h-97v230h-290z" />
    <glyph glyph-name="four.subalt" horiz-adv-x="543" 
d="M86 20v350h83v-273h140v208h84v-208h106v-77h-106v-144h-84v144h-223z" />
    <glyph glyph-name="four.supalt" horiz-adv-x="543" 
d="M86 386v350h83v-273h140v208h84v-208h106v-77h-106v-144h-84v144h-223z" />
    <glyph glyph-name="four.tabalt" 
d="M92 223v487h96v-400h196v295h96v-295h130v-87h-130v-223h-96v223h-292z" />
    <glyph glyph-name="uni0414.bgr" horiz-adv-x="794" 
d="M682 -161v161h-570v-161h-87v251h70l259 624h86l259 -624h70v-251h-87zM191 90h406l-203 493z" />
    <glyph glyph-name="uni041B.bgr" horiz-adv-x="729" 
d="M409 713l287 -713h-107l-229 584l-228 -584h-99l283 713h93z" />
    <glyph glyph-name="uni0432.bgr" horiz-adv-x="593" 
d="M88 222v299q0 97 53.5 161t156.5 64q96 0 151.5 -57t55.5 -150q0 -53 -26.5 -97t-70.5 -64q55 -20 86 -64.5t31 -106.5q0 -96 -61 -158t-162 -62q-104 0 -159 63t-55 172zM298 662q-55 0 -87 -36.5t-32 -104.5v-109h100q64 0 98 32t34 95q0 58 -30 90.5t-83 32.5z
M179 222q0 -71 31 -111.5t93 -40.5q63 0 95.5 38t32.5 99q0 123 -151 123h-101v-108z" />
    <glyph glyph-name="uni0433.bgr" horiz-adv-x="539" 
d="M262 -14q-98 0 -152.5 42t-54.5 109q0 133 169 153l69 8q86 10 86 67q0 28 -26.5 45t-75.5 17q-87 0 -128 -76l-82 29q6 19 20 38.5t37.5 41t63.5 35t89 13.5q86 0 139.5 -40.5t53.5 -106.5q0 -65 -44 -101t-121 -45l-71 -8q-46 -5 -66 -22.5t-20 -48.5q0 -32 29 -50.5
t85 -18.5q97 0 138 76l82 -29q-15 -45 -69.5 -86.5t-150.5 -41.5z" />
    <glyph glyph-name="uni0434.bgr" horiz-adv-x="607" 
d="M424 78q-6 -12 -15.5 -23.5t-27.5 -29t-45.5 -28t-60.5 -10.5q-90 0 -151.5 70.5t-61.5 188.5q0 119 61.5 189.5t151.5 70.5q33 0 60.5 -10.5t45 -27.5t27.5 -30t16 -26v82h91v-483q0 -110 -58 -173.5t-171 -63.5q-53 0 -95 14t-66 35.5t-36 38t-18 31.5l90 24
q40 -60 125 -60q138 0 138 154v67zM426 246q0 76 -37 126t-97 50q-61 0 -98.5 -50t-37.5 -126q0 -75 37.5 -125t98.5 -50q60 0 97 50t37 125z" />
    <glyph glyph-name="uni0436.bgr" horiz-adv-x="796" 
d="M352 0v225l-228 -225h-119l254 251l-247 243h127l213 -215v457h88v-457l213 215h125l-245 -241l258 -253h-123l-228 225v-225h-88z" />
    <glyph glyph-name="uni0437.bgr" horiz-adv-x="518" 
d="M242 426q-81 0 -122 -76l-82 29q6 19 19.5 38.5t36.5 41t62 35t87 13.5q93 0 148 -53.5t55 -140.5q0 -55 -30 -93t-73 -55q53 -16 88 -59.5t35 -111.5q0 -96 -63.5 -158t-168.5 -62q-86 0 -140.5 42.5t-68.5 96.5l83 29q14 -32 46 -58.5t80 -26.5q68 0 103 38t35 99
q0 123 -151 123h-47v82h46q64 0 98 29t34 85q0 54 -28.5 83.5t-81.5 29.5z" />
    <glyph glyph-name="uni0438.bgr" horiz-adv-x="599" 
d="M180 209q0 -67 30.5 -101.5t86.5 -34.5q58 0 90.5 35.5t32.5 100.5v285h91v-494h-91v75q-15 -34 -52.5 -60t-92.5 -26q-85 0 -136 54.5t-51 148.5v302h92v-285z" />
    <glyph glyph-name="uni0439.bgr" horiz-adv-x="599" 
d="M287 645q29 0 44 20t15 49v17l75 -10v-9q0 -61 -34.5 -99.5t-99.5 -38.5t-99.5 38.5t-34.5 99.5v9l75 10v-17q0 -28 15 -48.5t44 -20.5zM180 209q0 -67 30.5 -101.5t86.5 -34.5q58 0 90.5 35.5t32.5 100.5v285h91v-494h-91v75q-15 -34 -52.5 -60t-92.5 -26
q-85 0 -136 54.5t-51 148.5v302h92v-285z" />
    <glyph glyph-name="uni043A.bgr" horiz-adv-x="556" 
d="M92 0v736h88v-454l233 212h125l-260 -233l273 -261h-123l-248 232v-232h-88z" />
    <glyph glyph-name="uni043B.bgr" horiz-adv-x="534" 
d="M25 0l199 503h81l204 -503h-102l-144 373l-144 -373h-94z" />
    <glyph glyph-name="uni043D.bgr" horiz-adv-x="607" 
d="M92 0v494h91v-202h241v202h91v-494h-91v210h-241v-210h-91z" />
    <glyph glyph-name="uni043F.bgr" horiz-adv-x="609" 
d="M92 0v494h91v-83q16 37 54 65.5t94 28.5q86 0 138 -56.5t52 -154.5v-294h-92v277q0 70 -32 107t-88 37q-59 0 -92.5 -37.5t-33.5 -106.5v-277h-91z" />
    <glyph glyph-name="uni0442.bgr" horiz-adv-x="935" 
d="M92 0v494h91v-77q16 35 51.5 61.5t90.5 26.5q122 0 170 -105q47 105 159 105q90 0 141.5 -57t51.5 -147v-301h-92v284q0 63 -30.5 100t-88.5 37q-57 0 -89 -38t-32 -99v-284h-92v284q0 63 -31.5 100t-88.5 37t-88.5 -38t-31.5 -99v-284h-91z" />
    <glyph glyph-name="uni0446.bgr" horiz-adv-x="621" 
d="M180 209q0 -67 30.5 -101.5t86.5 -34.5q58 0 90.5 35.5t32.5 100.5v285h91v-412h90v-231h-81v149h-100v75q-15 -34 -52.5 -60t-92.5 -26q-85 0 -136 54.5t-51 148.5v302h92v-285z" />
    <glyph glyph-name="uni0447.bgr" horiz-adv-x="580" 
d="M397 0v188q-44 -13 -109 -13q-104 0 -156 44.5t-52 144.5v130h91v-120q0 -62 25.5 -90t91.5 -28q29 0 56.5 3t39.5 6l13 3v226h91v-494h-91z" />
    <glyph glyph-name="uni0448.bgr" horiz-adv-x="935" 
d="M843 494v-494h-91v77q-16 -35 -51.5 -61.5t-90.5 -26.5q-122 0 -170 105q-48 -105 -159 -105q-90 0 -141.5 57t-51.5 147v301h92v-284q0 -63 30.5 -100t88.5 -37q57 0 89 38t32 99v284h92v-284q0 -63 31.5 -100t88.5 -37t88.5 38t31.5 99v284h91z" />
    <glyph glyph-name="uni0449.bgr" horiz-adv-x="953" 
d="M843 494v-412h90v-231h-81v149h-100v77q-16 -35 -51.5 -61.5t-90.5 -26.5q-122 0 -170 105q-48 -105 -159 -105q-90 0 -141.5 57t-51.5 147v301h92v-284q0 -63 30.5 -100t88.5 -37q57 0 89 38t32 99v284h92v-284q0 -63 31.5 -100t88.5 -37t88.5 38t31.5 99v284h91z" />
    <glyph glyph-name="uni044A.bgr" horiz-adv-x="618" 
d="M40 494h241v-159h110q97 0 147 -47t50 -119q0 -69 -54 -125t-147 -56q-91 0 -144 56t-53 125v243h-150v82zM281 169q0 -44 28 -71.5t78 -27.5t77.5 27.5t27.5 71.5q0 37 -29.5 60.5t-81.5 23.5h-100v-84z" />
    <glyph glyph-name="uni044C.bgr" horiz-adv-x="516" 
d="M486 169q0 -69 -54 -125t-147 -56q-91 0 -144 56t-53 125v325h91v-159h110q97 0 147 -47t50 -119zM179 169q0 -44 28 -71.5t78 -27.5t77.5 27.5t27.5 71.5q0 37 -29.5 60.5t-81.5 23.5h-100v-84z" />
    <glyph glyph-name="uni044E.bgr" horiz-adv-x="801" 
d="M92 0v736h91v-444h97q13 95 75 154.5t154 59.5q104 0 168 -73.5t64 -185.5t-64 -185.5t-168 -73.5q-94 0 -156.5 62t-73.5 160h-96v-210h-91zM509 72q65 0 101.5 49.5t36.5 125.5t-36.5 125.5t-101.5 49.5t-101.5 -49.5t-36.5 -125.5t36 -125.5t102 -49.5z" />
    <glyph glyph-name="uni0431.locl" horiz-adv-x="584" 
d="M524 237q0 -107 -64.5 -178t-167.5 -71t-167.5 71t-64.5 178q0 70 35 127.5t100 85.5q-102 33 -102 127q0 69 48.5 109t145.5 44q143 6 210 19v-84q-65 -13 -210 -19q-100 -5 -100 -72q0 -41 32 -60.5t99 -31.5q93 -16 149.5 -75t56.5 -170zM292 72q65 0 101.5 47
t36.5 118t-36.5 118t-101.5 47t-101.5 -47t-36.5 -118q0 -72 36 -118.5t102 -46.5z" />
    <glyph glyph-name="uni0433.locl" horiz-adv-x="460" 
d="M92 0v494h328v-82h-237v-412h-91z" />
    <glyph glyph-name="uni0434.locl" horiz-adv-x="596" 
d="M96 -149h-81v231h59q22 29 34.5 81t20.5 146l17 185h345v-412h90v-231h-81v149h-404v-149zM400 82v330h-180l-10 -110q-16 -168 -48 -220h238z" />
    <glyph glyph-name="uni043F.locl" horiz-adv-x="597" 
d="M92 0v494h413v-494h-91v412h-231v-412h-91z" />
    <glyph glyph-name="uni0442.locl" horiz-adv-x="511" 
d="M210 0v412h-170v82h431v-82h-170v-412h-91z" />
    <glyph glyph-name="f.short" horiz-adv-x="419" 
d="M31 412v82h114v78q0 164 175 164h100v-82h-90q-94 0 -94 -95v-65h152v-82h-152v-412h-91v412h-114z" />
    <glyph glyph-name="j.short" horiz-adv-x="278" 
d="M92 589v143h95v-143h-95zM185 -48q0 -166 -163 -166h-78v85h63q87 0 87 91v532h91v-542z" />
    <glyph glyph-name="f_f.short" horiz-adv-x="756" 
d="M31 412v82h114v78q0 164 175 164h96v-82h-86q-94 0 -94 -95v-65h246v78q0 164 175 164h100v-82h-90q-94 0 -94 -95v-65h152v-82h-152v-412h-91v412h-246v-412h-91v412h-114z" />
    <glyph glyph-name="uni0414.bgrsc" horiz-adv-x="663" 
d="M560 -161v161h-457v-161h-83v246h65l198 479h93l202 -479h65v-246h-83zM180 85h296l-148 363z" />
    <glyph glyph-name="uni041B.bgrsc" horiz-adv-x="614" 
d="M351 564l224 -564h-103l-169 442l-168 -442h-96l219 564h93z" />
    <glyph glyph-name="A.sc" horiz-adv-x="627" 
d="M490 0l-50 124h-258l-50 -124h-93l230 565h90l229 -565h-98zM215 206h192l-96 240z" />
    <glyph glyph-name="Agrave.sc" horiz-adv-x="627" 
d="M363 630h-102l-109 150h110zM490 0l-50 124h-258l-50 -124h-93l230 565h90l229 -565h-98zM215 206h192l-96 240z" />
    <glyph glyph-name="Aacute.sc" horiz-adv-x="627" 
d="M262 630l102 150h110l-110 -150h-102zM490 0l-50 124h-258l-50 -124h-93l230 565h90l229 -565h-98zM215 206h192l-96 240z" />
    <glyph glyph-name="Acircumflex.sc" horiz-adv-x="627" 
d="M386 627l-73 87l-74 -87h-98l132 156h78l129 -156h-94zM490 0l-50 124h-258l-50 -124h-93l230 565h90l229 -565h-98zM215 206h192l-96 240z" />
    <glyph glyph-name="Atilde.sc" horiz-adv-x="627" 
d="M305 668l-36 22q-23 15 -34 15q-17 0 -17 -24v-56h-73v66q0 94 77 94q8 0 17 -2t15 -3.5t15.5 -6.5t13.5 -7.5t15.5 -9.5t14.5 -9l36 -22q26 -15 34 -15q17 0 17 24v56h73v-66q0 -94 -77 -94q-10 0 -19 1.5t-20.5 7t-15.5 7.5t-19 11.5t-17 10.5zM490 0l-50 124h-258
l-50 -124h-93l230 565h90l229 -565h-98zM215 206h192l-96 240z" />
    <glyph glyph-name="Adieresis.sc" horiz-adv-x="627" 
d="M169 630v139h92v-139h-92zM363 630v139h92v-139h-92zM490 0l-50 124h-258l-50 -124h-93l230 565h90l229 -565h-98zM215 206h192l-96 240z" />
    <glyph glyph-name="Aring.sc" horiz-adv-x="627" 
d="M312 620q-55 0 -91.5 36t-36.5 89q0 54 36.5 90.5t91.5 36.5t91.5 -36.5t36.5 -90.5q0 -53 -36.5 -89t-91.5 -36zM312 681q27 0 44.5 18.5t17.5 45.5q0 28 -17 46t-45 18t-45 -18t-17 -46q0 -27 17.5 -45.5t44.5 -18.5zM490 0l-50 124h-258l-50 -124h-93l230 565h90
l229 -565h-98zM215 206h192l-96 240z" />
    <glyph glyph-name="Amacron.sc" horiz-adv-x="627" 
d="M470 665h-316v78h316v-78zM490 0l-50 124h-258l-50 -124h-93l230 565h90l229 -565h-98zM215 206h192l-96 240z" />
    <glyph glyph-name="Abreve.sc" horiz-adv-x="627" 
d="M312 695q32 0 48.5 20.5t16.5 50.5v13h76v-15q0 -62 -37 -101.5t-104 -39.5t-104 39.5t-37 101.5v15h76v-13q0 -30 16.5 -50.5t48.5 -20.5zM490 0l-50 124h-258l-50 -124h-93l230 565h90l229 -565h-98zM215 206h192l-96 240z" />
    <glyph glyph-name="Aogonek.sc" horiz-adv-x="627" 
d="M407 -120q0 24 13 46.5t28 37t42 36.5l-50 124h-258l-50 -124h-93l230 565h90l229 -565q-27 -25 -36 -33t-24.5 -24t-20.5 -26t-5 -19q0 -30 39 -30h67v-82h-72q-129 0 -129 94zM215 206h192l-96 240z" />
    <glyph glyph-name="Aringacute.sc" horiz-adv-x="627" 
d="M272 911l92 140h102l-100 -140h-94zM312 620q-55 0 -91.5 36t-36.5 89q0 54 36.5 90.5t91.5 36.5t91.5 -36.5t36.5 -90.5q0 -53 -36.5 -89t-91.5 -36zM312 681q27 0 44.5 18.5t17.5 45.5q0 28 -17 46t-45 18t-45 -18t-17 -46q0 -27 17.5 -45.5t44.5 -18.5zM490 0l-50 124
h-258l-50 -124h-93l230 565h90l229 -565h-98zM215 206h192l-96 240z" />
    <glyph glyph-name="B.sc" horiz-adv-x="656" 
d="M113 0v562h281q81 0 125 -40.5t44 -110.5q0 -43 -26 -74t-62 -42q43 -11 72 -46.5t29 -87.5q0 -75 -50 -118t-146 -43h-267zM385 480h-180v-150h181q39 0 60.5 19.5t21.5 55.5q0 75 -83 75zM372 249h-167v-167h167q109 0 109 84q0 83 -109 83z" />
    <glyph glyph-name="C.sc" horiz-adv-x="619" 
d="M324 77q33 0 60 11t42.5 28.5t23 29.5t12.5 24l84 -30q-5 -19 -18 -40t-37.5 -48t-68 -44t-98.5 -17q-112 0 -180.5 82t-68.5 208t68.5 208t180.5 82q55 0 98.5 -16t68 -41t37.5 -46.5t19 -42.5l-86 -32q-8 19 -20 36.5t-44 36.5t-73 19q-72 0 -112 -58t-40 -146
t39.5 -146t112.5 -58z" />
    <glyph glyph-name="Ccedilla.sc" horiz-adv-x="619" 
d="M324 77q33 0 60 11t42.5 28.5t23 29.5t12.5 24l84 -30q-4 -14 -11.5 -29.5t-24.5 -37t-39 -38.5t-57 -29.5t-77 -14.5v-46q54 0 81.5 -27.5t27.5 -73.5q0 -49 -29 -79t-88 -30h-95v74h84q41 0 41 35q0 34 -41 34h-61v122q-84 23 -133 99t-49 182q0 126 68.5 208t180.5 82
q55 0 98.5 -16t68 -41t37.5 -46.5t19 -42.5l-86 -32q-8 19 -20 36.5t-44 36.5t-73 19q-72 0 -112 -58t-40 -146t39.5 -146t112.5 -58z" />
    <glyph glyph-name="Cacute.sc" horiz-adv-x="619" 
d="M274 630l102 150h110l-110 -150h-102zM324 77q33 0 60 11t42.5 28.5t23 29.5t12.5 24l84 -30q-5 -19 -18 -40t-37.5 -48t-68 -44t-98.5 -17q-112 0 -180.5 82t-68.5 208t68.5 208t180.5 82q55 0 98.5 -16t68 -41t37.5 -46.5t19 -42.5l-86 -32q-8 19 -20 36.5t-44 36.5
t-73 19q-72 0 -112 -58t-40 -146t39.5 -146t112.5 -58z" />
    <glyph glyph-name="Ccircumflex.sc" horiz-adv-x="619" 
d="M398 627l-73 87l-74 -87h-98l132 156h78l129 -156h-94zM324 77q33 0 60 11t42.5 28.5t23 29.5t12.5 24l84 -30q-5 -19 -18 -40t-37.5 -48t-68 -44t-98.5 -17q-112 0 -180.5 82t-68.5 208t68.5 208t180.5 82q55 0 98.5 -16t68 -41t37.5 -46.5t19 -42.5l-86 -32
q-8 19 -20 36.5t-44 36.5t-73 19q-72 0 -112 -58t-40 -146t39.5 -146t112.5 -58z" />
    <glyph glyph-name="Cdotaccent.sc" horiz-adv-x="619" 
d="M277 630v143h94v-143h-94zM324 77q33 0 60 11t42.5 28.5t23 29.5t12.5 24l84 -30q-5 -19 -18 -40t-37.5 -48t-68 -44t-98.5 -17q-112 0 -180.5 82t-68.5 208t68.5 208t180.5 82q55 0 98.5 -16t68 -41t37.5 -46.5t19 -42.5l-86 -32q-8 19 -20 36.5t-44 36.5t-73 19
q-72 0 -112 -58t-40 -146t39.5 -146t112.5 -58z" />
    <glyph glyph-name="Ccaron.sc" horiz-adv-x="619" 
d="M152 783h98l74 -87l73 87h94l-129 -156h-78zM324 77q33 0 60 11t42.5 28.5t23 29.5t12.5 24l84 -30q-5 -19 -18 -40t-37.5 -48t-68 -44t-98.5 -17q-112 0 -180.5 82t-68.5 208t68.5 208t180.5 82q55 0 98.5 -16t68 -41t37.5 -46.5t19 -42.5l-86 -32q-8 19 -20 36.5
t-44 36.5t-73 19q-72 0 -112 -58t-40 -146t39.5 -146t112.5 -58z" />
    <glyph glyph-name="D.sc" horiz-adv-x="667" 
d="M113 0v562h192q133 0 211 -75t78 -206q0 -129 -78 -205t-211 -76h-192zM305 478h-99v-394h99q90 0 142 53t52 144q0 93 -51.5 145t-142.5 52z" />
    <glyph glyph-name="Dcaron.sc" horiz-adv-x="667" 
d="M139 783h98l74 -87l73 87h94l-129 -156h-78zM113 0v562h192q133 0 211 -75t78 -206q0 -129 -78 -205t-211 -76h-192zM305 478h-99v-394h99q90 0 142 53t52 144q0 93 -51.5 145t-142.5 52z" />
    <glyph glyph-name="E.sc" horiz-adv-x="612" 
d="M113 0v562h413v-83h-321v-140h263v-84h-263v-171h350v-84h-442z" />
    <glyph glyph-name="Egrave.sc" horiz-adv-x="612" 
d="M384 630h-102l-109 150h110zM113 0v562h413v-83h-321v-140h263v-84h-263v-171h350v-84h-442z" />
    <glyph glyph-name="Eacute.sc" horiz-adv-x="612" 
d="M267 630l102 150h110l-110 -150h-102zM113 0v562h413v-83h-321v-140h263v-84h-263v-171h350v-84h-442z" />
    <glyph glyph-name="Ecircumflex.sc" horiz-adv-x="612" 
d="M391 627l-73 87l-74 -87h-98l132 156h78l129 -156h-94zM113 0v562h413v-83h-321v-140h263v-84h-263v-171h350v-84h-442z" />
    <glyph glyph-name="Edieresis.sc" horiz-adv-x="612" 
d="M174 630v139h92v-139h-92zM368 630v139h92v-139h-92zM113 0v562h413v-83h-321v-140h263v-84h-263v-171h350v-84h-442z" />
    <glyph glyph-name="Emacron.sc" horiz-adv-x="612" 
d="M475 665h-316v78h316v-78zM113 0v562h413v-83h-321v-140h263v-84h-263v-171h350v-84h-442z" />
    <glyph glyph-name="Ebreve.sc" horiz-adv-x="612" 
d="M317 695q32 0 48.5 20.5t16.5 50.5v13h76v-15q0 -62 -37 -101.5t-104 -39.5t-104 39.5t-37 101.5v15h76v-13q0 -30 16.5 -50.5t48.5 -20.5zM113 0v562h413v-83h-321v-140h263v-84h-263v-171h350v-84h-442z" />
    <glyph glyph-name="Edotaccent.sc" horiz-adv-x="612" 
d="M270 630v143h94v-143h-94zM113 0v562h413v-83h-321v-140h263v-84h-263v-171h350v-84h-442z" />
    <glyph glyph-name="Eogonek.sc" horiz-adv-x="612" 
d="M113 0v562h413v-83h-321v-140h263v-84h-263v-171h350v-84h-90q-27 -25 -36 -33t-24.5 -24t-20.5 -26t-5 -19q0 -30 39 -30h67v-82h-72q-129 0 -129 94q0 24 15.5 47.5t28 34.5t46.5 38h-261z" />
    <glyph glyph-name="Ecaron.sc" horiz-adv-x="612" 
d="M145 783h98l74 -87l73 87h94l-129 -156h-78zM113 0v562h413v-83h-321v-140h263v-84h-263v-171h350v-84h-442z" />
    <glyph glyph-name="F.sc" horiz-adv-x="600" 
d="M113 0v562h436v-84h-343v-142h286v-84h-286v-252h-93z" />
    <glyph glyph-name="G.sc" horiz-adv-x="663" 
d="M336 488q-76 0 -121 -57.5t-45 -148.5q0 -94 49 -151t133 -57q85 0 130 31v134h-134v80h223v-256q-80 -73 -219 -73q-126 0 -201.5 81t-75.5 211q0 127 73 208.5t188 81.5q98 0 150 -38t69 -81l-86 -32q-47 67 -133 67z" />
    <glyph glyph-name="Gcircumflex.sc" horiz-adv-x="663" 
d="M410 627l-73 87l-74 -87h-98l132 156h78l129 -156h-94zM336 488q-76 0 -121 -57.5t-45 -148.5q0 -94 49 -151t133 -57q85 0 130 31v134h-134v80h223v-256q-80 -73 -219 -73q-126 0 -201.5 81t-75.5 211q0 127 73 208.5t188 81.5q98 0 150 -38t69 -81l-86 -32
q-47 67 -133 67z" />
    <glyph glyph-name="Gbreve.sc" horiz-adv-x="663" 
d="M336 695q32 0 48.5 20.5t16.5 50.5v13h76v-15q0 -62 -37 -101.5t-104 -39.5t-104 39.5t-37 101.5v15h76v-13q0 -30 16.5 -50.5t48.5 -20.5zM336 488q-76 0 -121 -57.5t-45 -148.5q0 -94 49 -151t133 -57q85 0 130 31v134h-134v80h223v-256q-80 -73 -219 -73
q-126 0 -201.5 81t-75.5 211q0 127 73 208.5t188 81.5q98 0 150 -38t69 -81l-86 -32q-47 67 -133 67z" />
    <glyph glyph-name="Gdotaccent.sc" horiz-adv-x="663" 
d="M289 630v143h94v-143h-94zM336 488q-76 0 -121 -57.5t-45 -148.5q0 -94 49 -151t133 -57q85 0 130 31v134h-134v80h223v-256q-80 -73 -219 -73q-126 0 -201.5 81t-75.5 211q0 127 73 208.5t188 81.5q98 0 150 -38t69 -81l-86 -32q-47 67 -133 67z" />
    <glyph glyph-name="Gcommaaccent.sc" horiz-adv-x="663" 
d="M336 488q-76 0 -121 -57.5t-45 -148.5q0 -94 49 -151t133 -57q85 0 130 31v134h-134v80h223v-256q-80 -73 -219 -73q-126 0 -201.5 81t-75.5 211q0 127 73 208.5t188 81.5q98 0 150 -38t69 -81l-86 -32q-47 67 -133 67zM386 -325h-67q35 65 35 115h-52v115h112v-98
q0 -68 -28 -132z" />
    <glyph glyph-name="H.sc" horiz-adv-x="702" 
d="M113 0v562h93v-237h290v237h93v-562h-93v240h-290v-240h-93z" />
    <glyph glyph-name="Hcircumflex.sc" horiz-adv-x="702" 
d="M425 627l-73 87l-74 -87h-98l132 156h78l129 -156h-94zM113 0v562h93v-237h290v237h93v-562h-93v240h-290v-240h-93z" />
    <glyph glyph-name="I.sc" horiz-adv-x="321" 
d="M114 0v562h93v-562h-93z" />
    <glyph glyph-name="Igrave.sc" horiz-adv-x="321" 
d="M211 630h-102l-109 150h110zM114 0v562h93v-562h-93z" />
    <glyph glyph-name="Iacute.sc" horiz-adv-x="321" 
d="M110 630l102 150h110l-110 -150h-102zM114 0v562h93v-562h-93z" />
    <glyph glyph-name="Icircumflex.sc" horiz-adv-x="321" 
d="M234 627l-73 87l-74 -87h-98l132 156h78l129 -156h-94zM114 0v562h93v-562h-93z" />
    <glyph glyph-name="Idieresis.sc" horiz-adv-x="321" 
d="M17 630v139h92v-139h-92zM211 630v139h92v-139h-92zM114 0v562h93v-562h-93z" />
    <glyph glyph-name="Itilde.sc" horiz-adv-x="321" 
d="M156 668l-36 22q-23 15 -34 15q-17 0 -17 -24v-56h-73v66q0 94 77 94q8 0 17 -2t15 -3.5t15.5 -6.5t13.5 -7.5t15.5 -9.5t14.5 -9l36 -22q26 -15 34 -15q17 0 17 24v56h73v-66q0 -94 -77 -94q-10 0 -19 1.5t-20.5 7t-15.5 7.5t-19 11.5t-17 10.5zM114 0v562h93v-562h-93z
" />
    <glyph glyph-name="Imacron.sc" horiz-adv-x="321" 
d="M318 665h-316v78h316v-78zM114 0v562h93v-562h-93z" />
    <glyph glyph-name="Ibreve.sc" horiz-adv-x="321" 
d="M160 695q32 0 48.5 20.5t16.5 50.5v13h76v-15q0 -62 -37 -101.5t-104 -39.5t-104 39.5t-37 101.5v15h76v-13q0 -30 16.5 -50.5t48.5 -20.5zM114 0v562h93v-562h-93z" />
    <glyph glyph-name="Iogonek.sc" horiz-adv-x="321" 
d="M114 0v562h93v-562q-27 -25 -36 -33t-24.5 -24t-20.5 -26t-5 -19q0 -30 39 -30h67v-82h-72q-129 0 -129 94q0 32 20 57t60 57q5 4 8 6z" />
    <glyph glyph-name="Idotaccent.sc" horiz-adv-x="321" 
d="M113 630v143h94v-143h-94zM114 0v562h93v-562h-93z" />
    <glyph glyph-name="J.sc" horiz-adv-x="563" 
d="M453 173q0 -87 -49.5 -134.5t-134.5 -47.5q-84 0 -132.5 47t-48.5 135v80h91v-77q0 -46 23.5 -72.5t66.5 -26.5t66.5 26.5t23.5 72.5v386h94v-389z" />
    <glyph glyph-name="Jcircumflex.sc" horiz-adv-x="563" 
d="M480 627l-73 87l-74 -87h-98l132 156h78l129 -156h-94zM453 173q0 -87 -49.5 -134.5t-134.5 -47.5q-84 0 -132.5 47t-48.5 135v80h91v-77q0 -46 23.5 -72.5t66.5 -26.5t66.5 26.5t23.5 72.5v386h94v-389z" />
    <glyph glyph-name="K.sc" horiz-adv-x="624" 
d="M113 0v562h93v-253l261 253h122l-283 -274l298 -288h-127l-271 257v-257h-93z" />
    <glyph glyph-name="Kcommaaccent.sc" horiz-adv-x="616" 
d="M113 0v562h93v-253l261 253h122l-283 -274l298 -288h-127l-271 257v-257h-93zM365 -325h-67q35 65 35 115h-52v115h112v-98q0 -68 -28 -132z" />
    <glyph glyph-name="L.sc" horiz-adv-x="557" 
d="M113 0v562h93v-475h304v-87h-397z" />
    <glyph glyph-name="Lacute.sc" horiz-adv-x="557" 
d="M112 630l102 150h110l-110 -150h-102zM113 0v562h93v-475h304v-87h-397z" />
    <glyph glyph-name="Lcommaaccent.sc" horiz-adv-x="557" 
d="M113 0v562h93v-475h304v-87h-397zM345 -325h-67q35 65 35 115h-52v115h112v-98q0 -68 -28 -132z" />
    <glyph glyph-name="Lcaron.sc" horiz-adv-x="557" 
d="M268 427l49 193h87l-56 -193h-80zM113 0v562h93v-475h304v-87h-397z" />
    <glyph glyph-name="M.sc" horiz-adv-x="818" 
d="M113 0v562h141l157 -421l157 421h137v-562h-89v471l-178 -474h-63l-176 469v-466h-86z" />
    <glyph glyph-name="N.sc" horiz-adv-x="705" 
d="M592 562v-566h-72l-317 443v-439h-90v562h108l282 -400v400h89z" />
    <glyph glyph-name="Ntilde.sc" horiz-adv-x="705" 
d="M356 668l-36 22q-23 15 -34 15q-17 0 -17 -24v-56h-73v66q0 94 77 94q8 0 17 -2t15 -3.5t15.5 -6.5t13.5 -7.5t15.5 -9.5t14.5 -9l36 -22q26 -15 34 -15q17 0 17 24v56h73v-66q0 -94 -77 -94q-10 0 -19 1.5t-20.5 7t-15.5 7.5t-19 11.5t-17 10.5zM592 562v-566h-72
l-317 443v-439h-90v562h108l282 -400v400h89z" />
    <glyph glyph-name="Nacute.sc" horiz-adv-x="705" 
d="M310 630l102 150h110l-110 -150h-102zM592 562v-566h-72l-317 443v-439h-90v562h108l282 -400v400h89z" />
    <glyph glyph-name="Ncommaaccent.sc" horiz-adv-x="705" 
d="M592 562v-566h-72l-317 443v-439h-90v562h108l282 -400v400h89zM390 -325h-67q35 65 35 115h-52v115h112v-98q0 -68 -28 -132z" />
    <glyph glyph-name="Ncaron.sc" horiz-adv-x="705" 
d="M188 783h98l74 -87l73 87h94l-129 -156h-78zM592 562v-566h-72l-317 443v-439h-90v562h108l282 -400v400h89z" />
    <glyph glyph-name="O.sc" horiz-adv-x="664" 
d="M332 -9q-116 0 -186.5 80.5t-70.5 209.5q0 128 71 209t186 81q114 0 185.5 -81t71.5 -209q0 -127 -71.5 -208.5t-185.5 -81.5zM332 76q76 0 118.5 58t42.5 147t-43 147t-118 58q-76 0 -119 -58t-43 -147q0 -90 43 -147.5t119 -57.5z" />
    <glyph glyph-name="Ograve.sc" horiz-adv-x="664" 
d="M383 630h-102l-109 150h110zM332 -9q-116 0 -186.5 80.5t-70.5 209.5q0 128 71 209t186 81q114 0 185.5 -81t71.5 -209q0 -127 -71.5 -208.5t-185.5 -81.5zM332 76q76 0 118.5 58t42.5 147t-43 147t-118 58q-76 0 -119 -58t-43 -147q0 -90 43 -147.5t119 -57.5z" />
    <glyph glyph-name="Oacute.sc" horiz-adv-x="664" 
d="M282 630l102 150h110l-110 -150h-102zM332 -9q-116 0 -186.5 80.5t-70.5 209.5q0 128 71 209t186 81q114 0 185.5 -81t71.5 -209q0 -127 -71.5 -208.5t-185.5 -81.5zM332 76q76 0 118.5 58t42.5 147t-43 147t-118 58q-76 0 -119 -58t-43 -147q0 -90 43 -147.5t119 -57.5z
" />
    <glyph glyph-name="Ocircumflex.sc" horiz-adv-x="664" 
d="M406 627l-73 87l-74 -87h-98l132 156h78l129 -156h-94zM332 -9q-116 0 -186.5 80.5t-70.5 209.5q0 128 71 209t186 81q114 0 185.5 -81t71.5 -209q0 -127 -71.5 -208.5t-185.5 -81.5zM332 76q76 0 118.5 58t42.5 147t-43 147t-118 58q-76 0 -119 -58t-43 -147
q0 -90 43 -147.5t119 -57.5z" />
    <glyph glyph-name="Otilde.sc" horiz-adv-x="664" 
d="M328 668l-36 22q-23 15 -34 15q-17 0 -17 -24v-56h-73v66q0 94 77 94q8 0 17 -2t15 -3.5t15.5 -6.5t13.5 -7.5t15.5 -9.5t14.5 -9l36 -22q26 -15 34 -15q17 0 17 24v56h73v-66q0 -94 -77 -94q-10 0 -19 1.5t-20.5 7t-15.5 7.5t-19 11.5t-17 10.5zM332 -9
q-116 0 -186.5 80.5t-70.5 209.5q0 128 71 209t186 81q114 0 185.5 -81t71.5 -209q0 -127 -71.5 -208.5t-185.5 -81.5zM332 76q76 0 118.5 58t42.5 147t-43 147t-118 58q-76 0 -119 -58t-43 -147q0 -90 43 -147.5t119 -57.5z" />
    <glyph glyph-name="Odieresis.sc" horiz-adv-x="664" 
d="M189 630v139h92v-139h-92zM383 630v139h92v-139h-92zM332 -9q-116 0 -186.5 80.5t-70.5 209.5q0 128 71 209t186 81q114 0 185.5 -81t71.5 -209q0 -127 -71.5 -208.5t-185.5 -81.5zM332 76q76 0 118.5 58t42.5 147t-43 147t-118 58q-76 0 -119 -58t-43 -147
q0 -90 43 -147.5t119 -57.5z" />
    <glyph glyph-name="Omacron.sc" horiz-adv-x="664" 
d="M490 665h-316v78h316v-78zM332 -9q-116 0 -186.5 80.5t-70.5 209.5q0 128 71 209t186 81q114 0 185.5 -81t71.5 -209q0 -127 -71.5 -208.5t-185.5 -81.5zM332 76q76 0 118.5 58t42.5 147t-43 147t-118 58q-76 0 -119 -58t-43 -147q0 -90 43 -147.5t119 -57.5z" />
    <glyph glyph-name="Obreve.sc" horiz-adv-x="664" 
d="M332 695q32 0 48.5 20.5t16.5 50.5v13h76v-15q0 -62 -37 -101.5t-104 -39.5t-104 39.5t-37 101.5v15h76v-13q0 -30 16.5 -50.5t48.5 -20.5zM332 -9q-116 0 -186.5 80.5t-70.5 209.5q0 128 71 209t186 81q114 0 185.5 -81t71.5 -209q0 -127 -71.5 -208.5t-185.5 -81.5z
M332 76q76 0 118.5 58t42.5 147t-43 147t-118 58q-76 0 -119 -58t-43 -147q0 -90 43 -147.5t119 -57.5z" />
    <glyph glyph-name="Ohungarumlaut.sc" horiz-adv-x="664" 
d="M373 630l78 150h92l-85 -150h-85zM199 630l78 150h92l-85 -150h-85zM332 -9q-116 0 -186.5 80.5t-70.5 209.5q0 128 71 209t186 81q114 0 185.5 -81t71.5 -209q0 -127 -71.5 -208.5t-185.5 -81.5zM332 76q76 0 118.5 58t42.5 147t-43 147t-118 58q-76 0 -119 -58
t-43 -147q0 -90 43 -147.5t119 -57.5z" />
    <glyph glyph-name="P.sc" horiz-adv-x="627" 
d="M113 0v562h260q93 0 142 -42.5t49 -121.5q0 -77 -49.5 -121.5t-141.5 -44.5h-167v-232h-93zM370 478h-164v-161h164q48 0 73.5 22t25.5 58q0 81 -99 81z" />
    <glyph glyph-name="Q.sc" horiz-adv-x="664" 
d="M456 -120l-110 112h-14q-116 0 -186.5 80.5t-70.5 208.5t71 209t186 81q114 0 185.5 -81t71.5 -209q0 -92 -38.5 -161.5t-106.5 -102.5l130 -137h-118zM332 76q75 0 118 58t43 147t-43 147t-118 58q-76 0 -119 -58t-43 -147q0 -90 43 -147.5t119 -57.5z" />
    <glyph glyph-name="R.sc" 
d="M113 0v562h263q90 0 139 -41t49 -119q0 -121 -116 -151l144 -251h-100l-141 243h-145v-243h-93zM372 478h-166v-153h166q96 0 96 77q0 76 -96 76z" />
    <glyph glyph-name="Racute.sc" 
d="M268 630l102 150h110l-110 -150h-102zM113 0v562h263q90 0 139 -41t49 -119q0 -121 -116 -151l144 -251h-100l-141 243h-145v-243h-93zM372 478h-166v-153h166q96 0 96 77q0 76 -96 76z" />
    <glyph glyph-name="Rcommaaccent.sc" 
d="M113 0v562h263q90 0 139 -41t49 -119q0 -121 -116 -151l144 -251h-100l-141 243h-145v-243h-93zM372 478h-166v-153h166q96 0 96 77q0 76 -96 76zM367 -325h-67q35 65 35 115h-52v115h112v-98q0 -68 -28 -132z" />
    <glyph glyph-name="Rcaron.sc" 
d="M146 783h98l74 -87l73 87h94l-129 -156h-78zM113 0v562h263q90 0 139 -41t49 -119q0 -121 -116 -151l144 -251h-100l-141 243h-145v-243h-93zM372 478h-166v-153h166q96 0 96 77q0 76 -96 76z" />
    <glyph glyph-name="S.sc" horiz-adv-x="601" 
d="M311 72q56 0 89.5 23t33.5 62q0 38 -26 56.5t-74 26.5q-15 2 -70 10q-87 12 -135.5 50t-48.5 114q0 72 58 115t150 43q52 0 94 -12t68 -31.5t40.5 -37.5t24.5 -37l-86 -32q-50 68 -141 68q-54 0 -84 -20t-30 -54t25.5 -51t71.5 -25q22 -4 70 -10q187 -24 187 -167
q0 -76 -58 -124.5t-159 -48.5q-57 0 -103 13.5t-74 36.5t-44.5 44.5t-25.5 44.5l88 34q49 -91 159 -91z" />
    <glyph glyph-name="Sacute.sc" horiz-adv-x="601" 
d="M243 630l102 150h110l-110 -150h-102zM311 72q56 0 89.5 23t33.5 62q0 38 -26 56.5t-74 26.5q-15 2 -70 10q-87 12 -135.5 50t-48.5 114q0 72 58 115t150 43q52 0 94 -12t68 -31.5t40.5 -37.5t24.5 -37l-86 -32q-50 68 -141 68q-54 0 -84 -20t-30 -54t25.5 -51t71.5 -25
q22 -4 70 -10q187 -24 187 -167q0 -76 -58 -124.5t-159 -48.5q-57 0 -103 13.5t-74 36.5t-44.5 44.5t-25.5 44.5l88 34q49 -91 159 -91z" />
    <glyph glyph-name="Scircumflex.sc" horiz-adv-x="601" 
d="M367 627l-73 87l-74 -87h-98l132 156h78l129 -156h-94zM311 72q56 0 89.5 23t33.5 62q0 38 -26 56.5t-74 26.5q-15 2 -70 10q-87 12 -135.5 50t-48.5 114q0 72 58 115t150 43q52 0 94 -12t68 -31.5t40.5 -37.5t24.5 -37l-86 -32q-50 68 -141 68q-54 0 -84 -20t-30 -54
t25.5 -51t71.5 -25q22 -4 70 -10q187 -24 187 -167q0 -76 -58 -124.5t-159 -48.5q-57 0 -103 13.5t-74 36.5t-44.5 44.5t-25.5 44.5l88 34q49 -91 159 -91z" />
    <glyph glyph-name="Scedilla.sc" horiz-adv-x="601" 
d="M311 72q56 0 89.5 23t33.5 62q0 38 -26 56.5t-74 26.5q-15 2 -70 10q-87 12 -135.5 50t-48.5 114q0 72 58 115t150 43q52 0 94 -12t68 -31.5t40.5 -37.5t24.5 -37l-86 -32q-50 68 -141 68q-54 0 -84 -20t-30 -54t25.5 -51t71.5 -25q22 -4 70 -10q187 -24 187 -167
q0 -76 -58 -124.5t-159 -48.5h-5v-45q54 0 81.5 -27.5t27.5 -73.5q0 -49 -29 -79t-88 -30h-95v74h84q41 0 41 35q0 34 -41 34h-61v121q-122 29 -162 130l88 34q49 -91 159 -91z" />
    <glyph glyph-name="Scaron.sc" horiz-adv-x="601" 
d="M121 783h98l74 -87l73 87h94l-129 -156h-78zM311 72q56 0 89.5 23t33.5 62q0 38 -26 56.5t-74 26.5q-15 2 -70 10q-87 12 -135.5 50t-48.5 114q0 72 58 115t150 43q52 0 94 -12t68 -31.5t40.5 -37.5t24.5 -37l-86 -32q-50 68 -141 68q-54 0 -84 -20t-30 -54t25.5 -51
t71.5 -25q22 -4 70 -10q187 -24 187 -167q0 -76 -58 -124.5t-159 -48.5q-57 0 -103 13.5t-74 36.5t-44.5 44.5t-25.5 44.5l88 34q49 -91 159 -91z" />
    <glyph glyph-name="Scommaaccent.sc" horiz-adv-x="601" 
d="M311 72q56 0 89.5 23t33.5 62q0 38 -26 56.5t-74 26.5q-15 2 -70 10q-87 12 -135.5 50t-48.5 114q0 72 58 115t150 43q52 0 94 -12t68 -31.5t40.5 -37.5t24.5 -37l-86 -32q-50 68 -141 68q-54 0 -84 -20t-30 -54t25.5 -51t71.5 -25q22 -4 70 -10q187 -24 187 -167
q0 -76 -58 -124.5t-159 -48.5q-57 0 -103 13.5t-74 36.5t-44.5 44.5t-25.5 44.5l88 34q49 -91 159 -91zM343 -325h-67q35 65 35 115h-52v115h112v-98q0 -68 -28 -132z" />
    <glyph glyph-name="T.sc" horiz-adv-x="606" 
d="M257 0v477h-210v85h512v-85h-209v-477h-93z" />
    <glyph glyph-name="Tcommaaccent.sc" horiz-adv-x="606" 
d="M257 0v477h-210v85h512v-85h-209v-477h-93zM333 -325h-67q35 65 35 115h-52v115h112v-98q0 -68 -28 -132z" />
    <glyph glyph-name="Tcaron.sc" horiz-adv-x="606" 
d="M131 783h98l74 -87l73 87h94l-129 -156h-78zM257 0v477h-210v85h512v-85h-209v-477h-93z" />
    <glyph glyph-name="uni021A.sc" horiz-adv-x="606" 
d="M257 0v477h-210v85h512v-85h-209v-477h-93zM333 -325h-67q35 65 35 115h-52v115h112v-98q0 -68 -28 -132z" />
    <glyph glyph-name="U.sc" horiz-adv-x="691" 
d="M488 226v336h93v-343q0 -98 -62 -163.5t-173 -65.5q-115 0 -175.5 64t-60.5 165v343h93v-336q0 -67 37 -107.5t106 -40.5q66 0 104 41t38 107z" />
    <glyph glyph-name="Ugrave.sc" horiz-adv-x="691" 
d="M404 630h-102l-109 150h110zM488 226v336h93v-343q0 -98 -62 -163.5t-173 -65.5q-115 0 -175.5 64t-60.5 165v343h93v-336q0 -67 37 -107.5t106 -40.5q66 0 104 41t38 107z" />
    <glyph glyph-name="Uacute.sc" horiz-adv-x="691" 
d="M287 630l102 150h110l-110 -150h-102zM488 226v336h93v-343q0 -98 -62 -163.5t-173 -65.5q-115 0 -175.5 64t-60.5 165v343h93v-336q0 -67 37 -107.5t106 -40.5q66 0 104 41t38 107z" />
    <glyph glyph-name="Ucircumflex.sc" horiz-adv-x="691" 
d="M420 627l-73 87l-74 -87h-98l132 156h78l129 -156h-94zM488 226v336h93v-343q0 -98 -62 -163.5t-173 -65.5q-115 0 -175.5 64t-60.5 165v343h93v-336q0 -67 37 -107.5t106 -40.5q66 0 104 41t38 107z" />
    <glyph glyph-name="Udieresis.sc" horiz-adv-x="691" 
d="M203 630v139h92v-139h-92zM397 630v139h92v-139h-92zM488 226v336h93v-343q0 -98 -62 -163.5t-173 -65.5q-115 0 -175.5 64t-60.5 165v343h93v-336q0 -67 37 -107.5t106 -40.5q66 0 104 41t38 107z" />
    <glyph glyph-name="Utilde.sc" horiz-adv-x="691" 
d="M342 668l-36 22q-23 15 -34 15q-17 0 -17 -24v-56h-73v66q0 94 77 94q8 0 17 -2t15 -3.5t15.5 -6.5t13.5 -7.5t15.5 -9.5t14.5 -9l36 -22q26 -15 34 -15q17 0 17 24v56h73v-66q0 -94 -77 -94q-10 0 -19 1.5t-20.5 7t-15.5 7.5t-19 11.5t-17 10.5zM488 226v336h93v-343
q0 -98 -62 -163.5t-173 -65.5q-115 0 -175.5 64t-60.5 165v343h93v-336q0 -67 37 -107.5t106 -40.5q66 0 104 41t38 107z" />
    <glyph glyph-name="Umacron.sc" horiz-adv-x="691" 
d="M504 665h-316v78h316v-78zM488 226v336h93v-343q0 -98 -62 -163.5t-173 -65.5q-115 0 -175.5 64t-60.5 165v343h93v-336q0 -67 37 -107.5t106 -40.5q66 0 104 41t38 107z" />
    <glyph glyph-name="Ubreve.sc" horiz-adv-x="691" 
d="M346 695q32 0 48.5 20.5t16.5 50.5v13h76v-15q0 -62 -37 -101.5t-104 -39.5t-104 39.5t-37 101.5v15h76v-13q0 -30 16.5 -50.5t48.5 -20.5zM488 226v336h93v-343q0 -98 -62 -163.5t-173 -65.5q-115 0 -175.5 64t-60.5 165v343h93v-336q0 -67 37 -107.5t106 -40.5
q66 0 104 41t38 107z" />
    <glyph glyph-name="Uring.sc" horiz-adv-x="691" 
d="M346 620q-55 0 -91.5 36t-36.5 89q0 54 36.5 90.5t91.5 36.5t91.5 -36.5t36.5 -90.5q0 -53 -36.5 -89t-91.5 -36zM346 681q27 0 44.5 18.5t17.5 45.5q0 28 -17 46t-45 18t-45 -18t-17 -46q0 -27 17.5 -45.5t44.5 -18.5zM488 226v336h93v-343q0 -98 -62 -163.5t-173 -65.5
q-115 0 -175.5 64t-60.5 165v343h93v-336q0 -67 37 -107.5t106 -40.5q66 0 104 41t38 107z" />
    <glyph glyph-name="Uhungarumlaut.sc" horiz-adv-x="691" 
d="M385 630l78 150h92l-85 -150h-85zM211 630l78 150h92l-85 -150h-85zM488 226v336h93v-343q0 -98 -62 -163.5t-173 -65.5q-115 0 -175.5 64t-60.5 165v343h93v-336q0 -67 37 -107.5t106 -40.5q66 0 104 41t38 107z" />
    <glyph glyph-name="Uogonek.sc" horiz-adv-x="691" 
d="M481 12q-35 -31 -51 -46.5t-29.5 -34.5t-13.5 -33q0 -30 39 -30h67v-82h-72q-129 0 -129 94q0 32 22 57.5t62 53.5q-10 -1 -30 -1q-115 0 -175.5 64t-60.5 165v343h93v-336q0 -67 37 -107.5t106 -40.5q66 0 104 41t38 107v336h93v-343q0 -117 -100 -207z" />
    <glyph glyph-name="V.sc" horiz-adv-x="618" 
d="M265 -2l-224 564h103l169 -442l168 442h96l-219 -564h-93z" />
    <glyph glyph-name="W.sc" horiz-adv-x="865" 
d="M479 565l127 -420l120 417h88l-165 -565h-85l-130 420l-131 -420h-80l-172 565h98l121 -412l125 415h84z" />
    <glyph glyph-name="Wcircumflex.sc" horiz-adv-x="865" 
d="M508 627l-73 87l-74 -87h-98l132 156h78l129 -156h-94zM479 565l127 -420l120 417h88l-165 -565h-85l-130 420l-131 -420h-80l-172 565h98l121 -412l125 415h84z" />
    <glyph glyph-name="Wgrave.sc" horiz-adv-x="865" 
d="M485 630h-102l-109 150h110zM479 565l127 -420l120 417h88l-165 -565h-85l-130 420l-131 -420h-80l-172 565h98l121 -412l125 415h84z" />
    <glyph glyph-name="Wacute.sc" horiz-adv-x="865" 
d="M384 630l102 150h110l-110 -150h-102zM479 565l127 -420l120 417h88l-165 -565h-85l-130 420l-131 -420h-80l-172 565h98l121 -412l125 415h84z" />
    <glyph glyph-name="Wdieresis.sc" horiz-adv-x="865" 
d="M291 630v139h92v-139h-92zM485 630v139h92v-139h-92zM479 565l127 -420l120 417h88l-165 -565h-85l-130 420l-131 -420h-80l-172 565h98l121 -412l125 415h84z" />
    <glyph glyph-name="X.sc" horiz-adv-x="661" 
d="M152 0h-111l232 292l-214 270h121l152 -194l154 194h112l-210 -265l232 -297h-116l-176 222z" />
    <glyph glyph-name="Y.sc" horiz-adv-x="585" 
d="M248 227l-222 335h115l157 -241l157 241h104l-216 -336v-226h-95v227z" />
    <glyph glyph-name="Yacute.sc" horiz-adv-x="585" 
d="M239 630l102 150h110l-110 -150h-102zM248 227l-222 335h115l157 -241l157 241h104l-216 -336v-226h-95v227z" />
    <glyph glyph-name="Ycircumflex.sc" horiz-adv-x="585" 
d="M372 627l-73 87l-74 -87h-98l132 156h78l129 -156h-94zM248 227l-222 335h115l157 -241l157 241h104l-216 -336v-226h-95v227z" />
    <glyph glyph-name="Ydieresis.sc" horiz-adv-x="585" 
d="M155 630v139h92v-139h-92zM349 630v139h92v-139h-92zM248 227l-222 335h115l157 -241l157 241h104l-216 -336v-226h-95v227z" />
    <glyph glyph-name="Ygrave.sc" horiz-adv-x="585" 
d="M357 630h-102l-109 150h110zM248 227l-222 335h115l157 -241l157 241h104l-216 -336v-226h-95v227z" />
    <glyph glyph-name="Z.sc" horiz-adv-x="614" 
d="M67 0v54l320 424h-313v84h450v-54l-321 -422h354v-86h-490z" />
    <glyph glyph-name="Zacute.sc" horiz-adv-x="614" 
d="M237 630l102 150h110l-110 -150h-102zM67 0v54l320 424h-313v84h450v-54l-321 -422h354v-86h-490z" />
    <glyph glyph-name="Zdotaccent.sc" horiz-adv-x="614" 
d="M247 630v143h94v-143h-94zM67 0v54l320 424h-313v84h450v-54l-321 -422h354v-86h-490z" />
    <glyph glyph-name="Zcaron.sc" horiz-adv-x="614" 
d="M122 783h98l74 -87l73 87h94l-129 -156h-78zM67 0v54l320 424h-313v84h450v-54l-321 -422h354v-86h-490z" />
    <glyph glyph-name="AE.sc" horiz-adv-x="864" 
d="M11 0l341 562h427v-83h-283v-140h224v-84h-224v-171h311v-84h-404v137h-206l-82 -137h-104zM245 217h158v265z" />
    <glyph glyph-name="AEacute.sc" horiz-adv-x="864" 
d="M515 630l102 150h110l-110 -150h-102zM11 0l341 562h427v-83h-283v-140h224v-84h-224v-171h311v-84h-404v137h-206l-82 -137h-104zM245 217h158v265z" />
    <glyph glyph-name="Eth.sc" horiz-adv-x="667" 
d="M113 0v242h-81v82h81v238h192q133 0 211 -75t78 -206q0 -129 -78 -205t-211 -76h-192zM366 242h-160v-158h99q90 0 142 53t52 144q0 93 -51.5 145t-142.5 52h-99v-154h160v-82z" />
    <glyph glyph-name="Oslash.sc" horiz-adv-x="664" 
d="M62 0l70 90q-57 75 -57 191q0 128 71 209t186 81q80 0 144 -44l27 35h98l-70 -89q58 -78 58 -192q0 -127 -71.5 -208.5t-185.5 -81.5q-83 0 -146 44l-28 -35h-96zM168 281q0 -69 23 -118l231 298q-37 26 -90 26q-76 0 -120 -58.5t-44 -147.5zM332 75q76 0 119.5 58
t43.5 148q0 69 -23 118l-233 -296q39 -28 93 -28z" />
    <glyph glyph-name="Oslashacute.sc" horiz-adv-x="664" 
d="M282 630l102 150h110l-110 -150h-102zM62 0l70 90q-57 75 -57 191q0 128 71 209t186 81q80 0 144 -44l27 35h98l-70 -89q58 -78 58 -192q0 -127 -71.5 -208.5t-185.5 -81.5q-83 0 -146 44l-28 -35h-96zM168 281q0 -69 23 -118l231 298q-37 26 -90 26q-76 0 -120 -58.5
t-44 -147.5zM332 75q76 0 119.5 58t43.5 148q0 69 -23 118l-233 -296q39 -28 93 -28z" />
    <glyph glyph-name="Thorn.sc" horiz-adv-x="627" 
d="M113 0v562h93v-111h170q92 0 140 -42t48 -120q0 -77 -48.5 -120.5t-140.5 -43.5h-169v-125h-93zM374 366h-168v-156h168q46 0 70 21t24 57q0 78 -94 78z" />
    <glyph glyph-name="Dcroat.sc" horiz-adv-x="667" 
d="M113 0v242h-81v82h81v238h192q133 0 211 -75t78 -206q0 -129 -78 -205t-211 -76h-192zM366 242h-160v-158h99q90 0 142 53t52 144q0 93 -51.5 145t-142.5 52h-99v-154h160v-82z" />
    <glyph glyph-name="Hbar.sc" horiz-adv-x="702" 
d="M113 0v407h-74v68h74v87h93v-87h290v87h93v-87h74v-68h-74v-407h-93v240h-290v-240h-93zM206 325h290v82h-290v-82z" />
    <glyph glyph-name="IJ.sc" horiz-adv-x="884" 
d="M114 0v562h93v-562h-93zM774 173q0 -87 -49.5 -134.5t-134.5 -47.5q-84 0 -132.5 47t-48.5 135v80h91v-77q0 -46 23.5 -72.5t66.5 -26.5t66.5 26.5t23.5 72.5v386h94v-389z" />
    <glyph glyph-name="Ldot.sc" horiz-adv-x="582" 
d="M113 0v562h93v-475h304v-87h-397zM393 256v142h116v-142h-116z" />
    <glyph glyph-name="Lslash.sc" horiz-adv-x="557" 
d="M113 0v178l-81 -43v81l81 43v303h93v-253l191 102v-84l-191 -100v-140h304v-87h-397z" />
    <glyph glyph-name="Eng.sc" horiz-adv-x="707" 
d="M507 -23q0 36 -41 93l-263 371v-441h-90v562h110l282 -401v401h89v-588q0 -140 -138 -140h-78v78h54q75 0 75 65z" />
    <glyph glyph-name="OE.sc" horiz-adv-x="878" 
d="M360 0q-130 0 -208.5 77t-78.5 204q0 126 79 203.5t208 77.5h433v-83h-283v-140h224v-84h-224v-171h311v-84h-461zM361 84h56v394h-56q-89 0 -141 -55t-52 -142t52 -142t141 -55z" />
    <glyph glyph-name="Tbar.sc" horiz-adv-x="606" 
d="M257 0v254h-141v78h141v145h-210v85h512v-85h-209v-145h141v-78h-141v-254h-93z" />
    <glyph glyph-name="uni018F.sc" horiz-adv-x="664" 
d="M321 485q-49 0 -84 -25.5t-54 -66.5l-86 32q26 63 81 104.5t143 41.5q118 0 193 -78.5t75 -211.5q0 -127 -71.5 -208.5t-185.5 -81.5q-117 0 -187 74.5t-70 202.5q0 18 3 44h414q-5 76 -51.5 124.5t-119.5 48.5zM332 76q69 0 109.5 41t48.5 114h-318q9 -74 50.5 -114.5
t109.5 -40.5z" />
    <glyph glyph-name="uni0402.sc" horiz-adv-x="790" 
d="M245 0v477h-198v85h512v-85h-221v-160q50 14 121 14q115 0 173 -52t58 -149q0 -80 -53.5 -137.5t-135.5 -57.5q-35 0 -73 13l27 75q18 -9 45 -9q45 0 69.5 32.5t24.5 82.5q0 61 -33.5 89.5t-101.5 28.5q-31 0 -61.5 -3.5t-45.5 -7.5l-14 -3v-233h-93z" />
    <glyph glyph-name="uni0404.sc" horiz-adv-x="619" 
d="M324 77q33 0 60 11t42.5 28.5t23 29.5t12.5 24l84 -30q-5 -19 -18 -40t-37.5 -48t-68 -44t-98.5 -17q-112 0 -180.5 82t-68.5 208t68.5 208t180.5 82q55 0 98.5 -16t68 -41t37.5 -46.5t19 -42.5l-86 -32q-8 19 -20 36.5t-44 36.5t-73 19q-65 0 -104.5 -46.5t-46.5 -113.5
h198v-85h-198q6 -69 45.5 -116t105.5 -47z" />
    <glyph glyph-name="uni0405.sc" horiz-adv-x="601" 
d="M311 72q56 0 89.5 23t33.5 62q0 38 -26 56.5t-74 26.5q-15 2 -70 10q-87 12 -135.5 50t-48.5 114q0 72 58 115t150 43q52 0 94 -12t68 -31.5t40.5 -37.5t24.5 -37l-86 -32q-50 68 -141 68q-54 0 -84 -20t-30 -54t25.5 -51t71.5 -25q22 -4 70 -10q187 -24 187 -167
q0 -76 -58 -124.5t-159 -48.5q-57 0 -103 13.5t-74 36.5t-44.5 44.5t-25.5 44.5l88 34q49 -91 159 -91z" />
    <glyph glyph-name="uni0406.sc" horiz-adv-x="321" 
d="M114 0v562h93v-562h-93z" />
    <glyph glyph-name="uni0407.sc" horiz-adv-x="320" 
d="M17 630v139h92v-139h-92zM211 630v139h92v-139h-92zM114 0v562h93v-562h-93z" />
    <glyph glyph-name="uni0408.sc" horiz-adv-x="568" 
d="M453 173q0 -87 -49.5 -134.5t-134.5 -47.5q-84 0 -132.5 47t-48.5 135v80h91v-77q0 -46 23.5 -72.5t66.5 -26.5t66.5 26.5t23.5 72.5v386h94v-389z" />
    <glyph glyph-name="uni0409.sc" horiz-adv-x="945" 
d="M133 217l36 345h360v-196h154q95 0 147 -49.5t52 -134.5q0 -87 -51.5 -134.5t-147.5 -47.5h-247v477h-189l-28 -270q-12 -116 -46.5 -165t-115.5 -49h-17l-10 89h12q51 0 67 25t24 110zM680 281h-151v-197h151q53 0 80 26t27 73q0 45 -27.5 71.5t-79.5 26.5z" />
    <glyph glyph-name="uni040A.sc" horiz-adv-x="995" 
d="M113 0v562h93v-217h280v217h93v-217h154q95 0 147 -46.5t52 -126.5q0 -83 -51.5 -127.5t-147.5 -44.5h-247v260h-280v-260h-93zM730 260h-151v-176h151q53 0 80 23t27 66q0 40 -27.5 63.5t-79.5 23.5z" />
    <glyph glyph-name="uni040B.sc" horiz-adv-x="777" 
d="M245 0v477h-198v85h512v-85h-221v-160q50 14 128 14q107 0 159 -53t52 -163v-115h-93v114q0 70 -29.5 101.5t-88.5 31.5q-34 0 -66 -3.5t-47 -7.5l-15 -3v-233h-93z" />
    <glyph glyph-name="uni040F.sc" horiz-adv-x="692" 
d="M113 562h93v-477h280v477h93v-562h-192v-161h-83v161h-191v562z" />
    <glyph glyph-name="uni0410.sc" horiz-adv-x="627" 
d="M490 0l-50 124h-258l-50 -124h-93l230 565h90l229 -565h-98zM215 206h192l-96 240z" />
    <glyph glyph-name="uni04D0.sc" horiz-adv-x="627" 
d="M313 695q32 0 48.5 20.5t16.5 50.5v13l76 -10v-5q0 -62 -37 -101.5t-104 -39.5t-104 39.5t-37 101.5v5l76 10v-13q0 -30 16.5 -50.5t48.5 -20.5zM490 0l-50 124h-258l-50 -124h-93l230 565h90l229 -565h-98zM215 206h192l-96 240z" />
    <glyph glyph-name="uni0411.sc" horiz-adv-x="634" 
d="M360 346q95 0 147 -46.5t52 -127.5q0 -83 -51.5 -127.5t-147.5 -44.5h-247v562h406v-84h-313v-132h154zM357 261h-151v-177h151q53 0 80 23t27 66q0 40 -27.5 64t-79.5 24z" />
    <glyph glyph-name="uni0412.sc" horiz-adv-x="649" 
d="M113 0v562h281q81 0 125 -40.5t44 -110.5q0 -43 -26 -74t-62 -42q43 -11 72 -46.5t29 -87.5q0 -75 -50 -118t-146 -43h-267zM385 480h-180v-150h181q39 0 60.5 19.5t21.5 55.5q0 75 -83 75zM372 249h-167v-167h167q109 0 109 84q0 83 -109 83z" />
    <glyph glyph-name="uni0413.sc" horiz-adv-x="589" 
d="M113 0v562h436v-84h-343v-478h-93z" />
    <glyph glyph-name="uni0403.sc" horiz-adv-x="589" 
d="M273 630l102 150h110l-110 -150h-102zM113 0v562h436v-84h-343v-478h-93z" />
    <glyph glyph-name="uni0414.sc" horiz-adv-x="663" 
d="M160 562h378v-477h100v-246h-83v161h-462v-161h-83v246h61q45 53 64 237zM445 85v392h-207l-17 -161q-18 -168 -53 -231h277z" />
    <glyph glyph-name="uni0415.sc" horiz-adv-x="612" 
d="M113 0v562h413v-83h-321v-140h263v-84h-263v-171h350v-84h-442z" />
    <glyph glyph-name="uni0401.sc" horiz-adv-x="612" 
d="M174 630v139h92v-139h-92zM368 630v139h92v-139h-92zM113 0v562h413v-83h-321v-140h263v-84h-263v-171h350v-84h-442z" />
    <glyph glyph-name="uni04D6.sc" horiz-adv-x="612" 
d="M321 695q32 0 48.5 20.5t16.5 50.5v13l76 -10v-5q0 -62 -37 -101.5t-104 -39.5t-104 39.5t-37 101.5v5l76 10v-13q0 -30 16.5 -50.5t48.5 -20.5zM113 0v562h413v-83h-321v-140h263v-84h-263v-171h350v-84h-442z" />
    <glyph glyph-name="uni0416.sc" horiz-adv-x="885" 
d="M25 0l278 282l-270 280h120l241 -251v251h93v-251l241 251h117l-266 -276l281 -286h-122l-251 256v-256h-93v256l-251 -256h-118z" />
    <glyph glyph-name="uni04C1.sc" horiz-adv-x="885" 
d="M440 695q32 0 48.5 20.5t16.5 50.5v13l76 -10v-5q0 -62 -37 -101.5t-104 -39.5t-104 39.5t-37 101.5v5l76 10v-13q0 -30 16.5 -50.5t48.5 -20.5zM25 0l278 282l-270 280h120l241 -251v251h93v-251l241 251h117l-266 -276l281 -286h-122l-251 256v-256h-93v256l-251 -256
h-118z" />
    <glyph glyph-name="uni0417.sc" horiz-adv-x="623" 
d="M315 -9q-101 0 -161.5 45t-80.5 104l84 30q11 -33 50.5 -63t107.5 -30q67 0 102.5 25t35.5 67q0 80 -109 80h-66v81h64q98 0 98 75q0 80 -124 80q-101 0 -143 -92l-83 31q21 64 78.5 105.5t147.5 41.5q103 0 161 -43t58 -117q0 -43 -24.5 -74.5t-58.5 -42.5
q41 -13 68.5 -46t27.5 -79q0 -80 -60 -129t-173 -49z" />
    <glyph glyph-name="uni0418.sc" horiz-adv-x="712" 
d="M113 0v562h93v-428l300 428h93v-562h-93v428l-300 -428h-93z" />
    <glyph glyph-name="uni0419.sc" horiz-adv-x="712" 
d="M356 695q32 0 48.5 20.5t16.5 50.5v13l76 -10v-5q0 -62 -37 -101.5t-104 -39.5t-104 39.5t-37 101.5v5l76 10v-13q0 -30 16.5 -50.5t48.5 -20.5zM113 0v562h93v-428l300 428h93v-562h-93v428l-300 -428h-93z" />
    <glyph glyph-name="uni04E2.sc" horiz-adv-x="712" 
d="M514 665h-316v78h316v-78zM113 0v562h93v-428l300 428h93v-562h-93v428l-300 -428h-93z" />
    <glyph glyph-name="uni041A.sc" horiz-adv-x="624" 
d="M113 0v562h93v-253l261 253h122l-283 -274l298 -288h-127l-271 257v-257h-93z" />
    <glyph glyph-name="uni040C.sc" horiz-adv-x="624" 
d="M271 630l102 150h110l-110 -150h-102zM113 0v562h93v-253l261 253h122l-283 -274l298 -288h-127l-271 257v-257h-93z" />
    <glyph glyph-name="uni041B.sc" horiz-adv-x="662" 
d="M133 217l36 345h380v-562h-93v477h-209l-28 -270q-12 -116 -46.5 -165t-115.5 -49h-17l-10 89h12q51 0 67 25t24 110z" />
    <glyph glyph-name="uni041C.sc" horiz-adv-x="818" 
d="M113 0v562h141l157 -421l157 421h137v-562h-89v471l-178 -474h-63l-176 469v-466h-86z" />
    <glyph glyph-name="uni041D.sc" horiz-adv-x="702" 
d="M113 0v562h93v-237h290v237h93v-562h-93v240h-290v-240h-93z" />
    <glyph glyph-name="uni041E.sc" horiz-adv-x="664" 
d="M332 -9q-116 0 -186.5 80.5t-70.5 209.5q0 128 71 209t186 81q114 0 185.5 -81t71.5 -209q0 -127 -71.5 -208.5t-185.5 -81.5zM332 76q76 0 118.5 58t42.5 147t-43 147t-118 58q-76 0 -119 -58t-43 -147q0 -90 43 -147.5t119 -57.5z" />
    <glyph glyph-name="uni04E6.sc" horiz-adv-x="664" 
d="M189 630v139h92v-139h-92zM383 630v139h92v-139h-92zM332 -9q-116 0 -186.5 80.5t-70.5 209.5q0 128 71 209t186 81q114 0 185.5 -81t71.5 -209q0 -127 -71.5 -208.5t-185.5 -81.5zM332 76q76 0 118.5 58t42.5 147t-43 147t-118 58q-76 0 -119 -58t-43 -147
q0 -90 43 -147.5t119 -57.5z" />
    <glyph glyph-name="uni041F.sc" horiz-adv-x="692" 
d="M113 0v562h466v-562h-93v477h-280v-477h-93z" />
    <glyph glyph-name="uni0420.sc" horiz-adv-x="627" 
d="M113 0v562h260q93 0 142 -42.5t49 -121.5q0 -77 -49.5 -121.5t-141.5 -44.5h-167v-232h-93zM370 478h-164v-161h164q48 0 73.5 22t25.5 58q0 81 -99 81z" />
    <glyph glyph-name="uni0421.sc" horiz-adv-x="619" 
d="M324 77q33 0 60 11t42.5 28.5t23 29.5t12.5 24l84 -30q-5 -19 -18 -40t-37.5 -48t-68 -44t-98.5 -17q-112 0 -180.5 82t-68.5 208t68.5 208t180.5 82q55 0 98.5 -16t68 -41t37.5 -46.5t19 -42.5l-86 -32q-8 19 -20 36.5t-44 36.5t-73 19q-72 0 -112 -58t-40 -146
t39.5 -146t112.5 -58z" />
    <glyph glyph-name="uni0422.sc" horiz-adv-x="606" 
d="M257 0v477h-210v85h512v-85h-209v-477h-93z" />
    <glyph glyph-name="uni0423.sc" horiz-adv-x="620" 
d="M71 140v7l93 13v-20q0 -63 50 -63q24 0 38.5 16t37.5 59l-244 410h111l184 -309l155 309h98l-212 -420q-21 -41 -33.5 -62t-32.5 -45.5t-44.5 -34.5t-57.5 -10q-68 0 -105.5 40t-37.5 110z" />
    <glyph glyph-name="uni040E.sc" horiz-adv-x="620" 
d="M340 695q32 0 48.5 20.5t16.5 50.5v13l76 -10v-5q0 -62 -37 -101.5t-104 -39.5t-104 39.5t-37 101.5v5l76 10v-13q0 -30 16.5 -50.5t48.5 -20.5zM71 140v7l93 13v-20q0 -63 50 -63q24 0 38.5 16t37.5 59l-244 410h111l184 -309l155 309h98l-212 -420q-21 -41 -33.5 -62
t-32.5 -45.5t-44.5 -34.5t-57.5 -10q-68 0 -105.5 40t-37.5 110z" />
    <glyph glyph-name="uni04EE.sc" horiz-adv-x="620" 
d="M499 665h-316v78h316v-78zM71 140v7l93 13v-20q0 -63 50 -63q24 0 38.5 16t37.5 59l-244 410h111l184 -309l155 309h98l-212 -420q-21 -41 -33.5 -62t-32.5 -45.5t-44.5 -34.5t-57.5 -10q-68 0 -105.5 40t-37.5 110z" />
    <glyph glyph-name="uni04F2.sc" horiz-adv-x="620" 
d="M366 631l78 150h92l-85 -150h-85zM192 631l78 150h92l-85 -150h-85zM71 140v7l93 13v-20q0 -63 50 -63q24 0 38.5 16t37.5 59l-244 410h111l184 -309l155 309h98l-212 -420q-21 -41 -33.5 -62t-32.5 -45.5t-44.5 -34.5t-57.5 -10q-68 0 -105.5 40t-37.5 110z" />
    <glyph glyph-name="uni0424.sc" horiz-adv-x="875" 
d="M272 95q-101 0 -155 51.5t-54 142.5q0 93 53.5 142.5t154.5 49.5h120v91h93v-91h120q101 0 154.5 -49.5t53.5 -142.5q0 -91 -54 -142.5t-155 -51.5h-119v-105h-93v105h-119zM391 180v216h-118q-114 0 -114 -108q0 -50 29.5 -79t84.5 -29h118zM602 396h-118v-216h118
q56 0 85 29t29 79q0 108 -114 108z" />
    <glyph glyph-name="uni0425.sc" horiz-adv-x="661" 
d="M152 0h-111l232 292l-214 270h121l152 -194l154 194h112l-210 -265l232 -297h-116l-176 222z" />
    <glyph glyph-name="uni0426.sc" horiz-adv-x="704" 
d="M486 85v477h93v-477h100v-246h-83v161h-483v562h93v-477h280z" />
    <glyph glyph-name="uni0427.sc" horiz-adv-x="676" 
d="M470 0v216q-63 -18 -152 -18q-218 0 -218 213v151h93v-151q0 -67 30 -98t95 -31q39 0 77 4.5t57 9.5l18 4v262h93v-562h-93z" />
    <glyph glyph-name="uni0428.sc" horiz-adv-x="985" 
d="M113 562h93v-477h240v477h93v-477h240v477h93v-562h-759v562z" />
    <glyph glyph-name="uni0429.sc" horiz-adv-x="997" 
d="M113 562h93v-477h240v477h93v-477h240v477h93v-477h100v-246h-83v161h-776v562z" />
    <glyph glyph-name="uni042A.sc" horiz-adv-x="713" 
d="M40 478v84h257v-196h154q95 0 147 -49.5t52 -134.5q0 -87 -51.5 -134.5t-147.5 -47.5h-247v478h-164zM448 281h-151v-197h151q53 0 80 26t27 73q0 45 -27.5 71.5t-79.5 26.5z" />
    <glyph glyph-name="uni042B.sc" horiz-adv-x="860" 
d="M360 366q95 0 147 -49.5t52 -134.5q0 -87 -51.5 -134.5t-147.5 -47.5h-247v562h93v-196h154zM654 0v562h93v-562h-93zM357 281h-151v-197h151q53 0 80 26t27 73q0 45 -27.5 71.5t-79.5 26.5z" />
    <glyph glyph-name="uni042C.sc" horiz-adv-x="622" 
d="M360 366q95 0 147 -49.5t52 -134.5q0 -87 -51.5 -134.5t-147.5 -47.5h-247v562h93v-196h154zM357 281h-151v-197h151q53 0 80 26t27 73q0 45 -27.5 71.5t-79.5 26.5z" />
    </font>
</defs>
</svg>
