<?xml version="1.0" standalone="no"?>
<!DOCTYPE svg PUBLIC "-//W3C//DTD SVG 1.1//EN" "http://www.w3.org/Graphics/SVG/1.1/DTD/svg11.dtd" >
<svg xmlns="http://www.w3.org/2000/svg" xmlns:xlink="http://www.w3.org/1999/xlink" version="1.1">
<metadata>
Created by FontForge 20220308 at Mon Jun  5 10:06:09 2023
 By romain pradier
Copyright 2022 Dinamo (Johannes Breyer, Fabian Harb). All rights reserved.
</metadata>
<defs>
<font id="BurberryOracle-Book" horiz-adv-x="640" >
  <font-face 
    font-family="BurberryOracle-Book"
    font-weight="350"
    font-stretch="normal"
    units-per-em="1000"
    panose-1="2 11 5 4 4 2 2 6 2 3"
    ascent="805"
    descent="-195"
    x-height="506"
    cap-height="700"
    bbox="-185 -277 2214 1055"
    underline-thickness="50"
    underline-position="-125"
    unicode-range="U+0020-FB02"
  />
<missing-glyph horiz-adv-x="689" 
d="M95 0v700h499v-700h-499zM176 76h337v548h-337v-548z" />
    <glyph glyph-name="fi" unicode="fi" horiz-adv-x="613" 
d="M114 0v436h-93v70h93v52q0 77 44 116.5t121 39.5q31 0 58 -5v-77q-30 5 -48 5q-41 0 -61.5 -20.5t-20.5 -67.5v-43h135v-70h-135v-436h-93zM430 578v109h108v-109h-108zM439 0v506h91v-506h-91z" />
    <glyph glyph-name="fl" unicode="fl" horiz-adv-x="613" 
d="M114 0v436h-93v70h93v52q0 77 44 116.5t121 39.5q31 0 58 -5v-77q-30 5 -48 5q-41 0 -61.5 -20.5t-20.5 -67.5v-43h135v-70h-135v-436h-93zM439 0v700h91v-700h-91z" />
    <glyph glyph-name="w_w_w.liga" unicode="www" horiz-adv-x="2101" 
d="M172 0l-148 506h98l106 -400l107 400h108l108 -402l113 402h113l114 -403l108 403h108l108 -402l113 402h113l114 -403l108 403h108l108 -399l104 399h94l-147 -506h-102l-114 402l-113 -402h-101l-117 401l-117 -401h-102l-114 402l-113 -402h-101l-117 401l-117 -401
h-102l-114 402l-113 -402h-101z" />
    <glyph glyph-name=".notdef" horiz-adv-x="689" 
d="M95 0v700h499v-700h-499zM176 76h337v548h-337v-548z" />
    <glyph glyph-name=".null" horiz-adv-x="0" 
 />
    <glyph glyph-name="nonmarkingreturn" horiz-adv-x="333" 
 />
    <glyph glyph-name="space" unicode=" " horiz-adv-x="253" 
 />
    <glyph glyph-name="exclam" unicode="!" horiz-adv-x="273" 
d="M112 194l-22 193v313h93v-313l-23 -193h-48zM83 0v114h107v-114h-107z" />
    <glyph glyph-name="quotedbl" unicode="&#x22;" horiz-adv-x="383" 
d="M247 436l-24 150v114h97v-114l-24 -150h-49zM63 586v114h97v-114l-24 -150h-49z" />
    <glyph glyph-name="numbersign" unicode="#" horiz-adv-x="650" 
d="M326 0l37 174h-150l-37 -174h-85l37 174h-87v78h104l42 197h-106v77h122l37 174h85l-37 -174h150l37 174h84l-37 -174h86v-77h-102l-42 -197h104v-78h-121l-37 -174h-84zM230 252h150l42 197h-150z" />
    <glyph glyph-name="dollar" unicode="$" horiz-adv-x="609" 
d="M272 -95v82q-98 12 -161 75t-70 153h96q9 -58 44.5 -96.5t90.5 -49.5v251l-32 8q-185 49 -185 190q0 76 62.5 132t154.5 64v81h79v-84q91 -12 145.5 -65.5t62.5 -130.5h-97q-17 96 -111 115v-237l14 -4q102 -28 149.5 -72t47.5 -123q0 -76 -59 -135.5t-152 -71.5v-82h-79
zM147 527q0 -45 26.5 -68.5t95.5 -42.5l3 -1v219q-58 -6 -91.5 -35t-33.5 -72zM351 68q57 8 88.5 39.5t31.5 77.5q0 49 -27.5 74.5t-92.5 41.5v-233z" />
    <glyph glyph-name="percent" unicode="%" horiz-adv-x="921" 
d="M164 0l501 700h97l-501 -700h-97zM35 502q0 100 45 154.5t117 54.5t117 -54.5t45 -154.5q0 -101 -44 -155t-118 -54q-72 0 -117 54.5t-45 154.5zM112 502q0 -143 85 -143q84 0 84 143t-84 143q-85 0 -85 -143zM562 198q0 100 45 154.5t117 54.5t117 -54.5t45 -154.5
q0 -101 -44 -155t-118 -54q-72 0 -117 54.5t-45 154.5zM639 198q0 -143 85 -143q84 0 84 143t-84 143q-85 0 -85 -143z" />
    <glyph glyph-name="ampersand" unicode="&#x26;" horiz-adv-x="679" 
d="M275 -15q-104 0 -167 51.5t-63 135.5q0 134 183 213q-87 100 -87 179q0 61 50.5 106t125.5 45q76 0 121 -43.5t45 -113.5q0 -114 -130 -187l150 -172q29 72 26 176h82q10 -144 -50 -243l114 -132h-116l-55 64q-88 -79 -229 -79zM140 177q0 -53 39 -83.5t101 -30.5
q109 0 172 61l-177 206q-72 -33 -103.5 -67.5t-31.5 -85.5zM233 567q0 -35 19 -67.5t55 -74.5q93 52 93 130q0 38 -22.5 64.5t-60.5 26.5t-61 -21.5t-23 -57.5z" />
    <glyph glyph-name="quotesingle" unicode="'" horiz-adv-x="223" 
d="M87 436l-24 150v114h97v-114l-24 -150h-49z" />
    <glyph glyph-name="parenleft" unicode="(" horiz-adv-x="307" 
d="M205 -90q-70 84 -113 193.5t-43 221.5t43 221.5t113 193.5h84q-149 -195 -149 -415t149 -415h-84z" />
    <glyph glyph-name="parenright" unicode=")" horiz-adv-x="307" 
d="M102 740q70 -84 113 -193.5t43 -221.5t-43 -221.5t-113 -193.5h-84q149 195 149 415t-149 415h84z" />
    <glyph glyph-name="asterisk" unicode="*" horiz-adv-x="536" 
d="M232 417q0 46 2 70q-40 -26 -60 -37l-85 -50l-35 64l89 52q38 22 57 32q-24 13 -58 32l-88 51l35 65l89 -52q31 -17 57 -35q-3 21 -3 60v106h71v-102q0 -42 -2 -65q17 12 45 27l100 59l37 -63l-93 -55q-29 -16 -53 -27q14 -6 47 -25l99 -58l-37 -63l-96 56q-26 14 -49 30
q2 -24 2 -68v-100h-71v96z" />
    <glyph glyph-name="plus" unicode="+" horiz-adv-x="564" 
d="M239 37v184h-186v83h186v184h87v-184h185v-83h-185v-184h-87z" />
    <glyph glyph-name="comma" unicode="," horiz-adv-x="257" 
d="M62 -150q61 80 64 150h-50v114h107v-81q0 -107 -57 -183h-64z" />
    <glyph glyph-name="hyphen" unicode="-" horiz-adv-x="376" 
d="M57 251v83h262v-83h-262z" />
    <glyph glyph-name="period" unicode="." horiz-adv-x="245" 
d="M69 0v114h107v-114h-107z" />
    <glyph glyph-name="slash" unicode="/" horiz-adv-x="431" 
d="M15 -90l315 810h86l-315 -810h-86z" />
    <glyph glyph-name="zero" unicode="0" 
d="M320 -15q-117 0 -189 93.5t-72 271.5t72 271.5t189 93.5t189 -94t72 -271t-72 -271t-189 -94zM155 350q0 -286 165 -286t165 286t-165 286t-165 -286z" />
    <glyph glyph-name="one" unicode="1" horiz-adv-x="376" 
d="M187 0v492h-168v67q67 1 116 37.5t64 103.5h80v-700h-92z" />
    <glyph glyph-name="two" unicode="2" horiz-adv-x="595" 
d="M43 0q3 109 52.5 183.5t157.5 137.5l47 28q77 46 108 81t31 86q0 54 -37.5 87t-94.5 33q-68 0 -108 -39.5t-40 -106.5h-97q0 104 68.5 164.5t176.5 60.5q100 0 164.5 -58t64.5 -142q0 -71 -40.5 -122.5t-117.5 -96.5l-66 -39q-76 -45 -115.5 -84t-50.5 -86h395v-87h-498z
" />
    <glyph glyph-name="three" unicode="3" horiz-adv-x="591" 
d="M291 -15q-105 0 -170 50.5t-76 134.5h99q8 -45 46.5 -75.5t100.5 -30.5q66 0 108 34t42 96q0 57 -49.5 92.5t-135.5 35.5h-45v77h45q78 0 120 32t42 88q0 51 -35 84t-92 33q-54 0 -89.5 -29t-43.5 -77h-98q10 81 73.5 133t158.5 52q98 0 160 -55t62 -131
q0 -58 -35 -103.5t-92 -64.5q67 -14 108.5 -60.5t41.5 -116.5q0 -79 -66 -139t-180 -60z" />
    <glyph glyph-name="four" unicode="4" horiz-adv-x="613" 
d="M386 0v163h-348v92l342 445h100v-455h90v-82h-90v-163h-94zM130 245h256v334z" />
    <glyph glyph-name="five" unicode="5" horiz-adv-x="584" 
d="M289 -15q-107 0 -169.5 52t-70.5 123h103q30 -93 137 -93q70 0 111 44.5t41 113.5q0 68 -37 111t-103 43q-90 0 -140 -76h-97l50 397h383v-84h-310l-27 -232q19 29 62 50t93 21q104 0 163 -63.5t59 -169.5q0 -103 -69 -170t-179 -67z" />
    <glyph glyph-name="six" unicode="6" horiz-adv-x="615" 
d="M329 -15q-125 0 -198 91t-73 254q0 179 71.5 282t204.5 103q94 0 148 -44.5t67 -110.5h-96q-29 76 -119 76q-63 0 -104.5 -40t-59 -104t-16.5 -150q22 49 72 79t116 30q97 0 158.5 -67t61.5 -166t-65 -166t-168 -67zM174 218q0 -67 42 -110t105 -43q64 0 105 43t41 110
q0 69 -40.5 111.5t-105.5 42.5q-63 0 -105 -43t-42 -111z" />
    <glyph glyph-name="seven" unicode="7" horiz-adv-x="493" 
d="M84 0l287 615h-351v85h443v-90l-277 -610h-102z" />
    <glyph glyph-name="eight" unicode="8" horiz-adv-x="614" 
d="M307 -15q-111 0 -181.5 59t-70.5 151q0 68 37.5 116t102.5 65q-55 18 -85 59.5t-30 99.5q0 79 64 129.5t163 50.5t163 -50.5t64 -129.5q0 -56 -30 -97.5t-83 -61.5q63 -17 100.5 -65t37.5 -116q0 -92 -71 -151t-181 -59zM150 201q0 -60 44 -98t113 -38t112.5 37.5
t43.5 98.5q0 60 -42.5 97t-113.5 37q-72 0 -114.5 -37t-42.5 -97zM175 526q0 -50 37 -82t95 -32t95 32t37 82q0 49 -36.5 79t-95.5 30t-95.5 -30t-36.5 -79z" />
    <glyph glyph-name="nine" unicode="9" horiz-adv-x="616" 
d="M284 -15q-97 0 -151.5 44.5t-67.5 110.5h96q33 -76 123 -76q91 0 135 81t43 213q-23 -49 -72 -79t-112 -30q-99 0 -161.5 65.5t-62.5 165.5t65.5 167.5t170.5 67.5q122 0 195 -91.5t73 -253.5q0 -179 -70.5 -282t-203.5 -103zM148 482q0 -68 41 -111t106 -43
q63 0 105 43.5t42 110.5t-42 110t-105 43q-65 0 -106 -43t-41 -110z" />
    <glyph glyph-name="colon" unicode=":" horiz-adv-x="245" 
d="M69 392v114h107v-114h-107zM69 0v114h107v-114h-107z" />
    <glyph glyph-name="semicolon" unicode=";" horiz-adv-x="265" 
d="M82 392v114h107v-114h-107zM68 -150q61 80 64 150h-50v114h107v-81q0 -107 -57 -183h-64z" />
    <glyph glyph-name="less" unicode="&#x3c;" horiz-adv-x="569" 
d="M502 37l-440 164v108l440 162v-88l-357 -127l357 -130v-89z" />
    <glyph glyph-name="equal" unicode="=" horiz-adv-x="571" 
d="M63 311v83h445v-83h-445zM63 123v83h445v-83h-445z" />
    <glyph glyph-name="greater" unicode="&#x3e;" horiz-adv-x="570" 
d="M68 471l440 -164v-108l-440 -162v88l357 127l-357 130v89z" />
    <glyph glyph-name="question" unicode="?" horiz-adv-x="525" 
d="M197 194q0 77 24.5 120t81.5 84l23 17q37 27 53 52.5t16 62.5q0 46 -34.5 76.5t-93.5 30.5q-67 0 -106 -39.5t-40 -112.5h-97q1 108 67.5 169t175.5 61q100 0 163.5 -53t63.5 -135q0 -51 -25 -89.5t-78 -76.5l-28 -20q-43 -31 -59.5 -61t-17.5 -86h-89zM188 0v114h107
v-114h-107z" />
    <glyph glyph-name="at" unicode="@" horiz-adv-x="877" 
d="M447 -95q-180 0 -290 110t-110 289q0 175 115 290.5t288 115.5q163 0 273 -99t110 -255q0 -115 -59 -184t-136 -69q-79 0 -104 65q-19 -32 -54.5 -51t-76.5 -19q-75 0 -120.5 52.5t-45.5 138.5q0 97 52 160t137 63q43 0 76.5 -21t48.5 -56l9 62h83l-42 -248
q-14 -88 44 -88q41 0 73 52.5t32 135.5q0 135 -81.5 212t-218.5 77q-142 0 -229 -91t-87 -237q0 -149 88 -240.5t230 -91.5q68 0 123.5 21.5t85.5 58.5h102q-47 -71 -127.5 -112t-188.5 -41zM326 289q0 -58 23.5 -90.5t66.5 -32.5q49 0 78 41t29 112q0 59 -23 92t-64 33
q-52 0 -81 -41t-29 -114z" />
    <glyph glyph-name="A" unicode="A" horiz-adv-x="660" 
d="M8 0l270 700h106l267 -700h-103l-59 161h-321l-60 -161h-100zM199 244h260l-57 155q-12 33 -33.5 91t-38.5 105h-1q-44 -121 -74 -201z" />
    <glyph glyph-name="B" unicode="B" horiz-adv-x="624" 
d="M95 0v700h224q103 0 166 -48.5t63 -133.5q0 -57 -32 -98.5t-83 -55.5q58 -14 96.5 -58t38.5 -111q0 -90 -69 -142.5t-175 -52.5h-229zM190 80h124q75 0 116 31.5t41 88.5q0 55 -41 87t-116 32h-124v-239zM190 397h124q65 0 101.5 30t36.5 82q0 111 -143 111h-119v-223z
" />
    <glyph glyph-name="C" unicode="C" horiz-adv-x="731" 
d="M387 -15q-147 0 -241 100t-94 265q0 162 97 263.5t238 101.5q67 0 123 -21.5t91.5 -56t56.5 -72t29 -75.5h-97q-46 139 -200 139q-104 0 -171.5 -75t-67.5 -204q0 -128 68.5 -203.5t170.5 -75.5q86 0 133.5 41t66.5 98h97q-8 -38 -29 -75.5t-56.5 -72t-91.5 -56
t-123 -21.5z" />
    <glyph glyph-name="D" unicode="D" horiz-adv-x="723" 
d="M95 0v700h214q156 0 259 -97.5t103 -252.5t-103 -252.5t-259 -97.5h-214zM190 84h109q129 0 202 70.5t73 195.5t-73 195.5t-202 70.5h-109v-532z" />
    <glyph glyph-name="E" unicode="E" horiz-adv-x="620" 
d="M95 0v700h468v-84h-373v-213h318v-85h-318v-234h378v-84h-473z" />
    <glyph glyph-name="F" unicode="F" horiz-adv-x="555" 
d="M95 0v700h426v-87h-331v-220h281v-85h-281v-308h-95z" />
    <glyph glyph-name="G" unicode="G" horiz-adv-x="789" 
d="M384 -15q-144 0 -238 101t-94 257q0 165 100 268.5t254 103.5q127 0 205.5 -62.5t98.5 -147.5h-97q-56 126 -209 126q-109 0 -181 -76.5t-72 -209.5q0 -128 68.5 -203t183.5 -75q100 0 162 61.5t66 168.5h-259v78h338v-375h-86v99q-72 -114 -240 -114z" />
    <glyph glyph-name="H" unicode="H" horiz-adv-x="725" 
d="M95 0v700h95v-304h345v304h95v-700h-95v311h-345v-311h-95z" />
    <glyph glyph-name="I" unicode="I" horiz-adv-x="285" 
d="M95 0v700h95v-700h-95z" />
    <glyph glyph-name="J" unicode="J" horiz-adv-x="543" 
d="M247 -15q-100 0 -157.5 58.5t-57.5 156.5v40h93v-25q0 -69 32 -106t90 -37q112 0 112 148v480h95v-500q0 -95 -56 -155t-151 -60z" />
    <glyph glyph-name="K" unicode="K" horiz-adv-x="678" 
d="M95 0v700h95v-357l352 357h121l-281 -283l286 -417h-117l-235 352l-126 -127v-225h-95z" />
    <glyph glyph-name="L" unicode="L" horiz-adv-x="516" 
d="M95 0v700h95v-611h301v-89h-396z" />
    <glyph glyph-name="M" unicode="M" horiz-adv-x="894" 
d="M95 0v700h141l147 -395q60 -166 67 -192h1q26 77 63 180l149 407h136v-700h-93v374q0 86 2 202l-213 -576h-95l-214 576q2 -63 2 -202v-374h-93z" />
    <glyph glyph-name="N" unicode="N" horiz-adv-x="758" 
d="M95 0v700h121l356 -580q-3 105 -3 211v369h94v-700h-121l-358 583q5 -112 5 -209v-374h-94z" />
    <glyph glyph-name="O" unicode="O" horiz-adv-x="800" 
d="M400 -15q-145 0 -247 103.5t-102 261.5t102 261.5t247 103.5t247 -103.5t102 -261.5t-102 -261.5t-247 -103.5zM150 350q0 -127 69 -204t181 -77t181 77t69 204t-69 204t-181 77t-181 -77t-69 -204z" />
    <glyph glyph-name="P" unicode="P" horiz-adv-x="607" 
d="M95 0v700h223q116 0 187 -57.5t71 -148.5t-71 -150.5t-187 -59.5h-128v-284h-95zM190 368h123q75 0 120.5 32.5t45.5 93.5t-45.5 93.5t-120.5 32.5h-123v-252z" />
    <glyph glyph-name="Q" unicode="Q" horiz-adv-x="800" 
d="M689 -72l-113 105q-81 -48 -176 -48q-145 0 -247 103.5t-102 261.5t102 261.5t247 103.5t247 -103.5t102 -261.5t-103 -263l104 -97zM150 350q0 -127 69 -204t181 -77q62 0 111 24l-105 97l61 62l114 -106q69 77 69 204t-69 204t-181 77t-181 -77t-69 -204z" />
    <glyph glyph-name="R" unicode="R" horiz-adv-x="656" 
d="M95 0v700h252q116 0 182.5 -55.5t66.5 -145.5q0 -77 -53 -129.5t-144 -65.5l219 -304h-114l-209 300h-105v-300h-95zM190 378h149q72 0 116 31t44 90q0 61 -42 91t-115 30h-152v-242z" />
    <glyph glyph-name="S" unicode="S" horiz-adv-x="661" 
d="M339 -15q-128 0 -206.5 63t-90.5 167h100q13 -70 64 -109t135 -39q79 0 127.5 35t48.5 88q0 44 -34 69t-119 46l-86 21q-113 28 -163.5 71.5t-50.5 120.5q0 83 74.5 140t183.5 57q115 0 186.5 -51.5t87.5 -133.5h-98q-15 49 -60 77t-116 28t-116 -32t-45 -83
q0 -41 30 -61.5t112 -41.5l85 -22q122 -32 175 -76t53 -116q0 -94 -77.5 -156t-199.5 -62z" />
    <glyph glyph-name="T" unicode="T" horiz-adv-x="532" 
d="M219 0v614h-194v86h482v-86h-193v-614h-95z" />
    <glyph glyph-name="U" unicode="U" horiz-adv-x="692" 
d="M346 -15q-116 0 -187 73t-71 197v445h95v-431q0 -94 42 -145.5t121 -51.5t121 51.5t42 145.5v431h95v-445q0 -124 -71.5 -197t-186.5 -73z" />
    <glyph glyph-name="V" unicode="V" horiz-adv-x="650" 
d="M268 0l-256 700h99l142 -393q35 -93 72 -199h1q8 23 23 63.5t27.5 74.5t24.5 66l142 388h98l-262 -700h-111z" />
    <glyph glyph-name="W" unicode="W" horiz-adv-x="918" 
d="M211 0l-181 700h97l142 -569l132 569h120l132 -568l139 568h96l-180 -700h-108l-142 586l-140 -586h-107z" />
    <glyph glyph-name="X" unicode="X" horiz-adv-x="628" 
d="M17 0l236 356l-226 344h110l91 -140q83 -128 86 -133h2q7 10 40 61t48 74l89 138h109l-224 -343l234 -357h-111l-109 168q-20 32 -77 120h-2q-15 -22 -41.5 -62.5t-32.5 -50.5l-114 -175h-108z" />
    <glyph glyph-name="Y" unicode="Y" horiz-adv-x="595" 
d="M250 0v299l-242 401h110l118 -204q61 -108 66 -117h2q36 71 64 120l114 201h106l-243 -403v-297h-95z" />
    <glyph glyph-name="Z" unicode="Z" horiz-adv-x="600" 
d="M43 0v90l399 525h-389v85h494v-90l-399 -525h409v-85h-514z" />
    <glyph glyph-name="bracketleft" unicode="[" horiz-adv-x="311" 
d="M93 -90v830h179v-68h-97v-694h97v-68h-179z" />
    <glyph glyph-name="backslash" unicode="\" horiz-adv-x="431" 
d="M330 -90l-315 810h86l315 -810h-86z" />
    <glyph glyph-name="bracketright" unicode="]" horiz-adv-x="311" 
d="M218 740v-830h-179v68h97v694h-97v68h179z" />
    <glyph glyph-name="asciicircum" unicode="^" horiz-adv-x="512" 
d="M41 255l157 445h117l156 -445h-96l-119 352l-120 -352h-95z" />
    <glyph glyph-name="underscore" unicode="_" horiz-adv-x="588" 
d="M41 -132v83h505v-83h-505z" />
    <glyph glyph-name="grave" unicode="`" horiz-adv-x="600" 
d="M153 578l-133 122h116l105 -122h-88z" />
    <glyph glyph-name="a" unicode="a" horiz-adv-x="552" 
d="M220 -14q-73 0 -125.5 38t-52.5 112q0 34 12.5 60t31 42t47 27.5t54 17t58.5 9.5l32 4q64 8 86.5 23t22.5 50q0 37 -29 58.5t-78 21.5q-47 0 -76.5 -18t-38.5 -45h-101q12 54 68 94.5t148 40.5q100 0 148 -41.5t48 -116.5v-241q0 -62 16 -122h-91q-9 41 -10 72
q-21 -33 -63.5 -59.5t-106.5 -26.5zM138 140q0 -38 28.5 -58.5t72.5 -20.5q65 0 106 42.5t41 108.5v63q-13 -19 -39.5 -29.5t-81.5 -18.5q-66 -10 -96.5 -27.5t-30.5 -59.5z" />
    <glyph glyph-name="b" unicode="b" horiz-adv-x="609" 
d="M337 -15q-110 0 -163 88v-73h-91v700h91v-267q53 88 163 88q100 0 162.5 -73.5t62.5 -195.5t-62.5 -194.5t-162.5 -72.5zM173 252q0 -83 42.5 -137t107.5 -54q68 0 107 51.5t39 139.5t-39 140.5t-107 52.5q-65 0 -107.5 -55t-42.5 -138z" />
    <glyph glyph-name="c" unicode="c" horiz-adv-x="551" 
d="M288 -15q-104 0 -173 70.5t-69 196.5q0 123 70 195.5t174 72.5q92 0 149 -46.5t70 -118.5h-93q-29 87 -120 87q-67 0 -110.5 -49t-43.5 -141q0 -91 43 -140t106 -49q95 0 126 87h94q-14 -71 -72 -118t-151 -47z" />
    <glyph glyph-name="d" unicode="d" horiz-adv-x="609" 
d="M271 -15q-99 0 -161.5 73.5t-62.5 195.5t62.5 194.5t161.5 72.5q111 0 164 -88v267h91v-700h-91v73q-53 -88 -164 -88zM140 254q0 -88 39 -140.5t107 -52.5q65 0 107.5 55t42.5 138t-42.5 137t-107.5 54q-68 0 -107 -51.5t-39 -139.5z" />
    <glyph glyph-name="e" unicode="e" horiz-adv-x="576" 
d="M299 -15q-116 0 -184.5 72.5t-68.5 194.5q0 118 71.5 193.5t172.5 75.5q113 0 178 -77.5t66 -214.5h-395q4 -75 48.5 -121.5t113.5 -46.5q90 0 123 69h99q-19 -64 -77.5 -104.5t-146.5 -40.5zM141 304h301q-10 66 -49.5 103t-101.5 37q-58 0 -99.5 -38.5t-50.5 -101.5z
" />
    <glyph glyph-name="f" unicode="f" horiz-adv-x="356" 
d="M114 0v436h-93v70h93v52q0 77 44 116.5t121 39.5q31 0 58 -5v-77q-30 5 -48 5q-41 0 -61.5 -20.5t-20.5 -67.5v-43h135v-70h-135v-436h-93z" />
    <glyph glyph-name="g" unicode="g" horiz-adv-x="603" 
d="M281 -210q-91 0 -145.5 37t-66.5 108h96q21 -71 123 -71q66 0 104 36t38 100v94q-19 -36 -61 -60t-99 -24q-95 0 -159 68t-64 187q0 117 64 186t159 69q57 0 99 -24t61 -60v70h90v-501q0 -91 -61 -153t-178 -62zM140 265q0 -86 38.5 -134t106.5 -48q66 0 106.5 51
t40.5 131q0 81 -40.5 131.5t-106.5 50.5q-65 0 -105 -50t-40 -132z" />
    <glyph glyph-name="h" unicode="h" horiz-adv-x="576" 
d="M83 0v700h91v-261q52 82 154 82q77 0 124 -47.5t47 -135.5v-338h-91v328q0 54 -25.5 84.5t-74.5 30.5q-58 0 -96 -40t-38 -120v-283h-91z" />
    <glyph glyph-name="i" unicode="i" horiz-adv-x="257" 
d="M83 0v506h91v-506h-91zM74 578v109h108v-109h-108z" />
    <glyph glyph-name="j" unicode="j" horiz-adv-x="257" 
d="M46 -185q-21 0 -39 3v67q8 -2 18 -2q58 0 58 85v538h91v-541q0 -150 -128 -150zM74 578v109h108v-109h-108z" />
    <glyph glyph-name="k" unicode="k" horiz-adv-x="541" 
d="M83 0v700h93v-421l236 227h113l-213 -204l220 -302h-108l-175 242l-73 -70v-172h-93z" />
    <glyph glyph-name="l" unicode="l" horiz-adv-x="257" 
d="M83 0v700h91v-700h-91z" />
    <glyph glyph-name="m" unicode="m" horiz-adv-x="860" 
d="M83 0v506h88v-65q20 37 58 58.5t84 21.5q101 0 140 -90q21 40 64 65t93 25q77 0 125 -45.5t48 -134.5v-341h-91v324q0 119 -93 119q-55 0 -87.5 -39.5t-32.5 -114.5v-289h-91v319q0 124 -95 124q-53 0 -86 -39.5t-33 -115.5v-288h-91z" />
    <glyph glyph-name="n" unicode="n" horiz-adv-x="576" 
d="M83 0v506h89v-69q52 84 156 84q77 0 124 -47.5t47 -135.5v-338h-91v328q0 54 -25.5 84.5t-74.5 30.5q-58 0 -96 -40t-38 -120v-283h-91z" />
    <glyph glyph-name="o" unicode="o" horiz-adv-x="588" 
d="M294 -15q-109 0 -179 76t-70 192t70 192t179 76q108 0 178.5 -76t70.5 -192t-70.5 -192t-178.5 -76zM138 253q0 -89 43 -140.5t113 -51.5t113 51.5t43 140.5t-43 140.5t-113 51.5t-113 -51.5t-43 -140.5z" />
    <glyph glyph-name="p" unicode="p" horiz-adv-x="609" 
d="M83 -195v701h91v-73q53 88 163 88q100 0 162.5 -73.5t62.5 -195.5t-62.5 -194.5t-162.5 -72.5q-110 0 -163 88v-268h-91zM173 252q0 -83 42.5 -137t107.5 -54q68 0 107 51.5t39 139.5t-39 140.5t-107 52.5q-65 0 -107.5 -55t-42.5 -138z" />
    <glyph glyph-name="q" unicode="q" horiz-adv-x="609" 
d="M435 73q-53 -88 -164 -88q-99 0 -161.5 73.5t-62.5 195.5t62.5 194.5t161.5 72.5q111 0 164 -88v73h91v-701h-91v268zM140 254q0 -88 39 -140.5t107 -52.5q65 0 107.5 55t42.5 138t-42.5 137t-107.5 54q-68 0 -107 -51.5t-39 -139.5z" />
    <glyph glyph-name="r" unicode="r" horiz-adv-x="375" 
d="M83 0v506h89v-98q21 61 70.5 89t110.5 24v-90q-58 4 -96 -11q-83 -33 -83 -159v-261h-91z" />
    <glyph glyph-name="s" unicode="s" horiz-adv-x="520" 
d="M272 -15q-100 0 -162.5 46t-72.5 119h98q10 -41 46 -65.5t93 -24.5q49 0 80.5 21t31.5 56q0 30 -24.5 47t-84.5 30l-59 13q-81 18 -122 52t-41 92q0 62 54.5 105.5t142.5 43.5q89 0 144.5 -42.5t66.5 -107.5h-88q-25 76 -123 76q-46 0 -74.5 -19t-28.5 -51
q0 -26 19.5 -40.5t62.5 -24.5l67 -16q96 -22 139.5 -56.5t43.5 -94.5q0 -70 -60 -114.5t-149 -44.5z" />
    <glyph glyph-name="t" unicode="t" horiz-adv-x="339" 
d="M241 -5q-61 0 -98 34t-37 105v299h-86v73h86v149h90v-149h102v-73h-102v-280q0 -44 16 -64t53 -20q20 0 43 4v-70q-29 -8 -67 -8z" />
    <glyph glyph-name="u" unicode="u" horiz-adv-x="566" 
d="M246 -15q-82 0 -125.5 49t-43.5 136v336h91v-327q0 -116 95 -116q52 0 90.5 40t38.5 117v286h91v-506h-89v72q-41 -87 -148 -87z" />
    <glyph glyph-name="v" unicode="v" horiz-adv-x="501" 
d="M195 0l-176 506h98l106 -318q17 -52 31 -99h1l30 99l101 318h95l-173 -506h-113z" />
    <glyph glyph-name="w" unicode="w" horiz-adv-x="773" 
d="M172 0l-148 506h98l106 -400l107 400h108l108 -399l104 399h94l-147 -506h-102l-114 402l-113 -402h-101z" />
    <glyph glyph-name="x" unicode="x" horiz-adv-x="521" 
d="M17 0l186 254l-181 252h107l63 -88q8 -12 32 -47t38 -54h1q44 66 67 98l64 91h105l-179 -247l184 -259h-105l-68 95q-44 62 -70 101h-1l-68 -99l-69 -97h-106z" />
    <glyph glyph-name="y" unicode="y" horiz-adv-x="510" 
d="M117 -204q-21 0 -46 3v78q19 -4 41 -4q44 0 69 22.5t25 63.5q0 25 -18 76l-169 471h99l108 -322q20 -56 34 -112h2q13 51 33 111l101 323h93l-180 -539q-31 -89 -55 -117q-44 -54 -137 -54z" />
    <glyph glyph-name="z" unicode="z" horiz-adv-x="472" 
d="M47 0v82l276 346h-276v78h375v-82l-277 -346h282v-78h-380z" />
    <glyph glyph-name="braceleft" unicode="{" horiz-adv-x="326" 
d="M289 -106q-89 -12 -133.5 24.5t-44.5 133.5v128q0 58 -15 86t-60 28v62q45 0 60 28t15 86v128q0 98 44.5 134t133.5 24v-67q-54 5 -74.5 -11t-20.5 -77v-151q0 -106 -63 -125q63 -19 63 -125v-151q0 -61 20.5 -77t74.5 -11v-67z" />
    <glyph glyph-name="bar" unicode="|" horiz-adv-x="283" 
d="M95 -170v908h94v-908h-94z" />
    <glyph glyph-name="braceright" unicode="}" horiz-adv-x="326" 
d="M37 756q89 12 133.5 -24.5t44.5 -133.5v-128q0 -58 15 -86t60 -28v-62q-45 0 -60 -28t-15 -86v-128q0 -98 -44.5 -134t-133.5 -24v67q54 -5 74.5 11t20.5 77v151q0 106 63 125q-63 19 -63 125v151q0 61 -20.5 77t-74.5 11v67z" />
    <glyph glyph-name="asciitilde" unicode="~" horiz-adv-x="488" 
d="M64 239q0 57 29 86t72 29q38 0 86.5 -26.5t62.5 -26.5q28 0 30 43h79q0 -57 -28 -86t-71 -29q-40 0 -86.5 26.5t-61.5 26.5q-30 0 -32 -43h-80z" />
    <glyph glyph-name="uni00A0" unicode="&#xa0;" horiz-adv-x="253" 
 />
    <glyph glyph-name="exclamdown" unicode="&#xa1;" horiz-adv-x="259" 
d="M154 312l22 -193v-313h-93v313l23 193h48zM76 392v114h107v-114h-107z" />
    <glyph glyph-name="cent" unicode="&#xa2;" horiz-adv-x="572" 
d="M262 -85v73q-88 14 -145.5 84t-57.5 180t57.5 180.5t145.5 84.5v94h77v-93q79 -10 126.5 -55.5t59.5 -107.5h-94q-27 71 -92 84v-373q65 13 92 84h95q-14 -62 -61.5 -107.5t-125.5 -55.5v-72h-77zM155 252q0 -77 29.5 -123t77.5 -60v367q-47 -14 -77 -60.5t-30 -123.5z
" />
    <glyph glyph-name="sterling" unicode="&#xa3;" horiz-adv-x="617" 
d="M56 0v82h42q51 0 81.5 32.5t30.5 77.5q0 40 -26 99h-128v78h90q-42 90 -42 150q0 81 62.5 138.5t161.5 57.5q103 0 163 -59.5t60 -165.5h-93q-2 67 -35 107t-95 40q-58 0 -92.5 -33.5t-34.5 -88.5q0 -48 45 -146h177v-78h-142q20 -52 20 -93q0 -77 -63 -116h338v-82h-520
z" />
    <glyph glyph-name="currency" unicode="&#xa4;" horiz-adv-x="665" 
d="M330 -15q-80 0 -143 44l-72 -71l-63 65l71 75q-42 67 -42 155t42 155l-71 71l66 68l69 -70q63 44 143 44q83 0 147 -47l72 73l67 -68l-76 -76q39 -66 39 -150t-39 -150l76 -80l-67 -65l-73 74q-63 -47 -146 -47zM174 253q0 -88 43 -139t113 -51t113 51t43 139t-43 139
t-113 51t-113 -51t-43 -139z" />
    <glyph glyph-name="yen" unicode="&#xa5;" horiz-adv-x="595" 
d="M96 238v72h149l-229 390h107l114 -204q61 -110 64 -117h2q58 113 62 120l111 201h103l-228 -390h148v-72h-156v-67h121v-72h-121v-99h-92v99h-120v72h120v67h-155z" />
    <glyph glyph-name="brokenbar" unicode="&#xa6;" horiz-adv-x="283" 
d="M95 -170v360h94v-360h-94zM95 378v360h94v-360h-94z" />
    <glyph glyph-name="section" unicode="&#xa7;" horiz-adv-x="548" 
d="M275 -210q-94 0 -153 45t-68 120h98q8 -41 41.5 -65.5t82.5 -24.5q51 0 84.5 27.5t33.5 73.5q0 36 -25.5 60.5t-84.5 42.5l-59 18q-163 49 -163 173q0 47 23.5 85.5t64.5 58.5q-84 47 -84 137q0 73 57.5 123.5t151.5 50.5q83 0 137 -43t65 -107h-88q-25 76 -115 76
q-50 0 -82.5 -27t-32.5 -67q0 -67 84 -93l67 -21q95 -29 139 -72.5t44 -110.5q0 -43 -23 -81t-63 -62q81 -47 81 -138q0 -77 -61.5 -128t-151.5 -51zM155 270q0 -77 100 -108l72 -21q72 28 72 102q0 81 -119 114l-43 13q-37 -10 -59.5 -36t-22.5 -64z" />
    <glyph glyph-name="dieresis" unicode="&#xa8;" horiz-adv-x="330" 
d="M207 578v104h97v-104h-97zM26 578v104h97v-104h-97z" />
    <glyph glyph-name="copyright" unicode="&#xa9;" horiz-adv-x="855" 
d="M427 -18q-153 0 -260 105.5t-107 261.5t107 262.5t260 106.5t260 -106.5t107 -262.5t-107 -261.5t-260 -105.5zM127 349q0 -133 86.5 -220.5t213.5 -87.5q126 0 212.5 87.5t86.5 220.5t-86.5 221.5t-212.5 88.5q-127 0 -213.5 -88.5t-86.5 -221.5zM247 348q0 89 53 142
t129 53q71 0 115.5 -38.5t52.5 -91.5h-77q-8 31 -32 49t-59 18q-45 0 -75.5 -36t-30.5 -96t30.5 -96t76.5 -36q34 0 58 18t32 49h77q-8 -53 -52.5 -91.5t-115.5 -38.5q-76 0 -129 53t-53 142z" />
    <glyph glyph-name="ordfeminine" unicode="&#xaa;" horiz-adv-x="503" 
d="M200 262q-68 0 -109 35t-41 91q0 109 150 127l51 6q49 6 69 20t20 44q0 29 -23.5 47t-62.5 18q-80 0 -93 -60h-92q10 59 58.5 92t126.5 33q85 0 128 -35.5t43 -98.5v-204q0 -59 13 -103h-86q-8 33 -9 57q-21 -33 -59 -51t-84 -18zM139 391q0 -28 20.5 -44.5t55.5 -16.5
q54 0 89.5 32.5t35.5 84.5v51q-10 -16 -33.5 -23.5t-71.5 -15.5q-51 -8 -73.5 -23t-22.5 -45z" />
    <glyph glyph-name="guillemotleft" unicode="&#xab;" horiz-adv-x="541" 
d="M255 56l-193 154v152l193 153v-115l-152 -109l152 -118v-117zM281 210v152l193 153v-115l-152 -109l152 -118v-117z" />
    <glyph glyph-name="logicalnot" unicode="&#xac;" horiz-adv-x="587" 
d="M430 129v99h-358v82h442v-181h-84z" />
    <glyph glyph-name="uni00AD" unicode="&#xad;" horiz-adv-x="385" 
d="M61 251v83h262v-83h-262z" />
    <glyph glyph-name="registered" unicode="&#xae;" horiz-adv-x="855" 
d="M427 -18q-153 0 -260 105.5t-107 261.5t107 262.5t260 106.5t260 -106.5t107 -262.5t-107 -261.5t-260 -105.5zM127 349q0 -133 86.5 -220.5t213.5 -87.5q126 0 212.5 87.5t86.5 220.5t-86.5 221.5t-212.5 88.5q-127 0 -213.5 -88.5t-86.5 -221.5zM295 164v370h144
q63 0 101 -32t38 -81q0 -41 -27.5 -70.5t-75.5 -38.5l104 -148h-83l-100 145h-28v-145h-73zM368 370h61q73 0 73 51q0 24 -20.5 37t-52.5 13h-61v-101z" />
    <glyph glyph-name="macron" unicode="&#xaf;" horiz-adv-x="600" 
d="M10 589v68h310v-68h-310z" />
    <glyph glyph-name="degree" unicode="&#xb0;" horiz-adv-x="470" 
d="M235 346q-78 0 -131 52.5t-53 132.5t53 132t131 52t131 -52t53 -132t-53 -132.5t-131 -52.5zM138 531q0 -52 26.5 -82t70.5 -30t70.5 30t26.5 82q0 51 -26.5 81t-70.5 30t-70.5 -30t-26.5 -81z" />
    <glyph glyph-name="plusminus" unicode="&#xb1;" horiz-adv-x="564" 
d="M239 194v114h-185v83h185v114h87v-114h184v-83h-184v-114h-87zM54 58v83h456v-83h-456z" />
    <glyph glyph-name="uni00B2" unicode="&#xb2;" horiz-adv-x="465" 
d="M31 292q3 82 42.5 136.5t125.5 101.5l35 19q55 30 76.5 53.5t21.5 56.5q0 35 -24.5 55.5t-63.5 20.5q-49 0 -76 -27.5t-27 -79.5h-94q0 86 54.5 134t144.5 48q80 0 129 -43.5t49 -108.5q0 -92 -120 -158l-46 -26q-59 -33 -84.5 -55t-32.5 -49h277v-78h-387z" />
    <glyph glyph-name="uni00B3" unicode="&#xb3;" horiz-adv-x="461" 
d="M232 275q-84 0 -136.5 41.5t-60.5 110.5h91q7 -36 34 -57t71 -21q43 0 70.5 22.5t27.5 55.5q0 40 -33.5 63t-88.5 23h-38v70h38q49 0 78 22t29 57q0 33 -23.5 53t-60.5 20q-39 0 -63.5 -20.5t-30.5 -56.5h-91q6 65 58 108t130 43q75 0 123 -41t48 -96q0 -43 -25.5 -74.5
t-69.5 -44.5q111 -30 111 -130q0 -58 -53 -103t-135 -45z" />
    <glyph glyph-name="acute" unicode="&#xb4;" horiz-adv-x="600" 
d="M16 578l106 122h116l-134 -122h-88z" />
    <glyph glyph-name="uni00B5" unicode="&#xb5;" horiz-adv-x="572" 
d="M83 -195v701h91v-327q0 -116 95 -116q52 0 90.5 40t38.5 117v286h91v-506h-89v72q-41 -87 -148 -87q-45 0 -78 15v-195h-91z" />
    <glyph glyph-name="paragraph" unicode="&#xb6;" horiz-adv-x="672" 
d="M262 -195v546h-41q-91 0 -147 50t-56 126t56 124.5t147 48.5h414v-86h-101v-809h-95v809h-82v-809h-95z" />
    <glyph glyph-name="periodcentered" unicode="&#xb7;" horiz-adv-x="245" 
d="M69 299v113h107v-113h-107z" />
    <glyph glyph-name="cedilla" unicode="&#xb8;" horiz-adv-x="600" 
d="M111 -227q-44 0 -83 12v55q39 -13 75 -13q25 0 42.5 9t17.5 26q0 32 -54 32q-24 0 -50 -8v42l49 91l58 -19l-34 -58q39 -1 66.5 -21t27.5 -58q0 -43 -31.5 -66.5t-83.5 -23.5z" />
    <glyph glyph-name="uni00B9" unicode="&#xb9;" horiz-adv-x="325" 
d="M162 290v312h-145v64q134 0 157 129h79v-505h-91z" />
    <glyph glyph-name="ordmasculine" unicode="&#xba;" horiz-adv-x="522" 
d="M261 262q-94 0 -154.5 64t-60.5 163t60.5 162.5t154.5 63.5q93 0 154 -63.5t61 -162.5t-61 -163t-154 -64zM135 489q0 -73 34 -114.5t92 -41.5t92 41.5t34 114.5q0 72 -34.5 113.5t-91.5 41.5q-58 0 -92 -41.5t-34 -113.5z" />
    <glyph glyph-name="guillemotright" unicode="&#xbb;" horiz-adv-x="531" 
d="M276 516l193 -154v-152l-193 -153v115l152 109l-152 118v117zM57 57v115l152 109l-152 118v117l193 -154v-152z" />
    <glyph glyph-name="onequarter" unicode="&#xbc;" horiz-adv-x="990" 
d="M162 195v312h-145v64q134 0 157 129h79v-505h-91zM132 -100l542 800h97l-542 -800h-97zM538 9v87l257 309h94v-322h66v-75h-66v-108h-89v109h-262zM621 83h179v215z" />
    <glyph glyph-name="onehalf" unicode="&#xbd;" horiz-adv-x="1024" 
d="M162 195v312h-145v64q134 0 157 129h79v-505h-91zM132 -100l542 800h97l-542 -800h-97zM590 -98q3 82 42.5 136.5t125.5 101.5l35 19q55 30 76.5 53.5t21.5 56.5q0 35 -24.5 55.5t-63.5 20.5q-49 0 -76 -27.5t-27 -79.5h-94q0 86 54.5 134t144.5 48q80 0 129 -43.5
t49 -108.5q0 -92 -120 -158l-46 -26q-59 -33 -84.5 -55t-32.5 -49h277v-78h-387z" />
    <glyph glyph-name="threequarters" unicode="&#xbe;" horiz-adv-x="1110" 
d="M231 181q-84 0 -136.5 41.5t-60.5 110.5h91q7 -36 34 -57t71 -21q43 0 70.5 22.5t27.5 55.5q0 40 -33.5 63t-88.5 23h-38v70h38q49 0 78 22t29 57q0 33 -23.5 53t-60.5 20q-39 0 -63.5 -20.5t-30.5 -56.5h-91q6 65 58 108t130 43q75 0 123 -41t48 -96q0 -43 -25.5 -74.5
t-69.5 -44.5q111 -30 111 -130q0 -58 -53 -103t-135 -45zM252 -100l542 800h97l-542 -800h-97zM658 9v87l257 309h94v-322h66v-75h-66v-108h-89v109h-262zM741 83h179v215z" />
    <glyph glyph-name="questiondown" unicode="&#xbf;" horiz-adv-x="513" 
d="M321 312q0 -77 -24.5 -120t-81.5 -84l-23 -17q-37 -27 -53 -52.5t-16 -62.5q0 -46 34.5 -76.5t93.5 -30.5q67 0 106 39.5t40 112.5h97q-1 -108 -67.5 -169t-175.5 -61q-100 0 -163.5 53t-63.5 135q0 51 25 89.5t78 76.5l28 20q43 31 59.5 61t17.5 86h89zM223 392v114h107
v-114h-107z" />
    <glyph glyph-name="Agrave" unicode="&#xc0;" horiz-adv-x="660" 
d="M8 0l270 700h106l267 -700h-103l-59 161h-321l-60 -161h-100zM150 872h117l105 -112h-87zM199 244h260l-57 155q-12 33 -33.5 91t-38.5 105h-1q-44 -121 -74 -201z" />
    <glyph glyph-name="Aacute" unicode="&#xc1;" horiz-adv-x="660" 
d="M8 0l270 700h106l267 -700h-103l-59 161h-321l-60 -161h-100zM199 244h260l-57 155q-12 33 -33.5 91t-38.5 105h-1q-44 -121 -74 -201zM289 760l105 112h117l-135 -112h-87z" />
    <glyph glyph-name="Acircumflex" unicode="&#xc2;" horiz-adv-x="660" 
d="M8 0l270 700h106l267 -700h-103l-59 161h-321l-60 -161h-100zM168 760l115 112h96l117 -112h-87l-76 54l-77 -54h-88zM199 244h260l-57 155q-12 33 -33.5 91t-38.5 105h-1q-44 -121 -74 -201z" />
    <glyph glyph-name="Atilde" unicode="&#xc3;" horiz-adv-x="660" 
d="M8 0l270 700h106l267 -700h-103l-59 161h-321l-60 -161h-100zM164 770q0 54 28.5 82.5t70.5 28.5q34 0 74.5 -26.5t53.5 -26.5q17 0 23 11t7 32h78q0 -55 -28 -83t-69 -28q-34 0 -75 26.5t-54 26.5q-17 0 -23.5 -11t-7.5 -32h-78zM199 244h260l-57 155q-12 33 -33.5 91
t-38.5 105h-1q-44 -121 -74 -201z" />
    <glyph glyph-name="Adieresis" unicode="&#xc4;" horiz-adv-x="660" 
d="M8 0l270 700h106l267 -700h-103l-59 161h-321l-60 -161h-100zM158 760v110h112v-110h-112zM199 244h260l-57 155q-12 33 -33.5 91t-38.5 105h-1q-44 -121 -74 -201zM394 760v110h112v-110h-112z" />
    <glyph glyph-name="Aring" unicode="&#xc5;" horiz-adv-x="660" 
d="M8 0l270 700h106l267 -700h-103l-59 161h-321l-60 -161h-100zM199 244h260l-57 155q-12 33 -33.5 91t-38.5 105h-1q-44 -121 -74 -201zM243 826q0 36 26 59.5t63 23.5t62.5 -23.5t25.5 -59.5q0 -37 -25.5 -60t-62.5 -23t-63 23t-26 60zM292 826q0 -18 11.5 -29.5
t28.5 -11.5t28 11.5t11 29.5q0 17 -11 28.5t-28 11.5t-28.5 -11.5t-11.5 -28.5z" />
    <glyph glyph-name="AE" unicode="&#xc6;" horiz-adv-x="1050" 
d="M-21 0l511 700h503v-84h-373v-213h318v-85h-318v-234h378v-84h-473v151h-322l-109 -151h-115zM263 234h262v363z" />
    <glyph glyph-name="Ccedilla" unicode="&#xc7;" horiz-adv-x="731" 
d="M373 -227q-44 0 -83 12v55q39 -13 75 -13q25 0 42.5 9t17.5 26q0 32 -54 32q-24 0 -50 -8v42l32 59q-134 12 -217.5 110.5t-83.5 252.5q0 162 97 263.5t238 101.5q67 0 123 -21.5t91.5 -56t56.5 -72t29 -75.5h-97q-46 139 -200 139q-104 0 -171.5 -75t-67.5 -204
q0 -128 68.5 -203.5t170.5 -75.5q86 0 133.5 41t66.5 98h97q-16 -79 -84.5 -146.5t-182.5 -77.5l-26 -44q39 -1 66.5 -21t27.5 -58q0 -43 -31.5 -66.5t-83.5 -23.5z" />
    <glyph glyph-name="Egrave" unicode="&#xc8;" horiz-adv-x="620" 
d="M95 0v700h468v-84h-373v-213h318v-85h-318v-234h378v-84h-473zM148 872h117l105 -112h-87z" />
    <glyph glyph-name="Eacute" unicode="&#xc9;" horiz-adv-x="620" 
d="M95 0v700h468v-84h-373v-213h318v-85h-318v-234h378v-84h-473zM286 760l105 112h117l-135 -112h-87z" />
    <glyph glyph-name="Ecircumflex" unicode="&#xca;" horiz-adv-x="620" 
d="M95 0v700h468v-84h-373v-213h318v-85h-318v-234h378v-84h-473zM165 760l115 112h96l117 -112h-87l-76 54l-77 -54h-88z" />
    <glyph glyph-name="Edieresis" unicode="&#xcb;" horiz-adv-x="620" 
d="M95 0v700h468v-84h-373v-213h318v-85h-318v-234h378v-84h-473zM155 760v110h112v-110h-112zM391 760v110h112v-110h-112z" />
    <glyph glyph-name="Igrave" unicode="&#xcc;" horiz-adv-x="285" 
d="M95 0v700h95v-700h-95zM-39 872h117l105 -112h-87z" />
    <glyph glyph-name="Iacute" unicode="&#xcd;" horiz-adv-x="285" 
d="M95 0v700h95v-700h-95zM100 760l105 112h117l-135 -112h-87z" />
    <glyph glyph-name="Icircumflex" unicode="&#xce;" horiz-adv-x="285" 
d="M95 0v700h95v-700h-95zM-22 760l115 112h96l117 -112h-87l-76 54l-77 -54h-88z" />
    <glyph glyph-name="Idieresis" unicode="&#xcf;" horiz-adv-x="285" 
d="M95 0v700h95v-700h-95zM-32 760v110h112v-110h-112zM204 760v110h112v-110h-112z" />
    <glyph glyph-name="Eth" unicode="&#xd0;" horiz-adv-x="763" 
d="M135 0v311h-123v78h123v311h214q156 0 259 -97.5t103 -252.5t-103 -252.5t-259 -97.5h-214zM230 84h109q129 0 202 70.5t73 195.5t-73 195.5t-202 70.5h-109v-227h147v-78h-147v-227z" />
    <glyph glyph-name="Ntilde" unicode="&#xd1;" horiz-adv-x="758" 
d="M95 0v700h121l356 -580q-3 105 -3 211v369h94v-700h-121l-358 583q5 -112 5 -209v-374h-94zM212 770q0 54 28.5 82.5t70.5 28.5q34 0 74.5 -26.5t53.5 -26.5q17 0 23 11t7 32h78q0 -55 -28 -83t-69 -28q-34 0 -75 26.5t-54 26.5q-17 0 -23.5 -11t-7.5 -32h-78z" />
    <glyph glyph-name="Ograve" unicode="&#xd2;" horiz-adv-x="800" 
d="M400 -15q-145 0 -247 103.5t-102 261.5t102 261.5t247 103.5t247 -103.5t102 -261.5t-102 -261.5t-247 -103.5zM150 350q0 -127 69 -204t181 -77t181 77t69 204t-69 204t-181 77t-181 -77t-69 -204zM219 872h117l105 -112h-87z" />
    <glyph glyph-name="Oacute" unicode="&#xd3;" horiz-adv-x="800" 
d="M400 -15q-145 0 -247 103.5t-102 261.5t102 261.5t247 103.5t247 -103.5t102 -261.5t-102 -261.5t-247 -103.5zM150 350q0 -127 69 -204t181 -77t181 77t69 204t-69 204t-181 77t-181 -77t-69 -204zM357 760l105 112h117l-135 -112h-87z" />
    <glyph glyph-name="Ocircumflex" unicode="&#xd4;" horiz-adv-x="800" 
d="M400 -15q-145 0 -247 103.5t-102 261.5t102 261.5t247 103.5t247 -103.5t102 -261.5t-102 -261.5t-247 -103.5zM150 350q0 -127 69 -204t181 -77t181 77t69 204t-69 204t-181 77t-181 -77t-69 -204zM236 760l115 112h96l117 -112h-87l-76 54l-77 -54h-88z" />
    <glyph glyph-name="Otilde" unicode="&#xd5;" horiz-adv-x="800" 
d="M400 -15q-145 0 -247 103.5t-102 261.5t102 261.5t247 103.5t247 -103.5t102 -261.5t-102 -261.5t-247 -103.5zM150 350q0 -127 69 -204t181 -77t181 77t69 204t-69 204t-181 77t-181 -77t-69 -204zM214 770q0 54 28.5 82.5t70.5 28.5q34 0 74.5 -26.5t53.5 -26.5
q17 0 23 11t7 32h78q0 -55 -28 -83t-69 -28q-35 0 -75.5 26.5t-53.5 26.5q-17 0 -23.5 -11t-7.5 -32h-78z" />
    <glyph glyph-name="Odieresis" unicode="&#xd6;" horiz-adv-x="800" 
d="M400 -15q-145 0 -247 103.5t-102 261.5t102 261.5t247 103.5t247 -103.5t102 -261.5t-102 -261.5t-247 -103.5zM150 350q0 -127 69 -204t181 -77t181 77t69 204t-69 204t-181 77t-181 -77t-69 -204zM226 760v110h112v-110h-112zM462 760v110h112v-110h-112z" />
    <glyph glyph-name="multiply" unicode="&#xd7;" horiz-adv-x="541" 
d="M109 40l-55 58l160 158l-159 159l57 58l159 -159l161 159l55 -58l-159 -158l159 -159l-57 -58l-160 160z" />
    <glyph glyph-name="Oslash" unicode="&#xd8;" horiz-adv-x="806" 
d="M403 -15q-118 0 -211 71l-66 -75l-63 51l72 80q-81 98 -81 238q0 158 102 261.5t247 103.5q115 0 208 -69l71 80l61 -51l-74 -84q83 -101 83 -241q0 -158 -102 -261.5t-247 -103.5zM153 350q0 -98 43 -169l358 401q-63 49 -151 49q-112 0 -181 -77t-69 -204zM250 120
q63 -51 153 -51q112 0 181 77t69 204q0 102 -46 173z" />
    <glyph glyph-name="Ugrave" unicode="&#xd9;" horiz-adv-x="692" 
d="M346 -15q-116 0 -187 73t-71 197v445h95v-431q0 -94 42 -145.5t121 -51.5t121 51.5t42 145.5v431h95v-445q0 -124 -71.5 -197t-186.5 -73zM165 872h117l105 -112h-87z" />
    <glyph glyph-name="Uacute" unicode="&#xda;" horiz-adv-x="692" 
d="M346 -15q-116 0 -187 73t-71 197v445h95v-431q0 -94 42 -145.5t121 -51.5t121 51.5t42 145.5v431h95v-445q0 -124 -71.5 -197t-186.5 -73zM303 760l105 112h117l-135 -112h-87z" />
    <glyph glyph-name="Ucircumflex" unicode="&#xdb;" horiz-adv-x="692" 
d="M346 -15q-116 0 -187 73t-71 197v445h95v-431q0 -94 42 -145.5t121 -51.5t121 51.5t42 145.5v431h95v-445q0 -124 -71.5 -197t-186.5 -73zM182 760l115 112h96l117 -112h-87l-76 54l-77 -54h-88z" />
    <glyph glyph-name="Udieresis" unicode="&#xdc;" horiz-adv-x="692" 
d="M346 -15q-116 0 -187 73t-71 197v445h95v-431q0 -94 42 -145.5t121 -51.5t121 51.5t42 145.5v431h95v-445q0 -124 -71.5 -197t-186.5 -73zM172 760v110h112v-110h-112zM408 760v110h112v-110h-112z" />
    <glyph glyph-name="Yacute" unicode="&#xdd;" horiz-adv-x="595" 
d="M250 0v299l-242 401h110l118 -204q61 -108 66 -117h2q36 71 64 120l114 201h106l-243 -403v-297h-95zM257 760l105 112h117l-135 -112h-87z" />
    <glyph glyph-name="Thorn" unicode="&#xde;" horiz-adv-x="621" 
d="M95 0v700h95v-127h128q119 0 188.5 -60t69.5 -158q0 -99 -69.5 -160t-188.5 -61h-128v-134h-95zM190 218h123q78 0 122 34.5t44 102.5t-44 103t-122 35h-123v-275z" />
    <glyph glyph-name="germandbls" unicode="&#xdf;" horiz-adv-x="591" 
d="M322 -3q-28 0 -54 4v75q19 -3 40 -3q65 0 105 37t40 99q0 60 -41.5 97t-108.5 37h-35v77h25q61 0 96.5 30.5t35.5 82.5q0 49 -30.5 78.5t-81.5 29.5q-68 0 -103.5 -44.5t-35.5 -126.5v-470h-91v480q0 108 65 171.5t165 63.5q92 0 148.5 -50.5t56.5 -126.5
q0 -55 -32.5 -94.5t-87.5 -55.5q66 -13 107 -62.5t41 -122.5q0 -88 -63.5 -147t-160.5 -59z" />
    <glyph glyph-name="agrave" unicode="&#xe0;" horiz-adv-x="552" 
d="M220 -14q-73 0 -125.5 38t-52.5 112q0 34 12.5 60t31 42t47 27.5t54 17t58.5 9.5l32 4q64 8 86.5 23t22.5 50q0 37 -29 58.5t-78 21.5q-47 0 -76.5 -18t-38.5 -45h-101q12 54 68 94.5t148 40.5q100 0 148 -41.5t48 -116.5v-241q0 -62 16 -122h-91q-9 41 -10 72
q-21 -33 -63.5 -59.5t-106.5 -26.5zM98 700h116l105 -122h-88zM138 140q0 -38 28.5 -58.5t72.5 -20.5q65 0 106 42.5t41 108.5v63q-13 -19 -39.5 -29.5t-81.5 -18.5q-66 -10 -96.5 -27.5t-30.5 -59.5z" />
    <glyph glyph-name="aacute" unicode="&#xe1;" horiz-adv-x="552" 
d="M220 -14q-73 0 -125.5 38t-52.5 112q0 34 12.5 60t31 42t47 27.5t54 17t58.5 9.5l32 4q64 8 86.5 23t22.5 50q0 37 -29 58.5t-78 21.5q-47 0 -76.5 -18t-38.5 -45h-101q12 54 68 94.5t148 40.5q100 0 148 -41.5t48 -116.5v-241q0 -62 16 -122h-91q-9 41 -10 72
q-21 -33 -63.5 -59.5t-106.5 -26.5zM138 140q0 -38 28.5 -58.5t72.5 -20.5q65 0 106 42.5t41 108.5v63q-13 -19 -39.5 -29.5t-81.5 -18.5q-66 -10 -96.5 -27.5t-30.5 -59.5zM235 578l106 122h116l-134 -122h-88z" />
    <glyph glyph-name="acircumflex" unicode="&#xe2;" horiz-adv-x="552" 
d="M220 -14q-73 0 -125.5 38t-52.5 112q0 34 12.5 60t31 42t47 27.5t54 17t58.5 9.5l32 4q64 8 86.5 23t22.5 50q0 37 -29 58.5t-78 21.5q-47 0 -76.5 -18t-38.5 -45h-101q12 54 68 94.5t148 40.5q100 0 148 -41.5t48 -116.5v-241q0 -62 16 -122h-91q-9 41 -10 72
q-21 -33 -63.5 -59.5t-106.5 -26.5zM113 578l115 122h96l117 -122h-88l-76 61l-76 -61h-88zM138 140q0 -38 28.5 -58.5t72.5 -20.5q65 0 106 42.5t41 108.5v63q-13 -19 -39.5 -29.5t-81.5 -18.5q-66 -10 -96.5 -27.5t-30.5 -59.5z" />
    <glyph glyph-name="atilde" unicode="&#xe3;" horiz-adv-x="552" 
d="M220 -14q-73 0 -125.5 38t-52.5 112q0 34 12.5 60t31 42t47 27.5t54 17t58.5 9.5l32 4q64 8 86.5 23t22.5 50q0 37 -29 58.5t-78 21.5q-47 0 -76.5 -18t-38.5 -45h-101q12 54 68 94.5t148 40.5q100 0 148 -41.5t48 -116.5v-241q0 -62 16 -122h-91q-9 41 -10 72
q-21 -33 -63.5 -59.5t-106.5 -26.5zM109 578q0 54 28.5 82.5t70.5 28.5q34 0 74.5 -26.5t53.5 -26.5q17 0 23 11t7 32h78q0 -55 -28 -83t-69 -28q-35 0 -75 26.5t-54 26.5q-17 0 -23.5 -11t-7.5 -32h-78zM138 140q0 -38 28.5 -58.5t72.5 -20.5q65 0 106 42.5t41 108.5v63
q-13 -19 -39.5 -29.5t-81.5 -18.5q-66 -10 -96.5 -27.5t-30.5 -59.5z" />
    <glyph glyph-name="adieresis" unicode="&#xe4;" horiz-adv-x="552" 
d="M220 -14q-73 0 -125.5 38t-52.5 112q0 34 12.5 60t31 42t47 27.5t54 17t58.5 9.5l32 4q64 8 86.5 23t22.5 50q0 37 -29 58.5t-78 21.5q-47 0 -76.5 -18t-38.5 -45h-101q12 54 68 94.5t148 40.5q100 0 148 -41.5t48 -116.5v-241q0 -62 16 -122h-91q-9 41 -10 72
q-21 -33 -63.5 -59.5t-106.5 -26.5zM138 140q0 -38 28.5 -58.5t72.5 -20.5q65 0 106 42.5t41 108.5v63q-13 -19 -39.5 -29.5t-81.5 -18.5q-66 -10 -96.5 -27.5t-30.5 -59.5zM139 578v104h97v-104h-97zM320 578v104h97v-104h-97z" />
    <glyph glyph-name="aring" unicode="&#xe5;" horiz-adv-x="552" 
d="M220 -14q-73 0 -125.5 38t-52.5 112q0 34 12.5 60t31 42t47 27.5t54 17t58.5 9.5l32 4q64 8 86.5 23t22.5 50q0 37 -29 58.5t-78 21.5q-47 0 -76.5 -18t-38.5 -45h-101q12 54 68 94.5t148 40.5q100 0 148 -41.5t48 -116.5v-241q0 -62 16 -122h-91q-9 41 -10 72
q-21 -33 -63.5 -59.5t-106.5 -26.5zM138 140q0 -38 28.5 -58.5t72.5 -20.5q65 0 106 42.5t41 108.5v63q-13 -19 -39.5 -29.5t-81.5 -18.5q-66 -10 -96.5 -27.5t-30.5 -59.5zM187 644q0 36 26.5 59.5t64.5 23.5t64.5 -23.5t26.5 -59.5q0 -37 -26.5 -60t-64.5 -23t-64.5 23
t-26.5 60zM237 644q0 -18 11 -28.5t30 -10.5t30.5 11t11.5 28t-11.5 28t-30.5 11t-30 -11t-11 -28z" />
    <glyph glyph-name="ae" unicode="&#xe6;" horiz-adv-x="920" 
d="M645 -15q-142 0 -213 114q-66 -113 -212 -113q-72 0 -125 38t-53 112q0 41 17 71t48.5 46.5t62.5 25t73 13.5l40 5q60 8 81.5 23t21.5 49q0 37 -29 58.5t-78 21.5q-45 0 -75 -17t-40 -46h-101q14 57 70 96t146 39q132 0 177 -84q64 84 176 84q113 0 178.5 -77.5
t66.5 -214.5h-395q4 -74 50 -121t115 -47q87 0 120 69h99q-19 -65 -76.5 -105t-144.5 -40zM138 139q0 -36 28 -57t72 -21q65 0 106.5 42.5t41.5 108.5v63q-22 -34 -125 -49q-64 -9 -93.5 -27.5t-29.5 -59.5zM484 304h301q-11 66 -51 103t-102 37q-57 0 -98.5 -39t-49.5 -101
z" />
    <glyph glyph-name="ccedilla" unicode="&#xe7;" horiz-adv-x="551" 
d="M269 -227q-44 0 -83 12v55q39 -13 75 -13q25 0 42.5 9t17.5 26q0 32 -54 32q-24 0 -50 -8v42l32 60q-89 13 -146 82t-57 182q0 123 70 195.5t174 72.5q92 0 149 -46.5t70 -118.5h-93q-29 87 -120 87q-67 0 -110.5 -49t-43.5 -141q0 -91 43 -140t106 -49q95 0 126 87h94
q-13 -65 -63.5 -111t-131.5 -53l-26 -44q39 -1 66.5 -21t27.5 -58q0 -43 -31.5 -66.5t-83.5 -23.5z" />
    <glyph glyph-name="egrave" unicode="&#xe8;" horiz-adv-x="576" 
d="M299 -15q-116 0 -184.5 72.5t-68.5 194.5q0 118 71.5 193.5t172.5 75.5q113 0 178 -77.5t66 -214.5h-395q4 -75 48.5 -121.5t113.5 -46.5q90 0 123 69h99q-19 -64 -77.5 -104.5t-146.5 -40.5zM111 700h116l105 -122h-88zM141 304h301q-10 66 -49.5 103t-101.5 37
q-58 0 -99.5 -38.5t-50.5 -101.5z" />
    <glyph glyph-name="eacute" unicode="&#xe9;" horiz-adv-x="576" 
d="M299 -15q-116 0 -184.5 72.5t-68.5 194.5q0 118 71.5 193.5t172.5 75.5q113 0 178 -77.5t66 -214.5h-395q4 -75 48.5 -121.5t113.5 -46.5q90 0 123 69h99q-19 -64 -77.5 -104.5t-146.5 -40.5zM141 304h301q-10 66 -49.5 103t-101.5 37q-58 0 -99.5 -38.5t-50.5 -101.5z
M248 578l106 122h116l-134 -122h-88z" />
    <glyph glyph-name="ecircumflex" unicode="&#xea;" horiz-adv-x="576" 
d="M299 -15q-116 0 -184.5 72.5t-68.5 194.5q0 118 71.5 193.5t172.5 75.5q113 0 178 -77.5t66 -214.5h-395q4 -75 48.5 -121.5t113.5 -46.5q90 0 123 69h99q-19 -64 -77.5 -104.5t-146.5 -40.5zM126 578l115 122h96l117 -122h-88l-76 61l-76 -61h-88zM141 304h301
q-10 66 -49.5 103t-101.5 37q-58 0 -99.5 -38.5t-50.5 -101.5z" />
    <glyph glyph-name="edieresis" unicode="&#xeb;" horiz-adv-x="576" 
d="M299 -15q-116 0 -184.5 72.5t-68.5 194.5q0 118 71.5 193.5t172.5 75.5q113 0 178 -77.5t66 -214.5h-395q4 -75 48.5 -121.5t113.5 -46.5q90 0 123 69h99q-19 -64 -77.5 -104.5t-146.5 -40.5zM141 304h301q-10 66 -49.5 103t-101.5 37q-58 0 -99.5 -38.5t-50.5 -101.5z
M152 578v104h97v-104h-97zM333 578v104h97v-104h-97z" />
    <glyph glyph-name="igrave" unicode="&#xec;" horiz-adv-x="257" 
d="M83 0v506h91v-506h-91zM-21 700h109l81 -122h-88z" />
    <glyph glyph-name="iacute" unicode="&#xed;" horiz-adv-x="257" 
d="M83 0v506h91v-506h-91zM86 578l101 122h116l-129 -122h-88z" />
    <glyph glyph-name="icircumflex" unicode="&#xee;" horiz-adv-x="257" 
d="M83 0v506h91v-506h-91zM-37 578l115 122h96l117 -122h-88l-76 61l-76 -61h-88z" />
    <glyph glyph-name="idieresis" unicode="&#xef;" horiz-adv-x="257" 
d="M83 0v506h91v-506h-91zM-11 578v104h97v-104h-97zM170 578v104h97v-104h-97z" />
    <glyph glyph-name="eth" unicode="&#xf0;" horiz-adv-x="597" 
d="M294 -15q-109 0 -179 76t-70 192t70 192t179 76q80 0 134 -45q-26 66 -95 121l-87 -47l-31 54l62 34q-51 34 -100 58l82 32q52 -24 91 -50l85 47l31 -55l-62 -34q139 -125 139 -343q0 -143 -69.5 -225.5t-179.5 -82.5zM138 253q0 -89 43 -140.5t113 -51.5t113 51.5
t43 140.5t-43 140.5t-113 51.5t-113 -51.5t-43 -140.5z" />
    <glyph glyph-name="ntilde" unicode="&#xf1;" horiz-adv-x="576" 
d="M83 0v506h89v-69q52 84 156 84q77 0 124 -47.5t47 -135.5v-338h-91v328q0 54 -25.5 84.5t-74.5 30.5q-58 0 -96 -40t-38 -120v-283h-91zM127 578q0 54 28.5 82.5t70.5 28.5q34 0 74.5 -26.5t53.5 -26.5q17 0 23 11t7 32h78q0 -55 -28 -83t-69 -28q-35 0 -75 26.5
t-54 26.5q-17 0 -23.5 -11t-7.5 -32h-78z" />
    <glyph glyph-name="ograve" unicode="&#xf2;" horiz-adv-x="588" 
d="M294 -15q-109 0 -179 76t-70 192t70 192t179 76q108 0 178.5 -76t70.5 -192t-70.5 -192t-178.5 -76zM114 700h116l105 -122h-88zM138 253q0 -89 43 -140.5t113 -51.5t113 51.5t43 140.5t-43 140.5t-113 51.5t-113 -51.5t-43 -140.5z" />
    <glyph glyph-name="oacute" unicode="&#xf3;" horiz-adv-x="588" 
d="M294 -15q-109 0 -179 76t-70 192t70 192t179 76q108 0 178.5 -76t70.5 -192t-70.5 -192t-178.5 -76zM138 253q0 -89 43 -140.5t113 -51.5t113 51.5t43 140.5t-43 140.5t-113 51.5t-113 -51.5t-43 -140.5zM251 578l106 122h116l-134 -122h-88z" />
    <glyph glyph-name="ocircumflex" unicode="&#xf4;" horiz-adv-x="588" 
d="M294 -15q-109 0 -179 76t-70 192t70 192t179 76q108 0 178.5 -76t70.5 -192t-70.5 -192t-178.5 -76zM129 578l115 122h96l117 -122h-88l-76 61l-76 -61h-88zM138 253q0 -89 43 -140.5t113 -51.5t113 51.5t43 140.5t-43 140.5t-113 51.5t-113 -51.5t-43 -140.5z" />
    <glyph glyph-name="otilde" unicode="&#xf5;" horiz-adv-x="588" 
d="M294 -15q-109 0 -179 76t-70 192t70 192t179 76q108 0 178.5 -76t70.5 -192t-70.5 -192t-178.5 -76zM125 578q0 54 28.5 82.5t70.5 28.5q34 0 74.5 -26.5t53.5 -26.5q17 0 23 11t7 32h78q0 -55 -28 -83t-69 -28q-35 0 -75 26.5t-54 26.5q-17 0 -23.5 -11t-7.5 -32h-78z
M138 253q0 -89 43 -140.5t113 -51.5t113 51.5t43 140.5t-43 140.5t-113 51.5t-113 -51.5t-43 -140.5z" />
    <glyph glyph-name="odieresis" unicode="&#xf6;" horiz-adv-x="588" 
d="M294 -15q-109 0 -179 76t-70 192t70 192t179 76q108 0 178.5 -76t70.5 -192t-70.5 -192t-178.5 -76zM138 253q0 -89 43 -140.5t113 -51.5t113 51.5t43 140.5t-43 140.5t-113 51.5t-113 -51.5t-43 -140.5zM155 578v104h97v-104h-97zM336 578v104h97v-104h-97z" />
    <glyph glyph-name="divide" unicode="&#xf7;" horiz-adv-x="564" 
d="M47 219v82h470v-82h-470zM234 31v94h97v-94h-97zM234 395v94h97v-94h-97z" />
    <glyph glyph-name="oslash" unicode="&#xf8;" horiz-adv-x="596" 
d="M299 -15q-83 0 -146 46l-41 -46l-60 50l47 52q-49 71 -49 166q0 116 70 192t179 76q83 0 146 -47l42 47l58 -48l-47 -53q50 -70 50 -167q0 -116 -70.5 -192t-178.5 -76zM143 253q0 -55 17 -97l231 258q-39 31 -92 31q-70 0 -113 -51.5t-43 -140.5zM207 92q39 -31 92 -31
q70 0 113 51.5t43 140.5q0 57 -18 98z" />
    <glyph glyph-name="ugrave" unicode="&#xf9;" horiz-adv-x="566" 
d="M246 -15q-82 0 -125.5 49t-43.5 136v336h91v-327q0 -116 95 -116q52 0 90.5 40t38.5 117v286h91v-506h-89v72q-41 -87 -148 -87zM100 700h116l105 -122h-88z" />
    <glyph glyph-name="uacute" unicode="&#xfa;" horiz-adv-x="566" 
d="M246 -15q-82 0 -125.5 49t-43.5 136v336h91v-327q0 -116 95 -116q52 0 90.5 40t38.5 117v286h91v-506h-89v72q-41 -87 -148 -87zM237 578l106 122h116l-134 -122h-88z" />
    <glyph glyph-name="ucircumflex" unicode="&#xfb;" horiz-adv-x="566" 
d="M246 -15q-82 0 -125.5 49t-43.5 136v336h91v-327q0 -116 95 -116q52 0 90.5 40t38.5 117v286h91v-506h-89v72q-41 -87 -148 -87zM115 578l115 122h96l117 -122h-88l-76 61l-76 -61h-88z" />
    <glyph glyph-name="udieresis" unicode="&#xfc;" horiz-adv-x="566" 
d="M246 -15q-82 0 -125.5 49t-43.5 136v336h91v-327q0 -116 95 -116q52 0 90.5 40t38.5 117v286h91v-506h-89v72q-41 -87 -148 -87zM141 578v104h97v-104h-97zM322 578v104h97v-104h-97z" />
    <glyph glyph-name="yacute" unicode="&#xfd;" horiz-adv-x="510" 
d="M117 -204q-21 0 -46 3v78q19 -4 41 -4q44 0 69 22.5t25 63.5q0 25 -18 76l-169 471h99l108 -322q20 -56 34 -112h2q13 51 33 111l101 323h93l-180 -539q-31 -89 -55 -117q-44 -54 -137 -54zM217 578l106 122h116l-134 -122h-88z" />
    <glyph glyph-name="thorn" unicode="&#xfe;" horiz-adv-x="609" 
d="M83 -195v895h91v-267q53 88 163 88q100 0 162.5 -73.5t62.5 -195.5t-62.5 -194.5t-162.5 -72.5q-110 0 -163 88v-268h-91zM173 252q0 -83 42.5 -137t107.5 -54q68 0 107 51.5t39 139.5t-39 140.5t-107 52.5q-65 0 -107.5 -55t-42.5 -138z" />
    <glyph glyph-name="ydieresis" unicode="&#xff;" horiz-adv-x="510" 
d="M117 -204q-21 0 -46 3v78q19 -4 41 -4q44 0 69 22.5t25 63.5q0 25 -18 76l-169 471h99l108 -322q20 -56 34 -112h2q13 51 33 111l101 323h93l-180 -539q-31 -89 -55 -117q-44 -54 -137 -54zM121 578v104h97v-104h-97zM302 578v104h97v-104h-97z" />
    <glyph glyph-name="Amacron" unicode="&#x100;" horiz-adv-x="660" 
d="M8 0l270 700h106l267 -700h-103l-59 161h-321l-60 -161h-100zM157 776v73h350v-73h-350zM199 244h260l-57 155q-12 33 -33.5 91t-38.5 105h-1q-44 -121 -74 -201z" />
    <glyph glyph-name="amacron" unicode="&#x101;" horiz-adv-x="552" 
d="M220 -14q-73 0 -125.5 38t-52.5 112q0 34 12.5 60t31 42t47 27.5t54 17t58.5 9.5l32 4q64 8 86.5 23t22.5 50q0 37 -29 58.5t-78 21.5q-47 0 -76.5 -18t-38.5 -45h-101q12 54 68 94.5t148 40.5q100 0 148 -41.5t48 -116.5v-241q0 -62 16 -122h-91q-9 41 -10 72
q-21 -33 -63.5 -59.5t-106.5 -26.5zM123 589v68h310v-68h-310zM138 140q0 -38 28.5 -58.5t72.5 -20.5q65 0 106 42.5t41 108.5v63q-13 -19 -39.5 -29.5t-81.5 -18.5q-66 -10 -96.5 -27.5t-30.5 -59.5z" />
    <glyph glyph-name="Abreve" unicode="&#x102;" horiz-adv-x="660" 
d="M8 0l270 700h106l267 -700h-103l-59 161h-321l-60 -161h-100zM174 872h81q2 -29 22.5 -45.5t53.5 -16.5q34 0 54.5 16.5t22.5 45.5h80q-1 -57 -44.5 -91t-112.5 -34q-67 0 -111.5 34t-45.5 91zM199 244h260l-57 155q-12 33 -33.5 91t-38.5 105h-1q-44 -121 -74 -201z" />
    <glyph glyph-name="abreve" unicode="&#x103;" horiz-adv-x="552" 
d="M220 -14q-73 0 -125.5 38t-52.5 112q0 34 12.5 60t31 42t47 27.5t54 17t58.5 9.5l32 4q64 8 86.5 23t22.5 50q0 37 -29 58.5t-78 21.5q-47 0 -76.5 -18t-38.5 -45h-101q12 54 68 94.5t148 40.5q100 0 148 -41.5t48 -116.5v-241q0 -62 16 -122h-91q-9 41 -10 72
q-21 -33 -63.5 -59.5t-106.5 -26.5zM121 705h80q2 -33 22.5 -52.5t54.5 -19.5t54.5 19.5t22.5 52.5h80q-1 -62 -44.5 -98.5t-112.5 -36.5q-68 0 -112 37t-45 98zM138 140q0 -38 28.5 -58.5t72.5 -20.5q65 0 106 42.5t41 108.5v63q-13 -19 -39.5 -29.5t-81.5 -18.5
q-66 -10 -96.5 -27.5t-30.5 -59.5z" />
    <glyph glyph-name="Aogonek" unicode="&#x104;" horiz-adv-x="660" 
d="M8 0l270 700h106l267 -700q-53 -21 -85.5 -48t-32.5 -55q0 -20 14.5 -30.5t38.5 -10.5q32 0 63 14v-59q-36 -16 -86 -16q-46 0 -77.5 20.5t-31.5 60.5t36 72t87 52h-29l-59 161h-321l-60 -161h-100zM199 244h260l-57 155q-12 33 -33.5 91t-38.5 105h-1q-44 -121 -74 -201
z" />
    <glyph glyph-name="aogonek" unicode="&#x105;" horiz-adv-x="552" 
d="M220 -14q-73 0 -125.5 38t-52.5 112q0 34 12.5 60t31 42t47 27.5t54 17t58.5 9.5l32 4q64 8 86.5 23t22.5 50q0 37 -29 58.5t-78 21.5q-47 0 -76.5 -18t-38.5 -45h-101q12 54 68 94.5t148 40.5q100 0 148 -41.5t48 -116.5v-241q0 -62 16 -122q-53 -21 -85.5 -48
t-32.5 -55q0 -20 14.5 -30.5t38.5 -10.5q32 0 63 14v-59q-36 -16 -86 -16q-46 0 -77.5 20.5t-31.5 60.5t36 72t87 52h-17q-9 41 -10 72q-21 -33 -63.5 -59.5t-106.5 -26.5zM138 140q0 -38 28.5 -58.5t72.5 -20.5q65 0 106 42.5t41 108.5v63q-13 -19 -39.5 -29.5t-81.5 -18.5
q-66 -10 -96.5 -27.5t-30.5 -59.5z" />
    <glyph glyph-name="Cacute" unicode="&#x106;" horiz-adv-x="731" 
d="M387 -15q-147 0 -241 100t-94 265q0 162 97 263.5t238 101.5q67 0 123 -21.5t91.5 -56t56.5 -72t29 -75.5h-97q-46 139 -200 139q-104 0 -171.5 -75t-67.5 -204q0 -128 68.5 -203.5t170.5 -75.5q86 0 133.5 41t66.5 98h97q-8 -38 -29 -75.5t-56.5 -72t-91.5 -56
t-123 -21.5zM343 760l105 112h117l-135 -112h-87z" />
    <glyph glyph-name="cacute" unicode="&#x107;" horiz-adv-x="551" 
d="M288 -15q-104 0 -173 70.5t-69 196.5q0 123 70 195.5t174 72.5q92 0 149 -46.5t70 -118.5h-93q-29 87 -120 87q-67 0 -110.5 -49t-43.5 -141q0 -91 43 -140t106 -49q95 0 126 87h94q-14 -71 -72 -118t-151 -47zM238 578l106 122h116l-134 -122h-88z" />
    <glyph glyph-name="Ccircumflex" unicode="&#x108;" horiz-adv-x="731" 
d="M387 -15q-147 0 -241 100t-94 265q0 162 97 263.5t238 101.5q67 0 123 -21.5t91.5 -56t56.5 -72t29 -75.5h-97q-46 139 -200 139q-104 0 -171.5 -75t-67.5 -204q0 -128 68.5 -203.5t170.5 -75.5q86 0 133.5 41t66.5 98h97q-8 -38 -29 -75.5t-56.5 -72t-91.5 -56
t-123 -21.5zM222 760l115 112h96l117 -112h-87l-76 54l-77 -54h-88z" />
    <glyph glyph-name="ccircumflex" unicode="&#x109;" horiz-adv-x="551" 
d="M288 -15q-104 0 -173 70.5t-69 196.5q0 123 70 195.5t174 72.5q92 0 149 -46.5t70 -118.5h-93q-29 87 -120 87q-67 0 -110.5 -49t-43.5 -141q0 -91 43 -140t106 -49q95 0 126 87h94q-14 -71 -72 -118t-151 -47zM116 578l115 122h96l117 -122h-88l-76 61l-76 -61h-88z" />
    <glyph glyph-name="Cdotaccent" unicode="&#x10a;" horiz-adv-x="731" 
d="M387 -15q-147 0 -241 100t-94 265q0 162 97 263.5t238 101.5q67 0 123 -21.5t91.5 -56t56.5 -72t29 -75.5h-97q-46 139 -200 139q-104 0 -171.5 -75t-67.5 -204q0 -128 68.5 -203.5t170.5 -75.5q86 0 133.5 41t66.5 98h97q-8 -38 -29 -75.5t-56.5 -72t-91.5 -56
t-123 -21.5zM330 760v110h111v-110h-111z" />
    <glyph glyph-name="cdotaccent" unicode="&#x10b;" horiz-adv-x="551" 
d="M288 -15q-104 0 -173 70.5t-69 196.5q0 123 70 195.5t174 72.5q92 0 149 -46.5t70 -118.5h-93q-29 87 -120 87q-67 0 -110.5 -49t-43.5 -141q0 -91 43 -140t106 -49q95 0 126 87h94q-14 -71 -72 -118t-151 -47zM227 578v109h108v-109h-108z" />
    <glyph glyph-name="Ccaron" unicode="&#x10c;" horiz-adv-x="731" 
d="M387 -15q-147 0 -241 100t-94 265q0 162 97 263.5t238 101.5q67 0 123 -21.5t91.5 -56t56.5 -72t29 -75.5h-97q-46 139 -200 139q-104 0 -171.5 -75t-67.5 -204q0 -128 68.5 -203.5t170.5 -75.5q86 0 133.5 41t66.5 98h97q-8 -38 -29 -75.5t-56.5 -72t-91.5 -56
t-123 -21.5zM196 872h87l77 -54l76 54h88l-115 -112h-96z" />
    <glyph glyph-name="ccaron" unicode="&#x10d;" horiz-adv-x="551" 
d="M288 -15q-104 0 -173 70.5t-69 196.5q0 123 70 195.5t174 72.5q92 0 149 -46.5t70 -118.5h-93q-29 87 -120 87q-67 0 -110.5 -49t-43.5 -141q0 -91 43 -140t106 -49q95 0 126 87h94q-14 -71 -72 -118t-151 -47zM118 700h88l76 -61l76 61h88l-115 -122h-96z" />
    <glyph glyph-name="Dcaron" unicode="&#x10e;" horiz-adv-x="723" 
d="M95 0v700h214q156 0 259 -97.5t103 -252.5t-103 -252.5t-259 -97.5h-214zM130 872h87l77 -54l76 54h88l-115 -112h-96zM190 84h109q129 0 202 70.5t73 195.5t-73 195.5t-202 70.5h-109v-532z" />
    <glyph glyph-name="dcaron" unicode="&#x10f;" horiz-adv-x="627" 
d="M271 -15q-99 0 -161.5 73.5t-62.5 195.5t62.5 194.5t161.5 72.5q111 0 164 -88v267h91v-700h-91v73q-53 -88 -164 -88zM140 254q0 -88 39 -140.5t107 -52.5q65 0 107.5 55t42.5 138t-42.5 137t-107.5 54q-68 0 -107 -51.5t-39 -139.5zM561 492q49 59 52 114h-46v94h95
v-65q0 -85 -45 -143h-56z" />
    <glyph glyph-name="Dcroat" unicode="&#x110;" horiz-adv-x="763" 
d="M135 0v311h-123v78h123v311h214q156 0 259 -97.5t103 -252.5t-103 -252.5t-259 -97.5h-214zM230 84h109q129 0 202 70.5t73 195.5t-73 195.5t-202 70.5h-109v-227h147v-78h-147v-227z" />
    <glyph glyph-name="dcroat" unicode="&#x111;" horiz-adv-x="609" 
d="M271 -15q-99 0 -161.5 73.5t-62.5 195.5t62.5 194.5t161.5 72.5q111 0 164 -88v136h-104v62h104v69h91v-69h62v-62h-62v-569h-91v73q-53 -88 -164 -88zM140 254q0 -88 39 -140.5t107 -52.5q65 0 107.5 55t42.5 138t-42.5 137t-107.5 54q-68 0 -107 -51.5t-39 -139.5z" />
    <glyph glyph-name="Emacron" unicode="&#x112;" horiz-adv-x="620" 
d="M95 0v700h468v-84h-373v-213h318v-85h-318v-234h378v-84h-473zM154 776v73h350v-73h-350z" />
    <glyph glyph-name="emacron" unicode="&#x113;" horiz-adv-x="576" 
d="M299 -15q-116 0 -184.5 72.5t-68.5 194.5q0 118 71.5 193.5t172.5 75.5q113 0 178 -77.5t66 -214.5h-395q4 -75 48.5 -121.5t113.5 -46.5q90 0 123 69h99q-19 -64 -77.5 -104.5t-146.5 -40.5zM136 589v68h310v-68h-310zM141 304h301q-10 66 -49.5 103t-101.5 37
q-58 0 -99.5 -38.5t-50.5 -101.5z" />
    <glyph glyph-name="Ebreve" unicode="&#x114;" horiz-adv-x="620" 
d="M95 0v700h468v-84h-373v-213h318v-85h-318v-234h378v-84h-473zM172 872h81q2 -29 22.5 -45.5t53.5 -16.5q34 0 54.5 16.5t22.5 45.5h80q-1 -57 -44.5 -91t-112.5 -34q-67 0 -111.5 34t-45.5 91z" />
    <glyph glyph-name="ebreve" unicode="&#x115;" horiz-adv-x="576" 
d="M299 -15q-116 0 -184.5 72.5t-68.5 194.5q0 118 71.5 193.5t172.5 75.5q113 0 178 -77.5t66 -214.5h-395q4 -75 48.5 -121.5t113.5 -46.5q90 0 123 69h99q-19 -64 -77.5 -104.5t-146.5 -40.5zM134 705h80q2 -33 22.5 -52.5t54.5 -19.5t54.5 19.5t22.5 52.5h80
q-1 -62 -44.5 -98.5t-112.5 -36.5q-68 0 -112 37t-45 98zM141 304h301q-10 66 -49.5 103t-101.5 37q-58 0 -99.5 -38.5t-50.5 -101.5z" />
    <glyph glyph-name="Edotaccent" unicode="&#x116;" horiz-adv-x="620" 
d="M95 0v700h468v-84h-373v-213h318v-85h-318v-234h378v-84h-473zM273 760v110h111v-110h-111z" />
    <glyph glyph-name="edotaccent" unicode="&#x117;" horiz-adv-x="576" 
d="M299 -15q-116 0 -184.5 72.5t-68.5 194.5q0 118 71.5 193.5t172.5 75.5q113 0 178 -77.5t66 -214.5h-395q4 -75 48.5 -121.5t113.5 -46.5q90 0 123 69h99q-19 -64 -77.5 -104.5t-146.5 -40.5zM141 304h301q-10 66 -49.5 103t-101.5 37q-58 0 -99.5 -38.5t-50.5 -101.5z
M237 578v109h108v-109h-108z" />
    <glyph glyph-name="Eogonek" unicode="&#x118;" horiz-adv-x="620" 
d="M95 0v700h468v-84h-373v-213h318v-85h-318v-234h378v-84q-53 -21 -85.5 -48t-32.5 -55q0 -20 14.5 -30.5t38.5 -10.5q32 0 63 14v-59q-36 -16 -86 -16q-46 0 -77.5 20.5t-31.5 60.5t36 72t87 52h-399z" />
    <glyph glyph-name="eogonek" unicode="&#x119;" horiz-adv-x="576" 
d="M299 -15q-116 0 -184.5 72.5t-68.5 194.5q0 118 71.5 193.5t172.5 75.5q113 0 178 -77.5t66 -214.5h-395q4 -75 48.5 -121.5t113.5 -46.5q90 0 123 69h99q-24 -83 -107 -121q-107 -63 -107 -112q0 -20 14 -30.5t37 -10.5q32 0 63 14v-59q-36 -16 -85 -16q-46 0 -77 20.5
t-31 60.5q0 60 81 109h-12zM141 304h301q-10 66 -49.5 103t-101.5 37q-58 0 -99.5 -38.5t-50.5 -101.5z" />
    <glyph glyph-name="Ecaron" unicode="&#x11a;" horiz-adv-x="620" 
d="M95 0v700h468v-84h-373v-213h318v-85h-318v-234h378v-84h-473zM139 872h87l77 -54l76 54h88l-115 -112h-96z" />
    <glyph glyph-name="ecaron" unicode="&#x11b;" horiz-adv-x="576" 
d="M299 -15q-116 0 -184.5 72.5t-68.5 194.5q0 118 71.5 193.5t172.5 75.5q113 0 178 -77.5t66 -214.5h-395q4 -75 48.5 -121.5t113.5 -46.5q90 0 123 69h99q-19 -64 -77.5 -104.5t-146.5 -40.5zM128 700h88l76 -61l76 61h88l-115 -122h-96zM141 304h301q-10 66 -49.5 103
t-101.5 37q-58 0 -99.5 -38.5t-50.5 -101.5z" />
    <glyph glyph-name="Gcircumflex" unicode="&#x11c;" horiz-adv-x="789" 
d="M384 -15q-144 0 -238 101t-94 257q0 165 100 268.5t254 103.5q127 0 205.5 -62.5t98.5 -147.5h-97q-56 126 -209 126q-109 0 -181 -76.5t-72 -209.5q0 -128 68.5 -203t183.5 -75q100 0 162 61.5t66 168.5h-259v78h338v-375h-86v99q-72 -114 -240 -114zM248 760l115 112
h96l117 -112h-87l-76 54l-77 -54h-88z" />
    <glyph glyph-name="gcircumflex" unicode="&#x11d;" horiz-adv-x="603" 
d="M281 -210q-91 0 -145.5 37t-66.5 108h96q21 -71 123 -71q66 0 104 36t38 100v94q-19 -36 -61 -60t-99 -24q-95 0 -159 68t-64 187q0 117 64 186t159 69q57 0 99 -24t61 -60v70h90v-501q0 -91 -61 -153t-178 -62zM122 578l115 122h96l117 -122h-88l-76 61l-76 -61h-88z
M140 265q0 -86 38.5 -134t106.5 -48q66 0 106.5 51t40.5 131q0 81 -40.5 131.5t-106.5 50.5q-65 0 -105 -50t-40 -132z" />
    <glyph glyph-name="Gbreve" unicode="&#x11e;" horiz-adv-x="789" 
d="M384 -15q-144 0 -238 101t-94 257q0 165 100 268.5t254 103.5q127 0 205.5 -62.5t98.5 -147.5h-97q-56 126 -209 126q-109 0 -181 -76.5t-72 -209.5q0 -128 68.5 -203t183.5 -75q100 0 162 61.5t66 168.5h-259v78h338v-375h-86v99q-72 -114 -240 -114zM255 872h81
q2 -29 22.5 -45.5t53.5 -16.5q34 0 54.5 16.5t22.5 45.5h80q-1 -57 -44.5 -91t-112.5 -34q-67 0 -111.5 34t-45.5 91z" />
    <glyph glyph-name="gbreve" unicode="&#x11f;" horiz-adv-x="603" 
d="M281 -210q-91 0 -145.5 37t-66.5 108h96q21 -71 123 -71q66 0 104 36t38 100v94q-19 -36 -61 -60t-99 -24q-95 0 -159 68t-64 187q0 117 64 186t159 69q57 0 99 -24t61 -60v70h90v-501q0 -91 -61 -153t-178 -62zM130 705h80q2 -33 22.5 -52.5t54.5 -19.5t54.5 19.5
t22.5 52.5h80q-1 -62 -44.5 -98.5t-112.5 -36.5q-68 0 -112 37t-45 98zM140 265q0 -86 38.5 -134t106.5 -48q66 0 106.5 51t40.5 131q0 81 -40.5 131.5t-106.5 50.5q-65 0 -105 -50t-40 -132z" />
    <glyph glyph-name="Gdotaccent" unicode="&#x120;" horiz-adv-x="789" 
d="M384 -15q-144 0 -238 101t-94 257q0 165 100 268.5t254 103.5q127 0 205.5 -62.5t98.5 -147.5h-97q-56 126 -209 126q-109 0 -181 -76.5t-72 -209.5q0 -128 68.5 -203t183.5 -75q100 0 162 61.5t66 168.5h-259v78h338v-375h-86v99q-72 -114 -240 -114zM356 760v110h111
v-110h-111z" />
    <glyph glyph-name="gdotaccent" unicode="&#x121;" horiz-adv-x="603" 
d="M281 -210q-91 0 -145.5 37t-66.5 108h96q21 -71 123 -71q66 0 104 36t38 100v94q-19 -36 -61 -60t-99 -24q-95 0 -159 68t-64 187q0 117 64 186t159 69q57 0 99 -24t61 -60v70h90v-501q0 -91 -61 -153t-178 -62zM140 265q0 -86 38.5 -134t106.5 -48q66 0 106.5 51
t40.5 131q0 81 -40.5 131.5t-106.5 50.5q-65 0 -105 -50t-40 -132zM233 578v109h108v-109h-108z" />
    <glyph glyph-name="uni0122" unicode="&#x122;" horiz-adv-x="789" 
d="M384 -15q-144 0 -238 101t-94 257q0 165 100 268.5t254 103.5q127 0 205.5 -62.5t98.5 -147.5h-97q-56 126 -209 126q-109 0 -181 -76.5t-72 -209.5q0 -128 68.5 -203t183.5 -75q100 0 162 61.5t66 168.5h-259v78h338v-375h-86v99q-72 -114 -240 -114zM347 -277
q51 63 54 119h-48v98h99v-68q0 -87 -47 -149h-58z" />
    <glyph glyph-name="uni0123" unicode="&#x123;" horiz-adv-x="603" 
d="M281 -210q-91 0 -145.5 37t-66.5 108h96q21 -71 123 -71q66 0 104 36t38 100v94q-19 -36 -61 -60t-99 -24q-95 0 -159 68t-64 187q0 117 64 186t159 69q57 0 99 -24t61 -60v70h90v-501q0 -91 -61 -153t-178 -62zM140 265q0 -86 38.5 -134t106.5 -48q66 0 106.5 51
t40.5 131q0 81 -40.5 131.5t-106.5 50.5q-65 0 -105 -50t-40 -132zM237 578v68q0 87 47 149h58q-51 -63 -54 -119h48v-98h-99z" />
    <glyph glyph-name="Hcircumflex" unicode="&#x124;" horiz-adv-x="725" 
d="M95 0v700h95v-304h345v304h95v-700h-95v311h-345v-311h-95zM199 760l115 112h96l117 -112h-87l-76 54l-77 -54h-88z" />
    <glyph glyph-name="hcircumflex" unicode="&#x125;" horiz-adv-x="576" 
d="M83 0v700h91v-261q52 82 154 82q77 0 124 -47.5t47 -135.5v-338h-91v328q0 54 -25.5 84.5t-74.5 30.5q-58 0 -96 -40t-38 -120v-283h-91zM127 760l115 112h96l117 -112h-87l-76 54l-77 -54h-88z" />
    <glyph glyph-name="Hbar" unicode="&#x126;" horiz-adv-x="739" 
d="M102 0v512h-71v74h71v114h95v-114h345v114h95v-114h72v-74h-72v-512h-95v311h-345v-311h-95zM197 396h345v116h-345v-116z" />
    <glyph glyph-name="hbar" unicode="&#x127;" horiz-adv-x="576" 
d="M83 0v569h-69v62h69v69h91v-69h97v-62h-97v-130q52 82 154 82q77 0 124 -47.5t47 -135.5v-338h-91v328q0 54 -25.5 84.5t-74.5 30.5q-58 0 -96 -40t-38 -120v-283h-91z" />
    <glyph glyph-name="Itilde" unicode="&#x128;" horiz-adv-x="285" 
d="M95 0v700h95v-700h-95zM-6 772q0 50 24.5 78.5t60.5 28.5q31 0 66 -21.5t47 -21.5q26 0 28 37h68q0 -50 -24.5 -78.5t-60.5 -28.5q-30 0 -64 21.5t-48 21.5q-27 0 -29 -37h-68z" />
    <glyph glyph-name="itilde" unicode="&#x129;" horiz-adv-x="257" 
d="M83 0v506h91v-506h-91zM-20 578q0 50 24.5 78.5t60.5 28.5q31 0 66 -21.5t47 -21.5q26 0 28 37h68q0 -50 -24.5 -78.5t-60.5 -28.5q-30 0 -64 21.5t-48 21.5q-27 0 -29 -37h-68z" />
    <glyph glyph-name="Imacron" unicode="&#x12a;" horiz-adv-x="285" 
d="M95 0v700h95v-700h-95zM-33 776v73h350v-73h-350z" />
    <glyph glyph-name="imacron" unicode="&#x12b;" horiz-adv-x="257" 
d="M83 0v506h91v-506h-91zM-27 589v68h310v-68h-310z" />
    <glyph glyph-name="Ibreve" unicode="&#x12c;" horiz-adv-x="285" 
d="M95 0v700h95v-700h-95zM-15 872h81q2 -29 22.5 -45.5t53.5 -16.5q34 0 54.5 16.5t22.5 45.5h80q-1 -57 -44.5 -91t-112.5 -34q-67 0 -111.5 34t-45.5 91z" />
    <glyph glyph-name="ibreve" unicode="&#x12d;" horiz-adv-x="257" 
d="M83 0v506h91v-506h-91zM-29 705h80q2 -33 22.5 -52.5t54.5 -19.5t54.5 19.5t22.5 52.5h80q-1 -62 -44.5 -98.5t-112.5 -36.5q-68 0 -112 37t-45 98z" />
    <glyph glyph-name="Iogonek" unicode="&#x12e;" horiz-adv-x="285" 
d="M95 0v700h95v-700q-53 -21 -85.5 -48t-32.5 -55q0 -20 14.5 -30.5t38.5 -10.5q32 0 63 14v-59q-36 -16 -86 -16q-46 0 -77.5 20.5t-31.5 60.5t36 72t87 52h-21z" />
    <glyph glyph-name="iogonek" unicode="&#x12f;" horiz-adv-x="257" 
d="M83 0v506h91v-506q-53 -21 -85.5 -48t-32.5 -55q0 -20 14.5 -30.5t38.5 -10.5q32 0 63 14v-59q-36 -16 -86 -16q-46 0 -77.5 20.5t-31.5 60.5t36 72t87 52h-17zM74 578v109h108v-109h-108z" />
    <glyph glyph-name="Idotaccent" unicode="&#x130;" horiz-adv-x="285" 
d="M95 0v700h95v-700h-95zM86 760v110h111v-110h-111z" />
    <glyph glyph-name="dotlessi" unicode="&#x131;" horiz-adv-x="257" 
d="M83 0v506h91v-506h-91z" />
    <glyph glyph-name="IJ" unicode="&#x132;" horiz-adv-x="827" 
d="M95 0v700h95v-700h-95zM317 200v40h93v-25q0 -69 32 -106t90 -37q112 0 112 148v480h95v-500q0 -95 -56 -155t-151 -60q-100 0 -157.5 58.5t-57.5 156.5z" />
    <glyph glyph-name="ij" unicode="&#x133;" horiz-adv-x="514" 
d="M83 0v506h91v-506h-91zM74 578v109h108v-109h-108zM264 -182v67q8 -2 18 -2q58 0 58 85v538h91v-541q0 -150 -128 -150q-21 0 -39 3zM331 578v109h108v-109h-108z" />
    <glyph glyph-name="Jcircumflex" unicode="&#x134;" horiz-adv-x="543" 
d="M247 -15q-100 0 -157.5 58.5t-57.5 156.5v40h93v-25q0 -69 32 -106t90 -37q112 0 112 148v480h95v-500q0 -95 -56 -155t-151 -60zM242 760l115 112h96l117 -112h-87l-76 54l-77 -54h-88z" />
    <glyph glyph-name="jcircumflex" unicode="&#x135;" horiz-adv-x="257" 
d="M46 -185q-21 0 -39 3v67q8 -2 18 -2q58 0 58 85v538h91v-541q0 -150 -128 -150zM-37 578l115 122h96l117 -122h-88l-76 61l-76 -61h-88z" />
    <glyph glyph-name="uni0136" unicode="&#x136;" horiz-adv-x="678" 
d="M95 0v700h95v-357l352 357h121l-281 -283l286 -417h-117l-235 352l-126 -127v-225h-95zM296 -277q51 63 54 119h-48v98h99v-68q0 -87 -47 -149h-58z" />
    <glyph glyph-name="uni0137" unicode="&#x137;" horiz-adv-x="541" 
d="M83 0v700h93v-421l236 227h113l-213 -204l220 -302h-108l-175 242l-73 -70v-172h-93zM242 -277q51 63 54 119h-48v98h99v-68q0 -87 -47 -149h-58z" />
    <glyph glyph-name="Lacute" unicode="&#x139;" horiz-adv-x="516" 
d="M95 0v700h95v-611h301v-89h-396zM100 760l105 112h117l-135 -112h-87z" />
    <glyph glyph-name="lacute" unicode="&#x13a;" horiz-adv-x="257" 
d="M83 0v700h91v-700h-91zM86 760l105 112h117l-135 -112h-87z" />
    <glyph glyph-name="uni013B" unicode="&#x13b;" horiz-adv-x="516" 
d="M95 0v700h95v-611h301v-89h-396zM238 -277q51 63 54 119h-48v98h99v-68q0 -87 -47 -149h-58z" />
    <glyph glyph-name="uni013C" unicode="&#x13c;" horiz-adv-x="257" 
d="M83 0v700h91v-700h-91zM73 -277q51 63 54 119h-48v98h99v-68q0 -87 -47 -149h-58z" />
    <glyph glyph-name="Lcaron" unicode="&#x13d;" horiz-adv-x="517" 
d="M95 0v700h95v-611h301v-89h-396zM253 492q49 59 52 114h-46v94h95v-65q0 -85 -45 -143h-56z" />
    <glyph glyph-name="lcaron" unicode="&#x13e;" horiz-adv-x="275" 
d="M83 0v700h91v-700h-91zM209 492q49 59 52 114h-46v94h95v-65q0 -83 -45 -143h-56z" />
    <glyph glyph-name="Ldot" unicode="&#x13f;" horiz-adv-x="532" 
d="M95 0v700h95v-611h301v-89h-396zM340 294v113h107v-113h-107z" />
    <glyph glyph-name="ldot" unicode="&#x140;" horiz-adv-x="351" 
d="M83 0v700h91v-700h-91zM250 294v113h107v-113h-107z" />
    <glyph glyph-name="Lslash" unicode="&#x141;" horiz-adv-x="552" 
d="M131 0v273l-88 -57v88l88 57v339h95v-277l110 71v-88l-110 -71v-246h301v-89h-396z" />
    <glyph glyph-name="lslash" unicode="&#x142;" horiz-adv-x="334" 
d="M123 0v279l-86 -57v83l86 57v338h91v-277l84 56v-83l-84 -56v-340h-91z" />
    <glyph glyph-name="Nacute" unicode="&#x143;" horiz-adv-x="758" 
d="M95 0v700h121l356 -580q-3 105 -3 211v369h94v-700h-121l-358 583q5 -112 5 -209v-374h-94zM337 760l105 112h117l-135 -112h-87z" />
    <glyph glyph-name="nacute" unicode="&#x144;" horiz-adv-x="576" 
d="M83 0v506h89v-69q52 84 156 84q77 0 124 -47.5t47 -135.5v-338h-91v328q0 54 -25.5 84.5t-74.5 30.5q-58 0 -96 -40t-38 -120v-283h-91zM254 578l106 122h116l-134 -122h-88z" />
    <glyph glyph-name="uni0145" unicode="&#x145;" horiz-adv-x="758" 
d="M95 0v700h121l356 -580q-3 105 -3 211v369h94v-700h-121l-358 583q5 -112 5 -209v-374h-94zM325 -277q51 63 54 119h-48v98h99v-68q0 -87 -47 -149h-58z" />
    <glyph glyph-name="uni0146" unicode="&#x146;" horiz-adv-x="576" 
d="M83 0v506h89v-69q52 84 156 84q77 0 124 -47.5t47 -135.5v-338h-91v328q0 54 -25.5 84.5t-74.5 30.5q-58 0 -96 -40t-38 -120v-283h-91zM241 -277q51 63 54 119h-48v98h99v-68q0 -87 -47 -149h-58z" />
    <glyph glyph-name="Ncaron" unicode="&#x147;" horiz-adv-x="758" 
d="M95 0v700h121l356 -580q-3 105 -3 211v369h94v-700h-121l-358 583q5 -112 5 -209v-374h-94zM190 872h87l77 -54l76 54h88l-115 -112h-96z" />
    <glyph glyph-name="ncaron" unicode="&#x148;" horiz-adv-x="576" 
d="M83 0v506h89v-69q52 84 156 84q77 0 124 -47.5t47 -135.5v-338h-91v328q0 54 -25.5 84.5t-74.5 30.5q-58 0 -96 -40t-38 -120v-283h-91zM133 700h88l76 -61l76 61h88l-115 -122h-96z" />
    <glyph glyph-name="Eng" unicode="&#x14a;" horiz-adv-x="752" 
d="M92 0v700h121l355 -534q-2 54 -2 165v369h94v-719q0 -72 -39 -110t-108 -38q-19 0 -39 3v76q18 -2 24 -2q36 0 52.5 18.5t16.5 58.5v18l-386 581q5 -115 5 -212v-374h-94z" />
    <glyph glyph-name="eng" unicode="&#x14b;" horiz-adv-x="576" 
d="M83 0v506h89v-69q52 84 156 84q77 0 124 -47.5t47 -135.5v-357q0 -72 -38.5 -110t-106.5 -38q-20 0 -39 3v76q18 -2 24 -2q36 0 52.5 18.5t16.5 58.5v341q0 54 -25.5 84.5t-74.5 30.5q-58 0 -96 -40t-38 -120v-283h-91z" />
    <glyph glyph-name="Omacron" unicode="&#x14c;" horiz-adv-x="800" 
d="M400 -15q-145 0 -247 103.5t-102 261.5t102 261.5t247 103.5t247 -103.5t102 -261.5t-102 -261.5t-247 -103.5zM150 350q0 -127 69 -204t181 -77t181 77t69 204t-69 204t-181 77t-181 -77t-69 -204zM225 776v73h350v-73h-350z" />
    <glyph glyph-name="omacron" unicode="&#x14d;" horiz-adv-x="588" 
d="M294 -15q-109 0 -179 76t-70 192t70 192t179 76q108 0 178.5 -76t70.5 -192t-70.5 -192t-178.5 -76zM138 253q0 -89 43 -140.5t113 -51.5t113 51.5t43 140.5t-43 140.5t-113 51.5t-113 -51.5t-43 -140.5zM139 589v68h310v-68h-310z" />
    <glyph glyph-name="Obreve" unicode="&#x14e;" horiz-adv-x="800" 
d="M400 -15q-145 0 -247 103.5t-102 261.5t102 261.5t247 103.5t247 -103.5t102 -261.5t-102 -261.5t-247 -103.5zM150 350q0 -127 69 -204t181 -77t181 77t69 204t-69 204t-181 77t-181 -77t-69 -204zM243 872h81q2 -29 22.5 -45.5t53.5 -16.5q34 0 54.5 16.5t22.5 45.5h80
q-1 -57 -44.5 -91t-112.5 -34q-67 0 -111.5 34t-45.5 91z" />
    <glyph glyph-name="obreve" unicode="&#x14f;" horiz-adv-x="588" 
d="M294 -15q-109 0 -179 76t-70 192t70 192t179 76q108 0 178.5 -76t70.5 -192t-70.5 -192t-178.5 -76zM137 705h80q2 -33 22.5 -52.5t54.5 -19.5t54.5 19.5t22.5 52.5h80q-1 -62 -44.5 -98.5t-112.5 -36.5q-68 0 -112 37t-45 98zM138 253q0 -89 43 -140.5t113 -51.5
t113 51.5t43 140.5t-43 140.5t-113 51.5t-113 -51.5t-43 -140.5z" />
    <glyph glyph-name="Ohungarumlaut" unicode="&#x150;" horiz-adv-x="800" 
d="M400 -15q-145 0 -247 103.5t-102 261.5t102 261.5t247 103.5t247 -103.5t102 -261.5t-102 -261.5t-247 -103.5zM150 350q0 -127 69 -204t181 -77t181 77t69 204t-69 204t-181 77t-181 -77t-69 -204zM262 760l105 112h117l-135 -112h-87zM453 760l105 112h117l-135 -112
h-87z" />
    <glyph glyph-name="ohungarumlaut" unicode="&#x151;" horiz-adv-x="588" 
d="M294 -15q-109 0 -179 76t-70 192t70 192t179 76q108 0 178.5 -76t70.5 -192t-70.5 -192t-178.5 -76zM138 253q0 -89 43 -140.5t113 -51.5t113 51.5t43 140.5t-43 140.5t-113 51.5t-113 -51.5t-43 -140.5zM175 578l101 122h110l-127 -122h-84zM348 578l101 122h110
l-127 -122h-84z" />
    <glyph glyph-name="OE" unicode="&#x152;" horiz-adv-x="1175" 
d="M393 -15q-142 0 -242 103.5t-100 261.5t100 261.5t242 103.5q77 0 144.5 -30.5t112.5 -87.5v103h468v-84h-373v-213h318v-85h-318v-234h378v-84h-473v105q-44 -58 -111 -89t-146 -31zM150 350q0 -127 69 -204t181 -77t181 77t69 204t-69 204t-181 77t-181 -77t-69 -204z
" />
    <glyph glyph-name="oe" unicode="&#x153;" horiz-adv-x="981" 
d="M294 -15q-109 0 -179 76t-70 192t70 192t179 76q64 0 117 -30t86 -83q33 53 85 83t112 30q113 0 178 -77.5t66 -214.5h-395q4 -75 49 -121.5t113 -46.5q89 0 123 69h99q-19 -64 -77.5 -104.5t-146.5 -40.5q-142 0 -208 110q-33 -52 -85 -81t-116 -29zM138 253
q0 -89 43 -140.5t113 -51.5t113 51.5t43 140.5t-43 140.5t-113 51.5t-113 -51.5t-43 -140.5zM545 304h301q-10 66 -49.5 103t-101.5 37q-58 0 -99.5 -38.5t-50.5 -101.5z" />
    <glyph glyph-name="Racute" unicode="&#x154;" horiz-adv-x="656" 
d="M95 0v700h252q116 0 182.5 -55.5t66.5 -145.5q0 -77 -53 -129.5t-144 -65.5l219 -304h-114l-209 300h-105v-300h-95zM190 378h149q72 0 116 31t44 90q0 61 -42 91t-115 30h-152v-242zM289 760l105 112h117l-135 -112h-87z" />
    <glyph glyph-name="racute" unicode="&#x155;" horiz-adv-x="375" 
d="M83 0v506h89v-98q21 61 70.5 89t110.5 24v-90q-58 4 -96 -11q-83 -33 -83 -159v-261h-91zM168 578l106 122h116l-134 -122h-88z" />
    <glyph glyph-name="uni0156" unicode="&#x156;" horiz-adv-x="656" 
d="M95 0v700h252q116 0 182.5 -55.5t66.5 -145.5q0 -77 -53 -129.5t-144 -65.5l219 -304h-114l-209 300h-105v-300h-95zM190 378h149q72 0 116 31t44 90q0 61 -42 91t-115 30h-152v-242zM291 -277q51 63 54 119h-48v98h99v-68q0 -87 -47 -149h-58z" />
    <glyph glyph-name="uni0157" unicode="&#x157;" horiz-adv-x="375" 
d="M83 0v506h89v-98q21 61 70.5 89t110.5 24v-90q-58 4 -96 -11q-83 -33 -83 -159v-261h-91zM73 -277q51 63 54 119h-48v98h99v-68q0 -87 -47 -149h-58z" />
    <glyph glyph-name="Rcaron" unicode="&#x158;" horiz-adv-x="656" 
d="M95 0v700h252q116 0 182.5 -55.5t66.5 -145.5q0 -77 -53 -129.5t-144 -65.5l219 -304h-114l-209 300h-105v-300h-95zM141 872h87l77 -54l76 54h88l-115 -112h-96zM190 378h149q72 0 116 31t44 90q0 61 -42 91t-115 30h-152v-242z" />
    <glyph glyph-name="rcaron" unicode="&#x159;" horiz-adv-x="375" 
d="M83 0v506h89v-98q21 61 70.5 89t110.5 24v-90q-58 4 -96 -11q-83 -33 -83 -159v-261h-91zM48 700h88l76 -61l76 61h88l-115 -122h-96z" />
    <glyph glyph-name="Sacute" unicode="&#x15a;" horiz-adv-x="661" 
d="M339 -15q-128 0 -206.5 63t-90.5 167h100q13 -70 64 -109t135 -39q79 0 127.5 35t48.5 88q0 44 -34 69t-119 46l-86 21q-113 28 -163.5 71.5t-50.5 120.5q0 83 74.5 140t183.5 57q115 0 186.5 -51.5t87.5 -133.5h-98q-15 49 -60 77t-116 28t-116 -32t-45 -83
q0 -41 30 -61.5t112 -41.5l85 -22q122 -32 175 -76t53 -116q0 -94 -77.5 -156t-199.5 -62zM287 760l105 112h117l-135 -112h-87z" />
    <glyph glyph-name="sacute" unicode="&#x15b;" horiz-adv-x="520" 
d="M272 -15q-100 0 -162.5 46t-72.5 119h98q10 -41 46 -65.5t93 -24.5q49 0 80.5 21t31.5 56q0 30 -24.5 47t-84.5 30l-59 13q-81 18 -122 52t-41 92q0 62 54.5 105.5t142.5 43.5q89 0 144.5 -42.5t66.5 -107.5h-88q-25 76 -123 76q-46 0 -74.5 -19t-28.5 -51
q0 -26 19.5 -40.5t62.5 -24.5l67 -16q96 -22 139.5 -56.5t43.5 -94.5q0 -70 -60 -114.5t-149 -44.5zM215 578l106 122h116l-134 -122h-88z" />
    <glyph glyph-name="Scircumflex" unicode="&#x15c;" horiz-adv-x="661" 
d="M339 -15q-128 0 -206.5 63t-90.5 167h100q13 -70 64 -109t135 -39q79 0 127.5 35t48.5 88q0 44 -34 69t-119 46l-86 21q-113 28 -163.5 71.5t-50.5 120.5q0 83 74.5 140t183.5 57q115 0 186.5 -51.5t87.5 -133.5h-98q-15 49 -60 77t-116 28t-116 -32t-45 -83
q0 -41 30 -61.5t112 -41.5l85 -22q122 -32 175 -76t53 -116q0 -94 -77.5 -156t-199.5 -62zM166 760l115 112h96l117 -112h-87l-76 54l-77 -54h-88z" />
    <glyph glyph-name="scircumflex" unicode="&#x15d;" horiz-adv-x="520" 
d="M272 -15q-100 0 -162.5 46t-72.5 119h98q10 -41 46 -65.5t93 -24.5q49 0 80.5 21t31.5 56q0 30 -24.5 47t-84.5 30l-59 13q-81 18 -122 52t-41 92q0 62 54.5 105.5t142.5 43.5q89 0 144.5 -42.5t66.5 -107.5h-88q-25 76 -123 76q-46 0 -74.5 -19t-28.5 -51
q0 -26 19.5 -40.5t62.5 -24.5l67 -16q96 -22 139.5 -56.5t43.5 -94.5q0 -70 -60 -114.5t-149 -44.5zM93 578l115 122h96l117 -122h-88l-76 61l-76 -61h-88z" />
    <glyph glyph-name="Scedilla" unicode="&#x15e;" horiz-adv-x="661" 
d="M316 -227q-44 0 -83 12v55q39 -13 75 -13q25 0 42.5 9t17.5 26q0 32 -54 32q-24 0 -50 -8v42l32 59q-110 11 -176.5 72.5t-77.5 155.5h100q13 -70 64 -109t135 -39q79 0 127.5 35t48.5 88q0 44 -34 69t-119 46l-86 21q-113 28 -163.5 71.5t-50.5 120.5q0 83 74.5 140
t183.5 57q115 0 186.5 -51.5t87.5 -133.5h-98q-15 49 -60 77t-116 28t-116 -32t-45 -83q0 -41 30 -61.5t112 -41.5l85 -22q122 -32 175 -76t53 -116q0 -90 -70.5 -150.5t-182.5 -66.5l-26 -44q39 -1 66.5 -21t27.5 -58q0 -43 -31.5 -66.5t-83.5 -23.5z" />
    <glyph glyph-name="scedilla" unicode="&#x15f;" horiz-adv-x="520" 
d="M250 -227q-44 0 -83 12v55q39 -13 75 -13q25 0 42.5 9t17.5 26q0 32 -54 32q-24 0 -50 -8v42l32 59q-82 10 -133 54t-60 109h98q10 -41 46 -65.5t93 -24.5q49 0 80.5 21t31.5 56q0 30 -24.5 47t-84.5 30l-59 13q-81 18 -122 52t-41 92q0 62 54.5 105.5t142.5 43.5
q89 0 144.5 -42.5t66.5 -107.5h-88q-25 76 -123 76q-46 0 -74.5 -19t-28.5 -51q0 -26 19.5 -40.5t62.5 -24.5l67 -16q96 -22 139.5 -56.5t43.5 -94.5q0 -65 -52 -108.5t-132 -49.5l-26 -44q39 -1 66.5 -21t27.5 -58q0 -43 -31.5 -66.5t-83.5 -23.5z" />
    <glyph glyph-name="Scaron" unicode="&#x160;" horiz-adv-x="661" 
d="M339 -15q-128 0 -206.5 63t-90.5 167h100q13 -70 64 -109t135 -39q79 0 127.5 35t48.5 88q0 44 -34 69t-119 46l-86 21q-113 28 -163.5 71.5t-50.5 120.5q0 83 74.5 140t183.5 57q115 0 186.5 -51.5t87.5 -133.5h-98q-15 49 -60 77t-116 28t-116 -32t-45 -83
q0 -41 30 -61.5t112 -41.5l85 -22q122 -32 175 -76t53 -116q0 -94 -77.5 -156t-199.5 -62zM140 872h87l77 -54l76 54h88l-115 -112h-96z" />
    <glyph glyph-name="scaron" unicode="&#x161;" horiz-adv-x="520" 
d="M272 -15q-100 0 -162.5 46t-72.5 119h98q10 -41 46 -65.5t93 -24.5q49 0 80.5 21t31.5 56q0 30 -24.5 47t-84.5 30l-59 13q-81 18 -122 52t-41 92q0 62 54.5 105.5t142.5 43.5q89 0 144.5 -42.5t66.5 -107.5h-88q-25 76 -123 76q-46 0 -74.5 -19t-28.5 -51
q0 -26 19.5 -40.5t62.5 -24.5l67 -16q96 -22 139.5 -56.5t43.5 -94.5q0 -70 -60 -114.5t-149 -44.5zM95 700h88l76 -61l76 61h88l-115 -122h-96z" />
    <glyph glyph-name="uni0162" unicode="&#x162;" horiz-adv-x="532" 
d="M219 0v614h-194v86h482v-86h-193v-614h-6l-34 -58q39 -1 66.5 -21t27.5 -58q0 -43 -31.5 -66.5t-83.5 -23.5q-44 0 -83 12v55q39 -13 75 -13q25 0 42.5 9t17.5 26q0 32 -54 32q-24 0 -50 -8v42l39 72h-21z" />
    <glyph glyph-name="uni0163" unicode="&#x163;" horiz-adv-x="339" 
d="M190 -227q-44 0 -83 12v55q39 -13 75 -13q25 0 42.5 9t17.5 26q0 32 -54 32q-24 0 -50 -8v42l42 78q-74 28 -74 128v299h-86v73h86v149h90v-149h102v-73h-102v-280q0 -44 16 -64t53 -20q20 0 43 4v-70q-29 -8 -66 -8l-31 -53q39 -1 66.5 -21t27.5 -58q0 -43 -31.5 -66.5
t-83.5 -23.5z" />
    <glyph glyph-name="Tcaron" unicode="&#x164;" horiz-adv-x="532" 
d="M219 0v614h-194v86h482v-86h-193v-614h-95zM76 872h87l77 -54l76 54h88l-115 -112h-96z" />
    <glyph glyph-name="tcaron" unicode="&#x165;" horiz-adv-x="339" 
d="M241 -5q-61 0 -98 34t-37 105v299h-86v73h86v149h90v-149h102v-73h-102v-280q0 -44 16 -64t53 -20q20 0 43 4v-70q-29 -8 -67 -8zM228 544q50 62 51 114h-46v94h96v-65q0 -84 -46 -143h-55z" />
    <glyph glyph-name="Tbar" unicode="&#x166;" horiz-adv-x="553" 
d="M230 0v311h-141v78h141v225h-194v86h482v-86h-193v-225h129v-78h-129v-311h-95z" />
    <glyph glyph-name="tbar" unicode="&#x167;" horiz-adv-x="352" 
d="M250 -5q-61 0 -98 34t-37 105v117h-86v68h86v114h-86v73h86v149h90v-149h102v-73h-102v-114h102v-68h-102v-98q0 -44 16 -64t53 -20q20 0 43 4v-70q-29 -8 -67 -8z" />
    <glyph glyph-name="Utilde" unicode="&#x168;" horiz-adv-x="692" 
d="M346 -15q-116 0 -187 73t-71 197v445h95v-431q0 -94 42 -145.5t121 -51.5t121 51.5t42 145.5v431h95v-445q0 -124 -71.5 -197t-186.5 -73zM178 770q0 54 28.5 82.5t70.5 28.5q34 0 74.5 -26.5t53.5 -26.5q17 0 23 11t7 32h78q0 -55 -28 -83t-69 -28q-34 0 -75 26.5
t-54 26.5q-17 0 -23.5 -11t-7.5 -32h-78z" />
    <glyph glyph-name="utilde" unicode="&#x169;" horiz-adv-x="566" 
d="M246 -15q-82 0 -125.5 49t-43.5 136v336h91v-327q0 -116 95 -116q52 0 90.5 40t38.5 117v286h91v-506h-89v72q-41 -87 -148 -87zM111 578q0 54 28.5 82.5t70.5 28.5q34 0 74.5 -26.5t53.5 -26.5q17 0 23 11t7 32h78q0 -55 -28 -83t-69 -28q-35 0 -75 26.5t-54 26.5
q-17 0 -23.5 -11t-7.5 -32h-78z" />
    <glyph glyph-name="Umacron" unicode="&#x16a;" horiz-adv-x="692" 
d="M346 -15q-116 0 -187 73t-71 197v445h95v-431q0 -94 42 -145.5t121 -51.5t121 51.5t42 145.5v431h95v-445q0 -124 -71.5 -197t-186.5 -73zM171 776v73h350v-73h-350z" />
    <glyph glyph-name="umacron" unicode="&#x16b;" horiz-adv-x="566" 
d="M246 -15q-82 0 -125.5 49t-43.5 136v336h91v-327q0 -116 95 -116q52 0 90.5 40t38.5 117v286h91v-506h-89v72q-41 -87 -148 -87zM125 589v68h310v-68h-310z" />
    <glyph glyph-name="Ubreve" unicode="&#x16c;" horiz-adv-x="692" 
d="M346 -15q-116 0 -187 73t-71 197v445h95v-431q0 -94 42 -145.5t121 -51.5t121 51.5t42 145.5v431h95v-445q0 -124 -71.5 -197t-186.5 -73zM189 872h81q2 -29 22.5 -45.5t53.5 -16.5q34 0 54.5 16.5t22.5 45.5h80q-1 -57 -44.5 -91t-112.5 -34q-67 0 -111.5 34t-45.5 91z
" />
    <glyph glyph-name="ubreve" unicode="&#x16d;" horiz-adv-x="566" 
d="M246 -15q-82 0 -125.5 49t-43.5 136v336h91v-327q0 -116 95 -116q52 0 90.5 40t38.5 117v286h91v-506h-89v72q-41 -87 -148 -87zM123 705h80q2 -33 22.5 -52.5t54.5 -19.5t54.5 19.5t22.5 52.5h80q-1 -62 -44.5 -98.5t-112.5 -36.5q-68 0 -112 37t-45 98z" />
    <glyph glyph-name="Uring" unicode="&#x16e;" horiz-adv-x="692" 
d="M346 -15q-116 0 -187 73t-71 197v445h95v-431q0 -94 42 -145.5t121 -51.5t121 51.5t42 145.5v431h95v-445q0 -124 -71.5 -197t-186.5 -73zM257 826q0 36 26 59.5t63 23.5t62.5 -23.5t25.5 -59.5q0 -37 -25.5 -60t-62.5 -23t-63 23t-26 60zM306 826q0 -18 11.5 -29.5
t28.5 -11.5t28 11.5t11 29.5q0 17 -11 28.5t-28 11.5t-28.5 -11.5t-11.5 -28.5z" />
    <glyph glyph-name="uring" unicode="&#x16f;" horiz-adv-x="566" 
d="M246 -15q-82 0 -125.5 49t-43.5 136v336h91v-327q0 -116 95 -116q52 0 90.5 40t38.5 117v286h91v-506h-89v72q-41 -87 -148 -87zM189 644q0 36 26.5 59.5t64.5 23.5t64.5 -23.5t26.5 -59.5q0 -37 -26.5 -60t-64.5 -23t-64.5 23t-26.5 60zM239 644q0 -18 11 -28.5
t30 -10.5t30.5 11t11.5 28t-11.5 28t-30.5 11t-30 -11t-11 -28z" />
    <glyph glyph-name="Uhungarumlaut" unicode="&#x170;" horiz-adv-x="692" 
d="M346 -15q-116 0 -187 73t-71 197v445h95v-431q0 -94 42 -145.5t121 -51.5t121 51.5t42 145.5v431h95v-445q0 -124 -71.5 -197t-186.5 -73zM208 760l105 112h117l-135 -112h-87zM399 760l105 112h117l-135 -112h-87z" />
    <glyph glyph-name="uhungarumlaut" unicode="&#x171;" horiz-adv-x="566" 
d="M246 -15q-82 0 -125.5 49t-43.5 136v336h91v-327q0 -116 95 -116q52 0 90.5 40t38.5 117v286h91v-506h-89v72q-41 -87 -148 -87zM161 578l101 122h110l-127 -122h-84zM334 578l101 122h110l-127 -122h-84z" />
    <glyph glyph-name="Uogonek" unicode="&#x172;" horiz-adv-x="692" 
d="M88 255v445h95v-431q0 -94 42 -145.5t121 -51.5t121 51.5t42 145.5v431h95v-445q0 -81 -28.5 -135.5t-87.5 -102.5q-63 -53 -82 -74.5t-19 -46.5q0 -21 14.5 -32.5t37.5 -11.5q28 0 64 16v-53q-43 -20 -90 -20q-44 0 -74.5 21t-30.5 62q0 62 93 113q-30 -6 -55 -6
q-116 0 -187 73t-71 197z" />
    <glyph glyph-name="uogonek" unicode="&#x173;" horiz-adv-x="566" 
d="M246 -15q-82 0 -125.5 49t-43.5 136v336h91v-327q0 -116 95 -116q52 0 90.5 40t38.5 117v286h91v-506q-53 -21 -85.5 -48t-32.5 -55q0 -20 14.5 -30.5t38.5 -10.5q32 0 63 14v-59q-36 -16 -86 -16q-46 0 -77.5 20.5t-31.5 60.5t36 72t87 52h-15v72q-41 -87 -148 -87z" />
    <glyph glyph-name="Wcircumflex" unicode="&#x174;" horiz-adv-x="918" 
d="M211 0l-181 700h97l142 -569l132 569h120l132 -568l139 568h96l-180 -700h-108l-142 586l-140 -586h-107zM297 760l115 112h96l117 -112h-87l-76 54l-77 -54h-88z" />
    <glyph glyph-name="wcircumflex" unicode="&#x175;" horiz-adv-x="773" 
d="M172 0l-148 506h98l106 -400l107 400h108l108 -399l104 399h94l-147 -506h-102l-114 402l-113 -402h-101zM225 578l115 122h96l117 -122h-88l-76 61l-76 -61h-88z" />
    <glyph glyph-name="Ycircumflex" unicode="&#x176;" horiz-adv-x="595" 
d="M250 0v299l-242 401h110l118 -204q61 -108 66 -117h2q36 71 64 120l114 201h106l-243 -403v-297h-95zM136 760l115 112h96l117 -112h-87l-76 54l-77 -54h-88z" />
    <glyph glyph-name="ycircumflex" unicode="&#x177;" horiz-adv-x="510" 
d="M117 -204q-21 0 -46 3v78q19 -4 41 -4q44 0 69 22.5t25 63.5q0 25 -18 76l-169 471h99l108 -322q20 -56 34 -112h2q13 51 33 111l101 323h93l-180 -539q-31 -89 -55 -117q-44 -54 -137 -54zM95 578l115 122h96l117 -122h-88l-76 61l-76 -61h-88z" />
    <glyph glyph-name="Ydieresis" unicode="&#x178;" horiz-adv-x="595" 
d="M250 0v299l-242 401h110l118 -204q61 -108 66 -117h2q36 71 64 120l114 201h106l-243 -403v-297h-95zM126 760v110h112v-110h-112zM362 760v110h112v-110h-112z" />
    <glyph glyph-name="Zacute" unicode="&#x179;" horiz-adv-x="600" 
d="M43 0v90l399 525h-389v85h494v-90l-399 -525h409v-85h-514zM258 760l105 112h117l-135 -112h-87z" />
    <glyph glyph-name="zacute" unicode="&#x17a;" horiz-adv-x="472" 
d="M47 0v82l276 346h-276v78h375v-82l-277 -346h282v-78h-380zM192 578l106 122h116l-134 -122h-88z" />
    <glyph glyph-name="Zdotaccent" unicode="&#x17b;" horiz-adv-x="600" 
d="M43 0v90l399 525h-389v85h494v-90l-399 -525h409v-85h-514zM244 760v110h111v-110h-111z" />
    <glyph glyph-name="zdotaccent" unicode="&#x17c;" horiz-adv-x="472" 
d="M47 0v82l276 346h-276v78h375v-82l-277 -346h282v-78h-380zM181 578v109h108v-109h-108z" />
    <glyph glyph-name="Zcaron" unicode="&#x17d;" horiz-adv-x="600" 
d="M43 0v90l399 525h-389v85h494v-90l-399 -525h409v-85h-514zM110 872h87l77 -54l76 54h88l-115 -112h-96z" />
    <glyph glyph-name="zcaron" unicode="&#x17e;" horiz-adv-x="472" 
d="M47 0v82l276 346h-276v78h375v-82l-277 -346h282v-78h-380zM72 700h88l76 -61l76 61h88l-115 -122h-96z" />
    <glyph glyph-name="florin" unicode="&#x192;" horiz-adv-x="445" 
d="M82 -191q-29 0 -54 4v74q26 -2 40 -2q61 0 84 23.5t24 81.5l7 386h-113v78h115l1 74q3 175 186 175q20 0 43 -3v-74q-22 2 -33 2q-59 0 -80 -24.5t-22 -84.5l-1 -65h126v-78h-128l-7 -399q-1 -81 -52 -124.5t-136 -43.5z" />
    <glyph glyph-name="Ohorn" unicode="&#x1a0;" horiz-adv-x="800" 
d="M400 -15q-145 0 -247 103.5t-102 261.5t102 261.5t247 103.5q53 0 101 -15q50 2 72.5 27.5t18.5 78.5h75q10 -103 -82 -144q75 -48 119.5 -129.5t44.5 -182.5q0 -158 -102 -261.5t-247 -103.5zM150 350q0 -127 69 -204t181 -77t181 77t69 204t-69 204t-181 77t-181 -77
t-69 -204z" />
    <glyph glyph-name="ohorn" unicode="&#x1a1;" horiz-adv-x="588" 
d="M294 -15q-109 0 -179 76t-70 192t70 192t179 76q45 0 85 -14q39 4 54.5 30.5t11.5 84.5h75q11 -114 -71 -154q94 -78 94 -215q0 -116 -70.5 -192t-178.5 -76zM138 253q0 -89 43 -140.5t113 -51.5t113 51.5t43 140.5t-43 140.5t-113 51.5t-113 -51.5t-43 -140.5z" />
    <glyph glyph-name="Uhorn" unicode="&#x1af;" horiz-adv-x="704" 
d="M346 -15q-116 0 -187 73t-71 197v445h95v-431q0 -94 42 -145.5t121 -51.5t121 51.5t42 145.5v431h28q48 0 67 25t15 81h75q6 -57 -18 -96.5t-72 -55.5v-399q0 -124 -71.5 -197t-186.5 -73z" />
    <glyph glyph-name="uhorn" unicode="&#x1b0;" horiz-adv-x="578" 
d="M246 -15q-82 0 -125.5 49t-43.5 136v336h91v-327q0 -116 95 -116q52 0 90.5 40t38.5 117v286h24q48 0 67 26.5t15 89.5h75q6 -63 -17.5 -104.5t-72.5 -57.5v-460h-89v72q-41 -87 -148 -87z" />
    <glyph glyph-name="uni0218" unicode="&#x218;" horiz-adv-x="661" 
d="M339 -15q-128 0 -206.5 63t-90.5 167h100q13 -70 64 -109t135 -39q79 0 127.5 35t48.5 88q0 44 -34 69t-119 46l-86 21q-113 28 -163.5 71.5t-50.5 120.5q0 83 74.5 140t183.5 57q115 0 186.5 -51.5t87.5 -133.5h-98q-15 49 -60 77t-116 28t-116 -32t-45 -83
q0 -41 30 -61.5t112 -41.5l85 -22q122 -32 175 -76t53 -116q0 -94 -77.5 -156t-199.5 -62zM274 -277q51 63 54 119h-48v98h99v-68q0 -87 -47 -149h-58z" />
    <glyph glyph-name="uni0219" unicode="&#x219;" horiz-adv-x="520" 
d="M272 -15q-100 0 -162.5 46t-72.5 119h98q10 -41 46 -65.5t93 -24.5q49 0 80.5 21t31.5 56q0 30 -24.5 47t-84.5 30l-59 13q-81 18 -122 52t-41 92q0 62 54.5 105.5t142.5 43.5q89 0 144.5 -42.5t66.5 -107.5h-88q-25 76 -123 76q-46 0 -74.5 -19t-28.5 -51
q0 -26 19.5 -40.5t62.5 -24.5l67 -16q96 -22 139.5 -56.5t43.5 -94.5q0 -70 -60 -114.5t-149 -44.5zM208 -277q51 63 54 119h-48v98h99v-68q0 -87 -47 -149h-58z" />
    <glyph glyph-name="uni021A" unicode="&#x21a;" horiz-adv-x="532" 
d="M219 0v614h-194v86h482v-86h-193v-614h-95zM211 -277q51 63 54 119h-48v98h99v-68q0 -87 -47 -149h-58z" />
    <glyph glyph-name="uni021B" unicode="&#x21b;" horiz-adv-x="339" 
d="M241 -5q-61 0 -98 34t-37 105v299h-86v73h86v149h90v-149h102v-73h-102v-280q0 -44 16 -64t53 -20q20 0 43 4v-70q-29 -8 -67 -8zM148 -277q51 63 54 119h-48v98h99v-68q0 -87 -47 -149h-58z" />
    <glyph glyph-name="uni0232" unicode="&#x232;" horiz-adv-x="595" 
d="M250 0v299l-242 401h110l118 -204q61 -108 66 -117h2q36 71 64 120l114 201h106l-243 -403v-297h-95zM125 776v73h350v-73h-350z" />
    <glyph glyph-name="uni0233" unicode="&#x233;" horiz-adv-x="510" 
d="M117 -204q-21 0 -46 3v78q19 -4 41 -4q44 0 69 22.5t25 63.5q0 25 -18 76l-169 471h99l108 -322q20 -56 34 -112h2q13 51 33 111l101 323h93l-180 -539q-31 -89 -55 -117q-44 -54 -137 -54zM105 589v68h310v-68h-310z" />
    <glyph glyph-name="uni0237" unicode="&#x237;" horiz-adv-x="257" 
d="M46 -185q-21 0 -39 3v67q8 -2 18 -2q58 0 58 85v538h91v-541q0 -150 -128 -150z" />
    <glyph glyph-name="circumflex" unicode="&#x2c6;" horiz-adv-x="600" 
d="M23 578l115 122h96l117 -122h-88l-76 61l-76 -61h-88z" />
    <glyph glyph-name="caron" unicode="&#x2c7;" horiz-adv-x="600" 
d="M351 700l-115 -122h-96l-117 122h88l76 -61l76 61h88z" />
    <glyph glyph-name="breve" unicode="&#x2d8;" horiz-adv-x="600" 
d="M181 570q-68 0 -112 37t-45 98h80q2 -33 22.5 -52.5t54.5 -19.5t54.5 19.5t22.5 52.5h80q-1 -62 -44.5 -98.5t-112.5 -36.5z" />
    <glyph glyph-name="dotaccent" unicode="&#x2d9;" horiz-adv-x="600" 
d="M23 578v109h108v-109h-108z" />
    <glyph glyph-name="ring" unicode="&#x2da;" horiz-adv-x="600" 
d="M108 560q-38 0 -64.5 23t-26.5 60q0 36 26.5 59.5t64.5 23.5t64.5 -23.5t26.5 -59.5q0 -37 -26.5 -60t-64.5 -23zM67 643q0 -18 11 -28.5t30 -10.5t30.5 11t11.5 28t-11.5 28t-30.5 11t-30 -11t-11 -28z" />
    <glyph glyph-name="ogonek" unicode="&#x2db;" horiz-adv-x="600" 
d="M143 -205q-46 0 -77.5 20.5t-31.5 60.5q0 51 57 89t118 51l22 -16q-53 -21 -85.5 -48t-32.5 -55q0 -20 14.5 -30.5t38.5 -10.5q32 0 63 14v-59q-36 -16 -86 -16z" />
    <glyph glyph-name="tilde" unicode="&#x2dc;" horiz-adv-x="600" 
d="M20 578q0 54 28.5 82.5t70.5 28.5q34 0 74.5 -26.5t53.5 -26.5q17 0 23 11t7 32h78q0 -55 -28 -83t-69 -28q-34 0 -75 26.5t-54 26.5q-17 0 -23.5 -11t-7.5 -32h-78z" />
    <glyph glyph-name="hungarumlaut" unicode="&#x2dd;" horiz-adv-x="600" 
d="M197 578l101 122h110l-127 -122h-84zM24 578l101 122h110l-127 -122h-84z" />
    <glyph glyph-name="uni0394" unicode="&#x394;" horiz-adv-x="688" 
d="M26 0v92l259 608h117l260 -608v-92h-636zM115 82h456l-228 536z" />
    <glyph glyph-name="uni03A9" unicode="&#x3a9;" horiz-adv-x="821" 
d="M80 0v82h128q-148 99 -148 283q0 152 101.5 251t249.5 99t248.5 -99t100.5 -251q0 -184 -148 -283h128v-82h-277v73q89 18 144.5 95t55.5 192q0 121 -69.5 197t-183.5 76q-113 0 -183 -76t-70 -197q0 -115 55.5 -192t144.5 -95v-73h-277z" />
    <glyph glyph-name="uni03BC" unicode="&#x3bc;" horiz-adv-x="572" 
d="M83 -195v701h91v-327q0 -116 95 -116q52 0 90.5 40t38.5 117v286h91v-506h-89v72q-41 -87 -148 -87q-45 0 -78 15v-195h-91z" />
    <glyph glyph-name="pi" unicode="&#x3c0;" horiz-adv-x="651" 
d="M536 -5q-58 0 -94.5 35t-36.5 105v297h-188v-432h-91v432h-107v73h594v-73h-117v-277q0 -53 22.5 -71.5t79.5 -10.5v-70q-26 -8 -62 -8z" />
    <glyph glyph-name="uni0E3F" unicode="&#xe3f;" horiz-adv-x="616" 
d="M95 0v700h181v95h78v-97q89 -8 141.5 -55.5t52.5 -124.5q0 -57 -32 -98.5t-83 -55.5q58 -14 96.5 -58t38.5 -111q0 -83 -59.5 -134.5t-154.5 -59.5v-96h-78v95h-181zM190 80h86v239h-86v-239zM190 397h86v223h-86v-223zM354 83q57 7 87 37.5t30 79.5q0 48 -30 78t-87 38
v-233zM354 400q47 9 72.5 37.5t25.5 71.5q0 92 -98 108v-217z" />
    <glyph glyph-name="Wgrave" unicode="&#x1e80;" horiz-adv-x="918" 
d="M211 0l-181 700h97l142 -569l132 569h120l132 -568l139 568h96l-180 -700h-108l-142 586l-140 -586h-107zM279 872h117l105 -112h-87z" />
    <glyph glyph-name="wgrave" unicode="&#x1e81;" horiz-adv-x="773" 
d="M172 0l-148 506h98l106 -400l107 400h108l108 -399l104 399h94l-147 -506h-102l-114 402l-113 -402h-101zM210 700h116l105 -122h-88z" />
    <glyph glyph-name="Wacute" unicode="&#x1e82;" horiz-adv-x="918" 
d="M211 0l-181 700h97l142 -569l132 569h120l132 -568l139 568h96l-180 -700h-108l-142 586l-140 -586h-107zM418 760l105 112h117l-135 -112h-87z" />
    <glyph glyph-name="wacute" unicode="&#x1e83;" horiz-adv-x="773" 
d="M172 0l-148 506h98l106 -400l107 400h108l108 -399l104 399h94l-147 -506h-102l-114 402l-113 -402h-101zM347 578l106 122h116l-134 -122h-88z" />
    <glyph glyph-name="Wdieresis" unicode="&#x1e84;" horiz-adv-x="918" 
d="M211 0l-181 700h97l142 -569l132 569h120l132 -568l139 568h96l-180 -700h-108l-142 586l-140 -586h-107zM287 760v110h112v-110h-112zM523 760v110h112v-110h-112z" />
    <glyph glyph-name="wdieresis" unicode="&#x1e85;" horiz-adv-x="773" 
d="M172 0l-148 506h98l106 -400l107 400h108l108 -399l104 399h94l-147 -506h-102l-114 402l-113 -402h-101zM251 578v104h97v-104h-97zM432 578v104h97v-104h-97z" />
    <glyph glyph-name="uni1E9E" unicode="&#x1e9e;" horiz-adv-x="662" 
d="M95 0v700h256q107 0 171 -49t64 -135q0 -58 -31.5 -99.5t-83.5 -56.5q58 -11 97 -55t39 -110q0 -93 -69 -146.5t-181 -53.5q-43 0 -75 6v78q27 -6 67 -6q77 0 119 33t42 93q0 54 -41 84.5t-116 30.5h-62v78h64q63 0 99 30t36 82q0 116 -151 116h-149v-620h-95z" />
    <glyph glyph-name="uni1EA0" unicode="&#x1ea0;" horiz-adv-x="660" 
d="M8 0l270 700h106l267 -700h-103l-59 161h-321l-60 -161h-100zM199 244h260l-57 155q-12 33 -33.5 91t-38.5 105h-1q-44 -121 -74 -201zM277 -181v109h107v-109h-107z" />
    <glyph glyph-name="uni1EA1" unicode="&#x1ea1;" horiz-adv-x="552" 
d="M220 -14q-73 0 -125.5 38t-52.5 112q0 34 12.5 60t31 42t47 27.5t54 17t58.5 9.5l32 4q64 8 86.5 23t22.5 50q0 37 -29 58.5t-78 21.5q-47 0 -76.5 -18t-38.5 -45h-101q12 54 68 94.5t148 40.5q100 0 148 -41.5t48 -116.5v-241q0 -62 16 -122h-91q-9 41 -10 72
q-21 -33 -63.5 -59.5t-106.5 -26.5zM138 140q0 -38 28.5 -58.5t72.5 -20.5q65 0 106 42.5t41 108.5v63q-13 -19 -39.5 -29.5t-81.5 -18.5q-66 -10 -96.5 -27.5t-30.5 -59.5zM224 -181v109h107v-109h-107z" />
    <glyph glyph-name="uni1EA2" unicode="&#x1ea2;" horiz-adv-x="660" 
d="M8 0l270 700h106l267 -700h-103l-59 161h-321l-60 -161h-100zM199 244h260l-57 155q-12 33 -33.5 91t-38.5 105h-1q-44 -121 -74 -201zM268 828v70q43 15 80 15q45 0 69 -22t24 -60q0 -78 -122 -100l-40 42q91 22 91 51q0 23 -34 23q-28 0 -68 -19z" />
    <glyph glyph-name="uni1EA3" unicode="&#x1ea3;" horiz-adv-x="552" 
d="M220 -14q-73 0 -125.5 38t-52.5 112q0 34 12.5 60t31 42t47 27.5t54 17t58.5 9.5l32 4q64 8 86.5 23t22.5 50q0 37 -29 58.5t-78 21.5q-47 0 -76.5 -18t-38.5 -45h-101q12 54 68 94.5t148 40.5q100 0 148 -41.5t48 -116.5v-241q0 -62 16 -122h-91q-9 41 -10 72
q-21 -33 -63.5 -59.5t-106.5 -26.5zM138 140q0 -38 28.5 -58.5t72.5 -20.5q65 0 106 42.5t41 108.5v63q-13 -19 -39.5 -29.5t-81.5 -18.5q-66 -10 -96.5 -27.5t-30.5 -59.5zM214 649v68q37 17 81 17q45 0 68.5 -22.5t23.5 -60.5q0 -82 -124 -105l-39 42q92 22 92 56
q0 24 -34 24q-32 0 -68 -19z" />
    <glyph glyph-name="uni1EA4" unicode="&#x1ea4;" horiz-adv-x="660" 
d="M8 0l270 700h106l267 -700h-103l-59 161h-321l-60 -161h-100zM168 760l115 112h96l117 -112h-87l-76 54l-77 -54h-88zM199 244h260l-57 155q-12 33 -33.5 91t-38.5 105h-1q-44 -121 -74 -201zM422 881l105 112h117l-135 -112h-87z" />
    <glyph glyph-name="uni1EA5" unicode="&#x1ea5;" horiz-adv-x="552" 
d="M220 -14q-73 0 -125.5 38t-52.5 112q0 34 12.5 60t31 42t47 27.5t54 17t58.5 9.5l32 4q64 8 86.5 23t22.5 50q0 37 -29 58.5t-78 21.5q-47 0 -76.5 -18t-38.5 -45h-101q12 54 68 94.5t148 40.5q100 0 148 -41.5t48 -116.5v-241q0 -62 16 -122h-91q-9 41 -10 72
q-21 -33 -63.5 -59.5t-106.5 -26.5zM113 578l115 122h96l117 -122h-88l-76 61l-76 -61h-88zM138 140q0 -38 28.5 -58.5t72.5 -20.5q65 0 106 42.5t41 108.5v63q-13 -19 -39.5 -29.5t-81.5 -18.5q-66 -10 -96.5 -27.5t-30.5 -59.5zM367 711l106 122h116l-134 -122h-88z" />
    <glyph glyph-name="uni1EA6" unicode="&#x1ea6;" horiz-adv-x="660" 
d="M8 0l270 700h106l267 -700h-103l-59 161h-321l-60 -161h-100zM168 760l115 112h96l117 -112h-87l-76 54l-77 -54h-88zM199 244h260l-57 155q-12 33 -33.5 91t-38.5 105h-1q-44 -121 -74 -201zM283 993h117l105 -112h-87z" />
    <glyph glyph-name="uni1EA7" unicode="&#x1ea7;" horiz-adv-x="552" 
d="M220 -14q-73 0 -125.5 38t-52.5 112q0 34 12.5 60t31 42t47 27.5t54 17t58.5 9.5l32 4q64 8 86.5 23t22.5 50q0 37 -29 58.5t-78 21.5q-47 0 -76.5 -18t-38.5 -45h-101q12 54 68 94.5t148 40.5q100 0 148 -41.5t48 -116.5v-241q0 -62 16 -122h-91q-9 41 -10 72
q-21 -33 -63.5 -59.5t-106.5 -26.5zM113 578l115 122h96l117 -122h-88l-76 61l-76 -61h-88zM138 140q0 -38 28.5 -58.5t72.5 -20.5q65 0 106 42.5t41 108.5v63q-13 -19 -39.5 -29.5t-81.5 -18.5q-66 -10 -96.5 -27.5t-30.5 -59.5zM230 833h116l105 -122h-88z" />
    <glyph glyph-name="uni1EA8" unicode="&#x1ea8;" horiz-adv-x="660" 
d="M8 0l270 700h106l267 -700h-103l-59 161h-321l-60 -161h-100zM168 760l115 112h96l117 -112h-87l-76 54l-77 -54h-88zM199 244h260l-57 155q-12 33 -33.5 91t-38.5 105h-1q-44 -121 -74 -201zM401 949v70q43 15 80 15q45 0 69 -22t24 -60q0 -78 -122 -100l-40 42
q91 22 91 51q0 23 -34 23q-28 0 -68 -19z" />
    <glyph glyph-name="uni1EA9" unicode="&#x1ea9;" horiz-adv-x="552" 
d="M220 -14q-73 0 -125.5 38t-52.5 112q0 34 12.5 60t31 42t47 27.5t54 17t58.5 9.5l32 4q64 8 86.5 23t22.5 50q0 37 -29 58.5t-78 21.5q-47 0 -76.5 -18t-38.5 -45h-101q12 54 68 94.5t148 40.5q100 0 148 -41.5t48 -116.5v-241q0 -62 16 -122h-91q-9 41 -10 72
q-21 -33 -63.5 -59.5t-106.5 -26.5zM113 578l115 122h96l117 -122h-88l-76 61l-76 -61h-88zM138 140q0 -38 28.5 -58.5t72.5 -20.5q65 0 106 42.5t41 108.5v63q-13 -19 -39.5 -29.5t-81.5 -18.5q-66 -10 -96.5 -27.5t-30.5 -59.5zM346 782v68q37 17 81 17q45 0 68.5 -22.5
t23.5 -60.5q0 -82 -124 -105l-39 42q92 22 92 56q0 24 -34 24q-32 0 -68 -19z" />
    <glyph glyph-name="uni1EAA" unicode="&#x1eaa;" horiz-adv-x="660" 
d="M8 0l270 700h106l267 -700h-103l-59 161h-321l-60 -161h-100zM163 920q0 54 28.5 82.5t70.5 28.5q34 0 74.5 -26.5t53.5 -26.5q17 0 23 11t7 32h78q0 -55 -28 -83t-69 -28q-35 0 -75 26.5t-54 26.5q-17 0 -23.5 -11t-7.5 -32h-78zM167 760l115 112h96l117 -112h-87
l-76 54l-77 -54h-88zM199 244h260l-57 155q-12 33 -33.5 91t-38.5 105h-1q-44 -121 -74 -201z" />
    <glyph glyph-name="uni1EAB" unicode="&#x1eab;" horiz-adv-x="552" 
d="M220 -14q-73 0 -125.5 38t-52.5 112q0 34 12.5 60t31 42t47 27.5t54 17t58.5 9.5l32 4q64 8 86.5 23t22.5 50q0 37 -29 58.5t-78 21.5q-47 0 -76.5 -18t-38.5 -45h-101q12 54 68 94.5t148 40.5q100 0 148 -41.5t48 -116.5v-241q0 -62 16 -122h-91q-9 41 -10 72
q-21 -33 -63.5 -59.5t-106.5 -26.5zM108 752q0 54 28.5 82.5t70.5 28.5q34 0 74.5 -26.5t53.5 -26.5q17 0 23 11t7 32h78q0 -55 -28 -83t-69 -28q-34 0 -75 26.5t-54 26.5q-17 0 -23.5 -11t-7.5 -32h-78zM113 578l115 122h96l117 -122h-88l-76 61l-76 -61h-88zM138 140
q0 -38 28.5 -58.5t72.5 -20.5q65 0 106 42.5t41 108.5v63q-13 -19 -39.5 -29.5t-81.5 -18.5q-66 -10 -96.5 -27.5t-30.5 -59.5z" />
    <glyph glyph-name="uni1EAC" unicode="&#x1eac;" horiz-adv-x="660" 
d="M8 0l270 700h106l267 -700h-103l-59 161h-321l-60 -161h-100zM168 760l115 112h96l117 -112h-87l-76 54l-77 -54h-88zM199 244h260l-57 155q-12 33 -33.5 91t-38.5 105h-1q-44 -121 -74 -201zM277 -181v109h107v-109h-107z" />
    <glyph glyph-name="uni1EAD" unicode="&#x1ead;" horiz-adv-x="552" 
d="M220 -14q-73 0 -125.5 38t-52.5 112q0 34 12.5 60t31 42t47 27.5t54 17t58.5 9.5l32 4q64 8 86.5 23t22.5 50q0 37 -29 58.5t-78 21.5q-47 0 -76.5 -18t-38.5 -45h-101q12 54 68 94.5t148 40.5q100 0 148 -41.5t48 -116.5v-241q0 -62 16 -122h-91q-9 41 -10 72
q-21 -33 -63.5 -59.5t-106.5 -26.5zM113 578l115 122h96l117 -122h-88l-76 61l-76 -61h-88zM138 140q0 -38 28.5 -58.5t72.5 -20.5q65 0 106 42.5t41 108.5v63q-13 -19 -39.5 -29.5t-81.5 -18.5q-66 -10 -96.5 -27.5t-30.5 -59.5zM224 -181v109h107v-109h-107z" />
    <glyph glyph-name="uni1EAE" unicode="&#x1eae;" horiz-adv-x="660" 
d="M8 0l270 700h106l267 -700h-103l-59 161h-321l-60 -161h-100zM174 872h81q2 -29 22.5 -45.5t53.5 -16.5q34 0 54.5 16.5t22.5 45.5h80q-1 -57 -44.5 -91t-112.5 -34q-67 0 -111.5 34t-45.5 91zM199 244h260l-57 155q-12 33 -33.5 91t-38.5 105h-1q-44 -121 -74 -201z
M289 902l105 112h117l-135 -112h-87z" />
    <glyph glyph-name="uni1EAF" unicode="&#x1eaf;" horiz-adv-x="552" 
d="M220 -14q-73 0 -125.5 38t-52.5 112q0 34 12.5 60t31 42t47 27.5t54 17t58.5 9.5l32 4q64 8 86.5 23t22.5 50q0 37 -29 58.5t-78 21.5q-47 0 -76.5 -18t-38.5 -45h-101q12 54 68 94.5t148 40.5q100 0 148 -41.5t48 -116.5v-241q0 -62 16 -122h-91q-9 41 -10 72
q-21 -33 -63.5 -59.5t-106.5 -26.5zM120 705h80q2 -33 22.5 -52.5t54.5 -19.5t54.5 19.5t22.5 52.5h80q-1 -62 -44.5 -98.5t-112.5 -36.5q-68 0 -112 37t-45 98zM138 140q0 -38 28.5 -58.5t72.5 -20.5q65 0 106 42.5t41 108.5v63q-13 -19 -39.5 -29.5t-81.5 -18.5
q-66 -10 -96.5 -27.5t-30.5 -59.5zM234 751l106 122h116l-134 -122h-88z" />
    <glyph glyph-name="uni1EB0" unicode="&#x1eb0;" horiz-adv-x="660" 
d="M8 0l270 700h106l267 -700h-103l-59 161h-321l-60 -161h-100zM151 1014h117l105 -112h-87zM175 872h81q2 -29 22.5 -45.5t53.5 -16.5q34 0 54.5 16.5t22.5 45.5h80q-1 -57 -44.5 -91t-112.5 -34q-67 0 -111.5 34t-45.5 91zM199 244h260l-57 155q-12 33 -33.5 91
t-38.5 105h-1q-44 -121 -74 -201z" />
    <glyph glyph-name="uni1EB1" unicode="&#x1eb1;" horiz-adv-x="552" 
d="M220 -14q-73 0 -125.5 38t-52.5 112q0 34 12.5 60t31 42t47 27.5t54 17t58.5 9.5l32 4q64 8 86.5 23t22.5 50q0 37 -29 58.5t-78 21.5q-47 0 -76.5 -18t-38.5 -45h-101q12 54 68 94.5t148 40.5q100 0 148 -41.5t48 -116.5v-241q0 -62 16 -122h-91q-9 41 -10 72
q-21 -33 -63.5 -59.5t-106.5 -26.5zM97 873h116l105 -122h-88zM120 705h80q2 -33 22.5 -52.5t54.5 -19.5t54.5 19.5t22.5 52.5h80q-1 -62 -44.5 -98.5t-112.5 -36.5q-68 0 -112 37t-45 98zM138 140q0 -38 28.5 -58.5t72.5 -20.5q65 0 106 42.5t41 108.5v63
q-13 -19 -39.5 -29.5t-81.5 -18.5q-66 -10 -96.5 -27.5t-30.5 -59.5z" />
    <glyph glyph-name="uni1EB2" unicode="&#x1eb2;" horiz-adv-x="660" 
d="M8 0l270 700h106l267 -700h-103l-59 161h-321l-60 -161h-100zM174 872h81q2 -29 22.5 -45.5t53.5 -16.5q34 0 54.5 16.5t22.5 45.5h80q-1 -57 -44.5 -91t-112.5 -34q-67 0 -111.5 34t-45.5 91zM199 244h260l-57 155q-12 33 -33.5 91t-38.5 105h-1q-44 -121 -74 -201z
M268 970v70q43 15 80 15q45 0 69 -22t24 -60q0 -78 -122 -100l-40 42q91 22 91 51q0 23 -34 23q-28 0 -68 -19z" />
    <glyph glyph-name="uni1EB3" unicode="&#x1eb3;" horiz-adv-x="552" 
d="M220 -14q-73 0 -125.5 38t-52.5 112q0 34 12.5 60t31 42t47 27.5t54 17t58.5 9.5l32 4q64 8 86.5 23t22.5 50q0 37 -29 58.5t-78 21.5q-47 0 -76.5 -18t-38.5 -45h-101q12 54 68 94.5t148 40.5q100 0 148 -41.5t48 -116.5v-241q0 -62 16 -122h-91q-9 41 -10 72
q-21 -33 -63.5 -59.5t-106.5 -26.5zM120 705h80q2 -33 22.5 -52.5t54.5 -19.5t54.5 19.5t22.5 52.5h80q-1 -62 -44.5 -98.5t-112.5 -36.5q-68 0 -112 37t-45 98zM138 140q0 -38 28.5 -58.5t72.5 -20.5q65 0 106 42.5t41 108.5v63q-13 -19 -39.5 -29.5t-81.5 -18.5
q-66 -10 -96.5 -27.5t-30.5 -59.5zM214 822v68q37 17 81 17q45 0 68.5 -22.5t23.5 -60.5q0 -82 -124 -105l-39 42q92 22 92 56q0 24 -34 24q-32 0 -68 -19z" />
    <glyph glyph-name="uni1EB4" unicode="&#x1eb4;" horiz-adv-x="660" 
d="M8 0l270 700h106l267 -700h-103l-59 161h-321l-60 -161h-100zM163 920q0 54 28.5 82.5t70.5 28.5q34 0 74.5 -26.5t53.5 -26.5q17 0 23 11t7 32h78q0 -55 -28 -83t-69 -28q-35 0 -75 26.5t-54 26.5q-17 0 -23.5 -11t-7.5 -32h-78zM174 872h81q2 -29 22.5 -45.5
t53.5 -16.5q34 0 54.5 16.5t22.5 45.5h80q-1 -57 -44.5 -91t-112.5 -34q-67 0 -111.5 34t-45.5 91zM199 244h260l-57 155q-12 33 -33.5 91t-38.5 105h-1q-44 -121 -74 -201z" />
    <glyph glyph-name="uni1EB5" unicode="&#x1eb5;" horiz-adv-x="552" 
d="M220 -14q-73 0 -125.5 38t-52.5 112q0 34 12.5 60t31 42t47 27.5t54 17t58.5 9.5l32 4q64 8 86.5 23t22.5 50q0 37 -29 58.5t-78 21.5q-47 0 -76.5 -18t-38.5 -45h-101q12 54 68 94.5t148 40.5q100 0 148 -41.5t48 -116.5v-241q0 -62 16 -122h-91q-9 41 -10 72
q-21 -33 -63.5 -59.5t-106.5 -26.5zM109 761q0 54 28.5 82.5t70.5 28.5q34 0 74.5 -26.5t53.5 -26.5q17 0 23 11t7 32h78q0 -55 -28 -83t-69 -28q-35 0 -75 26.5t-54 26.5q-17 0 -23.5 -11t-7.5 -32h-78zM121 705h80q2 -33 22.5 -52.5t54.5 -19.5t54.5 19.5t22.5 52.5h80
q-1 -62 -44.5 -98.5t-112.5 -36.5q-68 0 -112 37t-45 98zM138 140q0 -38 28.5 -58.5t72.5 -20.5q65 0 106 42.5t41 108.5v63q-13 -19 -39.5 -29.5t-81.5 -18.5q-66 -10 -96.5 -27.5t-30.5 -59.5z" />
    <glyph glyph-name="uni1EB6" unicode="&#x1eb6;" horiz-adv-x="660" 
d="M8 0l270 700h106l267 -700h-103l-59 161h-321l-60 -161h-100zM174 872h81q2 -29 22.5 -45.5t53.5 -16.5q34 0 54.5 16.5t22.5 45.5h80q-1 -57 -44.5 -91t-112.5 -34q-67 0 -111.5 34t-45.5 91zM199 244h260l-57 155q-12 33 -33.5 91t-38.5 105h-1q-44 -121 -74 -201z
M277 -181v109h107v-109h-107z" />
    <glyph glyph-name="uni1EB7" unicode="&#x1eb7;" horiz-adv-x="552" 
d="M220 -14q-73 0 -125.5 38t-52.5 112q0 34 12.5 60t31 42t47 27.5t54 17t58.5 9.5l32 4q64 8 86.5 23t22.5 50q0 37 -29 58.5t-78 21.5q-47 0 -76.5 -18t-38.5 -45h-101q12 54 68 94.5t148 40.5q100 0 148 -41.5t48 -116.5v-241q0 -62 16 -122h-91q-9 41 -10 72
q-21 -33 -63.5 -59.5t-106.5 -26.5zM121 705h80q2 -33 22.5 -52.5t54.5 -19.5t54.5 19.5t22.5 52.5h80q-1 -62 -44.5 -98.5t-112.5 -36.5q-68 0 -112 37t-45 98zM138 140q0 -38 28.5 -58.5t72.5 -20.5q65 0 106 42.5t41 108.5v63q-13 -19 -39.5 -29.5t-81.5 -18.5
q-66 -10 -96.5 -27.5t-30.5 -59.5zM224 -181v109h107v-109h-107z" />
    <glyph glyph-name="uni1EB8" unicode="&#x1eb8;" horiz-adv-x="620" 
d="M95 0v700h468v-84h-373v-213h318v-85h-318v-234h378v-84h-473zM278 -181v109h107v-109h-107z" />
    <glyph glyph-name="uni1EB9" unicode="&#x1eb9;" horiz-adv-x="576" 
d="M299 -15q-116 0 -184.5 72.5t-68.5 194.5q0 118 71.5 193.5t172.5 75.5q113 0 178 -77.5t66 -214.5h-395q4 -75 48.5 -121.5t113.5 -46.5q90 0 123 69h99q-19 -64 -77.5 -104.5t-146.5 -40.5zM141 304h301q-10 66 -49.5 103t-101.5 37q-58 0 -99.5 -38.5t-50.5 -101.5z
M242 -181v109h107v-109h-107z" />
    <glyph glyph-name="uni1EBA" unicode="&#x1eba;" horiz-adv-x="620" 
d="M95 0v700h468v-84h-373v-213h318v-85h-318v-234h378v-84h-473zM265 828v70q43 15 80 15q45 0 69 -22t24 -60q0 -78 -122 -100l-40 42q91 22 91 51q0 23 -34 23q-28 0 -68 -19z" />
    <glyph glyph-name="uni1EBB" unicode="&#x1ebb;" horiz-adv-x="576" 
d="M299 -15q-116 0 -184.5 72.5t-68.5 194.5q0 118 71.5 193.5t172.5 75.5q113 0 178 -77.5t66 -214.5h-395q4 -75 48.5 -121.5t113.5 -46.5q90 0 123 69h99q-19 -64 -77.5 -104.5t-146.5 -40.5zM141 304h301q-10 66 -49.5 103t-101.5 37q-58 0 -99.5 -38.5t-50.5 -101.5z
M227 649v68q37 17 81 17q45 0 68.5 -22.5t23.5 -60.5q0 -82 -124 -105l-39 42q92 22 92 56q0 24 -34 24q-32 0 -68 -19z" />
    <glyph glyph-name="uni1EBC" unicode="&#x1ebc;" horiz-adv-x="620" 
d="M95 0v700h468v-84h-373v-213h318v-85h-318v-234h378v-84h-473zM161 770q0 54 28.5 82.5t70.5 28.5q34 0 74.5 -26.5t53.5 -26.5q17 0 23 11t7 32h78q0 -55 -28 -83t-69 -28q-35 0 -75 26.5t-54 26.5q-17 0 -23.5 -11t-7.5 -32h-78z" />
    <glyph glyph-name="uni1EBD" unicode="&#x1ebd;" horiz-adv-x="576" 
d="M299 -15q-116 0 -184.5 72.5t-68.5 194.5q0 118 71.5 193.5t172.5 75.5q113 0 178 -77.5t66 -214.5h-395q4 -75 48.5 -121.5t113.5 -46.5q90 0 123 69h99q-19 -64 -77.5 -104.5t-146.5 -40.5zM122 578q0 54 28.5 82.5t70.5 28.5q34 0 74.5 -26.5t53.5 -26.5q17 0 23 11
t7 32h78q0 -55 -28 -83t-69 -28q-34 0 -75 26.5t-54 26.5q-17 0 -23.5 -11t-7.5 -32h-78zM141 304h301q-10 66 -49.5 103t-101.5 37q-58 0 -99.5 -38.5t-50.5 -101.5z" />
    <glyph glyph-name="uni1EBE" unicode="&#x1ebe;" horiz-adv-x="620" 
d="M95 0v700h468v-84h-373v-213h318v-85h-318v-234h378v-84h-473zM165 760l115 112h96l117 -112h-87l-76 54l-77 -54h-88zM419 881l105 112h117l-135 -112h-87z" />
    <glyph glyph-name="uni1EBF" unicode="&#x1ebf;" horiz-adv-x="576" 
d="M299 -15q-116 0 -184.5 72.5t-68.5 194.5q0 118 71.5 193.5t172.5 75.5q113 0 178 -77.5t66 -214.5h-395q4 -75 48.5 -121.5t113.5 -46.5q90 0 123 69h99q-19 -64 -77.5 -104.5t-146.5 -40.5zM126 578l115 122h96l117 -122h-88l-76 61l-76 -61h-88zM141 304h301
q-10 66 -49.5 103t-101.5 37q-58 0 -99.5 -38.5t-50.5 -101.5zM380 711l106 122h116l-134 -122h-88z" />
    <glyph glyph-name="uni1EC0" unicode="&#x1ec0;" horiz-adv-x="620" 
d="M95 0v700h468v-84h-373v-213h318v-85h-318v-234h378v-84h-473zM165 760l115 112h96l117 -112h-87l-76 54l-77 -54h-88zM280 993h117l105 -112h-87z" />
    <glyph glyph-name="uni1EC1" unicode="&#x1ec1;" horiz-adv-x="576" 
d="M299 -15q-116 0 -184.5 72.5t-68.5 194.5q0 118 71.5 193.5t172.5 75.5q113 0 178 -77.5t66 -214.5h-395q4 -75 48.5 -121.5t113.5 -46.5q90 0 123 69h99q-19 -64 -77.5 -104.5t-146.5 -40.5zM126 578l115 122h96l117 -122h-88l-76 61l-76 -61h-88zM141 304h301
q-10 66 -49.5 103t-101.5 37q-58 0 -99.5 -38.5t-50.5 -101.5zM243 833h116l105 -122h-88z" />
    <glyph glyph-name="uni1EC2" unicode="&#x1ec2;" horiz-adv-x="620" 
d="M95 0v700h468v-84h-373v-213h318v-85h-318v-234h378v-84h-473zM165 760l115 112h96l117 -112h-87l-76 54l-77 -54h-88zM398 949v70q43 15 80 15q45 0 69 -22t24 -60q0 -78 -122 -100l-40 42q91 22 91 51q0 23 -34 23q-28 0 -68 -19z" />
    <glyph glyph-name="uni1EC3" unicode="&#x1ec3;" horiz-adv-x="576" 
d="M299 -15q-116 0 -184.5 72.5t-68.5 194.5q0 118 71.5 193.5t172.5 75.5q113 0 178 -77.5t66 -214.5h-395q4 -75 48.5 -121.5t113.5 -46.5q90 0 123 69h99q-19 -64 -77.5 -104.5t-146.5 -40.5zM126 578l115 122h96l117 -122h-88l-76 61l-76 -61h-88zM141 304h301
q-10 66 -49.5 103t-101.5 37q-58 0 -99.5 -38.5t-50.5 -101.5zM359 782v68q37 17 81 17q45 0 68.5 -22.5t23.5 -60.5q0 -82 -124 -105l-39 42q92 22 92 56q0 24 -34 24q-32 0 -68 -19z" />
    <glyph glyph-name="uni1EC4" unicode="&#x1ec4;" horiz-adv-x="620" 
d="M95 0v700h468v-84h-373v-213h318v-85h-318v-234h378v-84h-473zM161 920q0 54 28.5 82.5t70.5 28.5q34 0 74.5 -26.5t53.5 -26.5q17 0 23 11t7 32h78q0 -55 -28 -83t-69 -28q-35 0 -75 26.5t-54 26.5q-17 0 -23.5 -11t-7.5 -32h-78zM165 760l115 112h96l117 -112h-87
l-76 54l-77 -54h-88z" />
    <glyph glyph-name="uni1EC5" unicode="&#x1ec5;" horiz-adv-x="576" 
d="M299 -15q-116 0 -184.5 72.5t-68.5 194.5q0 118 71.5 193.5t172.5 75.5q113 0 178 -77.5t66 -214.5h-395q4 -75 48.5 -121.5t113.5 -46.5q90 0 123 69h99q-19 -64 -77.5 -104.5t-146.5 -40.5zM121 752q0 54 28.5 82.5t70.5 28.5q34 0 74.5 -26.5t53.5 -26.5q17 0 23 11
t7 32h78q0 -55 -28 -83t-69 -28q-35 0 -75 26.5t-54 26.5q-17 0 -23.5 -11t-7.5 -32h-78zM126 578l115 122h96l117 -122h-88l-76 61l-76 -61h-88zM141 304h301q-10 66 -49.5 103t-101.5 37q-58 0 -99.5 -38.5t-50.5 -101.5z" />
    <glyph glyph-name="uni1EC6" unicode="&#x1ec6;" horiz-adv-x="620" 
d="M95 0v700h468v-84h-373v-213h318v-85h-318v-234h378v-84h-473zM165 760l115 112h96l117 -112h-87l-76 54l-77 -54h-88zM278 -181v109h107v-109h-107z" />
    <glyph glyph-name="uni1EC7" unicode="&#x1ec7;" horiz-adv-x="576" 
d="M299 -15q-116 0 -184.5 72.5t-68.5 194.5q0 118 71.5 193.5t172.5 75.5q113 0 178 -77.5t66 -214.5h-395q4 -75 48.5 -121.5t113.5 -46.5q90 0 123 69h99q-19 -64 -77.5 -104.5t-146.5 -40.5zM126 578l115 122h96l117 -122h-88l-76 61l-76 -61h-88zM141 304h301
q-10 66 -49.5 103t-101.5 37q-58 0 -99.5 -38.5t-50.5 -101.5zM242 -181v109h107v-109h-107z" />
    <glyph glyph-name="uni1EC8" unicode="&#x1ec8;" horiz-adv-x="285" 
d="M95 0v700h95v-700h-95zM79 828v70q43 15 80 15q45 0 69 -22t24 -60q0 -78 -122 -100l-40 42q91 22 91 51q0 23 -34 23q-28 0 -68 -19z" />
    <glyph glyph-name="uni1EC9" unicode="&#x1ec9;" horiz-adv-x="257" 
d="M83 0v506h91v-506h-91zM65 649v68q37 17 81 17q45 0 68.5 -22.5t23.5 -60.5q0 -82 -124 -105l-39 42q92 22 92 56q0 24 -34 24q-32 0 -68 -19z" />
    <glyph glyph-name="uni1ECA" unicode="&#x1eca;" horiz-adv-x="285" 
d="M95 0v700h95v-700h-95zM89 -181v109h107v-109h-107z" />
    <glyph glyph-name="uni1ECB" unicode="&#x1ecb;" horiz-adv-x="257" 
d="M83 0v506h91v-506h-91zM74 578v109h108v-109h-108zM75 -181v109h107v-109h-107z" />
    <glyph glyph-name="uni1ECC" unicode="&#x1ecc;" horiz-adv-x="800" 
d="M400 -15q-145 0 -247 103.5t-102 261.5t102 261.5t247 103.5t247 -103.5t102 -261.5t-102 -261.5t-247 -103.5zM150 350q0 -127 69 -204t181 -77t181 77t69 204t-69 204t-181 77t-181 -77t-69 -204zM346 -181v109h107v-109h-107z" />
    <glyph glyph-name="uni1ECD" unicode="&#x1ecd;" horiz-adv-x="588" 
d="M294 -15q-109 0 -179 76t-70 192t70 192t179 76q108 0 178.5 -76t70.5 -192t-70.5 -192t-178.5 -76zM138 253q0 -89 43 -140.5t113 -51.5t113 51.5t43 140.5t-43 140.5t-113 51.5t-113 -51.5t-43 -140.5zM240 -181v109h107v-109h-107z" />
    <glyph glyph-name="uni1ECE" unicode="&#x1ece;" horiz-adv-x="800" 
d="M400 -15q-145 0 -247 103.5t-102 261.5t102 261.5t247 103.5t247 -103.5t102 -261.5t-102 -261.5t-247 -103.5zM150 350q0 -127 69 -204t181 -77t181 77t69 204t-69 204t-181 77t-181 -77t-69 -204zM336 828v70q43 15 80 15q45 0 69 -22t24 -60q0 -78 -122 -100l-40 42
q91 22 91 51q0 23 -34 23q-28 0 -68 -19z" />
    <glyph glyph-name="uni1ECF" unicode="&#x1ecf;" horiz-adv-x="588" 
d="M294 -15q-109 0 -179 76t-70 192t70 192t179 76q108 0 178.5 -76t70.5 -192t-70.5 -192t-178.5 -76zM138 253q0 -89 43 -140.5t113 -51.5t113 51.5t43 140.5t-43 140.5t-113 51.5t-113 -51.5t-43 -140.5zM230 649v68q37 17 81 17q45 0 68.5 -22.5t23.5 -60.5
q0 -82 -124 -105l-39 42q92 22 92 56q0 24 -34 24q-32 0 -68 -19z" />
    <glyph glyph-name="uni1ED0" unicode="&#x1ed0;" horiz-adv-x="800" 
d="M400 -15q-145 0 -247 103.5t-102 261.5t102 261.5t247 103.5t247 -103.5t102 -261.5t-102 -261.5t-247 -103.5zM150 350q0 -127 69 -204t181 -77t181 77t69 204t-69 204t-181 77t-181 -77t-69 -204zM236 760l115 112h96l117 -112h-87l-76 54l-77 -54h-88zM490 881
l105 112h117l-135 -112h-87z" />
    <glyph glyph-name="uni1ED1" unicode="&#x1ed1;" horiz-adv-x="588" 
d="M294 -15q-109 0 -179 76t-70 192t70 192t179 76q108 0 178.5 -76t70.5 -192t-70.5 -192t-178.5 -76zM129 578l115 122h96l117 -122h-88l-76 61l-76 -61h-88zM138 253q0 -89 43 -140.5t113 -51.5t113 51.5t43 140.5t-43 140.5t-113 51.5t-113 -51.5t-43 -140.5zM383 711
l106 122h116l-134 -122h-88z" />
    <glyph glyph-name="uni1ED2" unicode="&#x1ed2;" horiz-adv-x="800" 
d="M400 -15q-145 0 -247 103.5t-102 261.5t102 261.5t247 103.5t247 -103.5t102 -261.5t-102 -261.5t-247 -103.5zM150 350q0 -127 69 -204t181 -77t181 77t69 204t-69 204t-181 77t-181 -77t-69 -204zM236 760l115 112h96l117 -112h-87l-76 54l-77 -54h-88zM351 993h117
l105 -112h-87z" />
    <glyph glyph-name="uni1ED3" unicode="&#x1ed3;" horiz-adv-x="588" 
d="M294 -15q-109 0 -179 76t-70 192t70 192t179 76q108 0 178.5 -76t70.5 -192t-70.5 -192t-178.5 -76zM129 578l115 122h96l117 -122h-88l-76 61l-76 -61h-88zM138 253q0 -89 43 -140.5t113 -51.5t113 51.5t43 140.5t-43 140.5t-113 51.5t-113 -51.5t-43 -140.5zM246 833
h116l105 -122h-88z" />
    <glyph glyph-name="uni1ED4" unicode="&#x1ed4;" horiz-adv-x="800" 
d="M400 -15q-145 0 -247 103.5t-102 261.5t102 261.5t247 103.5t247 -103.5t102 -261.5t-102 -261.5t-247 -103.5zM150 350q0 -127 69 -204t181 -77t181 77t69 204t-69 204t-181 77t-181 -77t-69 -204zM236 760l115 112h96l117 -112h-87l-76 54l-77 -54h-88zM469 949v70
q43 15 80 15q45 0 69 -22t24 -60q0 -78 -122 -100l-40 42q91 22 91 51q0 23 -34 23q-28 0 -68 -19z" />
    <glyph glyph-name="uni1ED5" unicode="&#x1ed5;" horiz-adv-x="588" 
d="M294 -15q-109 0 -179 76t-70 192t70 192t179 76q108 0 178.5 -76t70.5 -192t-70.5 -192t-178.5 -76zM129 578l115 122h96l117 -122h-88l-76 61l-76 -61h-88zM138 253q0 -89 43 -140.5t113 -51.5t113 51.5t43 140.5t-43 140.5t-113 51.5t-113 -51.5t-43 -140.5zM362 782
v68q37 17 81 17q45 0 68.5 -22.5t23.5 -60.5q0 -82 -124 -105l-39 42q92 22 92 56q0 24 -34 24q-32 0 -68 -19z" />
    <glyph glyph-name="uni1ED6" unicode="&#x1ed6;" horiz-adv-x="800" 
d="M400 -15q-145 0 -247 103.5t-102 261.5t102 261.5t247 103.5t247 -103.5t102 -261.5t-102 -261.5t-247 -103.5zM150 350q0 -127 69 -204t181 -77t181 77t69 204t-69 204t-181 77t-181 -77t-69 -204zM232 920q0 54 28.5 82.5t70.5 28.5q34 0 74.5 -26.5t53.5 -26.5
q17 0 23 11t7 32h78q0 -55 -28 -83t-69 -28q-34 0 -75 26.5t-54 26.5q-17 0 -23.5 -11t-7.5 -32h-78zM236 760l115 112h96l117 -112h-87l-76 54l-77 -54h-88z" />
    <glyph glyph-name="uni1ED7" unicode="&#x1ed7;" horiz-adv-x="588" 
d="M294 -15q-109 0 -179 76t-70 192t70 192t179 76q108 0 178.5 -76t70.5 -192t-70.5 -192t-178.5 -76zM124 752q0 54 28.5 82.5t70.5 28.5q34 0 74.5 -26.5t53.5 -26.5q17 0 23 11t7 32h78q0 -55 -28 -83t-69 -28q-34 0 -75 26.5t-54 26.5q-17 0 -23.5 -11t-7.5 -32h-78z
M129 578l115 122h96l117 -122h-88l-76 61l-76 -61h-88zM138 253q0 -89 43 -140.5t113 -51.5t113 51.5t43 140.5t-43 140.5t-113 51.5t-113 -51.5t-43 -140.5z" />
    <glyph glyph-name="uni1ED8" unicode="&#x1ed8;" horiz-adv-x="800" 
d="M400 -15q-145 0 -247 103.5t-102 261.5t102 261.5t247 103.5t247 -103.5t102 -261.5t-102 -261.5t-247 -103.5zM150 350q0 -127 69 -204t181 -77t181 77t69 204t-69 204t-181 77t-181 -77t-69 -204zM236 760l115 112h96l117 -112h-87l-76 54l-77 -54h-88zM346 -181v109
h107v-109h-107z" />
    <glyph glyph-name="uni1ED9" unicode="&#x1ed9;" horiz-adv-x="588" 
d="M294 -15q-109 0 -179 76t-70 192t70 192t179 76q108 0 178.5 -76t70.5 -192t-70.5 -192t-178.5 -76zM129 578l115 122h96l117 -122h-88l-76 61l-76 -61h-88zM138 253q0 -89 43 -140.5t113 -51.5t113 51.5t43 140.5t-43 140.5t-113 51.5t-113 -51.5t-43 -140.5zM240 -181
v109h107v-109h-107z" />
    <glyph glyph-name="uni1EDA" unicode="&#x1eda;" horiz-adv-x="800" 
d="M400 -15q-145 0 -247 103.5t-102 261.5t102 261.5t247 103.5q53 0 101 -15q50 2 72.5 27.5t18.5 78.5h75q10 -103 -82 -144q75 -48 119.5 -129.5t44.5 -182.5q0 -158 -102 -261.5t-247 -103.5zM150 350q0 -127 69 -204t181 -77t181 77t69 204t-69 204t-181 77t-181 -77
t-69 -204zM357 760l105 112h117l-135 -112h-87z" />
    <glyph glyph-name="uni1EDB" unicode="&#x1edb;" horiz-adv-x="588" 
d="M294 -15q-109 0 -179 76t-70 192t70 192t179 76q45 0 85 -14q39 4 54.5 30.5t11.5 84.5h75q11 -114 -71 -154q94 -78 94 -215q0 -116 -70.5 -192t-178.5 -76zM138 253q0 -89 43 -140.5t113 -51.5t113 51.5t43 140.5t-43 140.5t-113 51.5t-113 -51.5t-43 -140.5zM251 578
l106 122h116l-134 -122h-88z" />
    <glyph glyph-name="uni1EDC" unicode="&#x1edc;" horiz-adv-x="800" 
d="M400 -15q-145 0 -247 103.5t-102 261.5t102 261.5t247 103.5q53 0 101 -15q50 2 72.5 27.5t18.5 78.5h75q10 -103 -82 -144q75 -48 119.5 -129.5t44.5 -182.5q0 -158 -102 -261.5t-247 -103.5zM150 350q0 -127 69 -204t181 -77t181 77t69 204t-69 204t-181 77t-181 -77
t-69 -204zM219 872h117l105 -112h-87z" />
    <glyph glyph-name="uni1EDD" unicode="&#x1edd;" horiz-adv-x="588" 
d="M294 -15q-109 0 -179 76t-70 192t70 192t179 76q45 0 85 -14q39 4 54.5 30.5t11.5 84.5h75q11 -114 -71 -154q94 -78 94 -215q0 -116 -70.5 -192t-178.5 -76zM114 700h116l105 -122h-88zM138 253q0 -89 43 -140.5t113 -51.5t113 51.5t43 140.5t-43 140.5t-113 51.5
t-113 -51.5t-43 -140.5z" />
    <glyph glyph-name="uni1EDE" unicode="&#x1ede;" horiz-adv-x="800" 
d="M400 -15q-145 0 -247 103.5t-102 261.5t102 261.5t247 103.5q53 0 101 -15q50 2 72.5 27.5t18.5 78.5h75q10 -103 -82 -144q75 -48 119.5 -129.5t44.5 -182.5q0 -158 -102 -261.5t-247 -103.5zM150 350q0 -127 69 -204t181 -77t181 77t69 204t-69 204t-181 77t-181 -77
t-69 -204zM336 828v70q43 15 80 15q45 0 69 -22t24 -60q0 -78 -122 -100l-40 42q91 22 91 51q0 23 -34 23q-28 0 -68 -19z" />
    <glyph glyph-name="uni1EDF" unicode="&#x1edf;" horiz-adv-x="588" 
d="M294 -15q-109 0 -179 76t-70 192t70 192t179 76q45 0 85 -14q39 4 54.5 30.5t11.5 84.5h75q11 -114 -71 -154q94 -78 94 -215q0 -116 -70.5 -192t-178.5 -76zM138 253q0 -89 43 -140.5t113 -51.5t113 51.5t43 140.5t-43 140.5t-113 51.5t-113 -51.5t-43 -140.5zM230 649
v68q37 17 81 17q45 0 68.5 -22.5t23.5 -60.5q0 -82 -124 -105l-39 42q92 22 92 56q0 24 -34 24q-32 0 -68 -19z" />
    <glyph glyph-name="uni1EE0" unicode="&#x1ee0;" horiz-adv-x="800" 
d="M400 -15q-145 0 -247 103.5t-102 261.5t102 261.5t247 103.5q53 0 101 -15q50 2 72.5 27.5t18.5 78.5h75q10 -103 -82 -144q75 -48 119.5 -129.5t44.5 -182.5q0 -158 -102 -261.5t-247 -103.5zM150 350q0 -127 69 -204t181 -77t181 77t69 204t-69 204t-181 77t-181 -77
t-69 -204zM213 770q0 54 28.5 82.5t70.5 28.5q34 0 74.5 -26.5t53.5 -26.5q17 0 23 11t7 32h78q0 -55 -28 -83t-69 -28q-35 0 -75 26.5t-54 26.5q-17 0 -23.5 -11t-7.5 -32h-78z" />
    <glyph glyph-name="uni1EE1" unicode="&#x1ee1;" horiz-adv-x="588" 
d="M294 -15q-109 0 -179 76t-70 192t70 192t179 76q45 0 85 -14q39 4 54.5 30.5t11.5 84.5h75q11 -114 -71 -154q94 -78 94 -215q0 -116 -70.5 -192t-178.5 -76zM125 578q0 50 24.5 78.5t60.5 28.5q31 0 66 -21.5t47 -21.5q26 0 28 37h68q0 -50 -24.5 -78.5t-60.5 -28.5
q-30 0 -64 21.5t-48 21.5q-27 0 -29 -37h-68zM138 253q0 -89 43 -140.5t113 -51.5t113 51.5t43 140.5t-43 140.5t-113 51.5t-113 -51.5t-43 -140.5z" />
    <glyph glyph-name="uni1EE2" unicode="&#x1ee2;" horiz-adv-x="800" 
d="M400 -15q-145 0 -247 103.5t-102 261.5t102 261.5t247 103.5q53 0 101 -15q50 2 72.5 27.5t18.5 78.5h75q10 -103 -82 -144q75 -48 119.5 -129.5t44.5 -182.5q0 -158 -102 -261.5t-247 -103.5zM150 350q0 -127 69 -204t181 -77t181 77t69 204t-69 204t-181 77t-181 -77
t-69 -204zM346 -181v109h107v-109h-107z" />
    <glyph glyph-name="uni1EE3" unicode="&#x1ee3;" horiz-adv-x="588" 
d="M294 -15q-109 0 -179 76t-70 192t70 192t179 76q45 0 85 -14q39 4 54.5 30.5t11.5 84.5h75q11 -114 -71 -154q94 -78 94 -215q0 -116 -70.5 -192t-178.5 -76zM138 253q0 -89 43 -140.5t113 -51.5t113 51.5t43 140.5t-43 140.5t-113 51.5t-113 -51.5t-43 -140.5zM240 -181
v109h107v-109h-107z" />
    <glyph glyph-name="uni1EE4" unicode="&#x1ee4;" horiz-adv-x="692" 
d="M346 -15q-116 0 -187 73t-71 197v445h95v-431q0 -94 42 -145.5t121 -51.5t121 51.5t42 145.5v431h95v-445q0 -124 -71.5 -197t-186.5 -73zM292 -181v109h107v-109h-107z" />
    <glyph glyph-name="uni1EE5" unicode="&#x1ee5;" horiz-adv-x="566" 
d="M246 -15q-82 0 -125.5 49t-43.5 136v336h91v-327q0 -116 95 -116q52 0 90.5 40t38.5 117v286h91v-506h-89v72q-41 -87 -148 -87zM226 -181v109h107v-109h-107z" />
    <glyph glyph-name="uni1EE6" unicode="&#x1ee6;" horiz-adv-x="692" 
d="M346 -15q-116 0 -187 73t-71 197v445h95v-431q0 -94 42 -145.5t121 -51.5t121 51.5t42 145.5v431h95v-445q0 -124 -71.5 -197t-186.5 -73zM282 828v70q43 15 80 15q45 0 69 -22t24 -60q0 -78 -122 -100l-40 42q91 22 91 51q0 23 -34 23q-28 0 -68 -19z" />
    <glyph glyph-name="uni1EE7" unicode="&#x1ee7;" horiz-adv-x="566" 
d="M246 -15q-82 0 -125.5 49t-43.5 136v336h91v-327q0 -116 95 -116q52 0 90.5 40t38.5 117v286h91v-506h-89v72q-41 -87 -148 -87zM216 649v68q37 17 81 17q45 0 68.5 -22.5t23.5 -60.5q0 -82 -124 -105l-39 42q92 22 92 56q0 24 -34 24q-32 0 -68 -19z" />
    <glyph glyph-name="uni1EE8" unicode="&#x1ee8;" horiz-adv-x="704" 
d="M346 -15q-116 0 -187 73t-71 197v445h95v-431q0 -94 42 -145.5t121 -51.5t121 51.5t42 145.5v431h28q48 0 67 25t15 81h75q6 -57 -18 -96.5t-72 -55.5v-399q0 -124 -71.5 -197t-186.5 -73zM303 760l105 112h117l-135 -112h-87z" />
    <glyph glyph-name="uni1EE9" unicode="&#x1ee9;" horiz-adv-x="578" 
d="M246 -15q-82 0 -125.5 49t-43.5 136v336h91v-327q0 -116 95 -116q52 0 90.5 40t38.5 117v286h24q48 0 67 26.5t15 89.5h75q6 -63 -17.5 -104.5t-72.5 -57.5v-460h-89v72q-41 -87 -148 -87zM237 578l106 122h116l-134 -122h-88z" />
    <glyph glyph-name="uni1EEA" unicode="&#x1eea;" horiz-adv-x="704" 
d="M346 -15q-116 0 -187 73t-71 197v445h95v-431q0 -94 42 -145.5t121 -51.5t121 51.5t42 145.5v431h28q48 0 67 25t15 81h75q6 -57 -18 -96.5t-72 -55.5v-399q0 -124 -71.5 -197t-186.5 -73zM165 872h117l105 -112h-87z" />
    <glyph glyph-name="uni1EEB" unicode="&#x1eeb;" horiz-adv-x="578" 
d="M246 -15q-82 0 -125.5 49t-43.5 136v336h91v-327q0 -116 95 -116q52 0 90.5 40t38.5 117v286h24q48 0 67 26.5t15 89.5h75q6 -63 -17.5 -104.5t-72.5 -57.5v-460h-89v72q-41 -87 -148 -87zM100 700h116l105 -122h-88z" />
    <glyph glyph-name="uni1EEC" unicode="&#x1eec;" horiz-adv-x="704" 
d="M346 -15q-116 0 -187 73t-71 197v445h95v-431q0 -94 42 -145.5t121 -51.5t121 51.5t42 145.5v431h28q48 0 67 25t15 81h75q6 -57 -18 -96.5t-72 -55.5v-399q0 -124 -71.5 -197t-186.5 -73zM282 828v70q43 15 80 15q45 0 69 -22t24 -60q0 -78 -122 -100l-40 42
q91 22 91 51q0 23 -34 23q-28 0 -68 -19z" />
    <glyph glyph-name="uni1EED" unicode="&#x1eed;" horiz-adv-x="578" 
d="M246 -15q-82 0 -125.5 49t-43.5 136v336h91v-327q0 -116 95 -116q52 0 90.5 40t38.5 117v286h24q48 0 67 26.5t15 89.5h75q6 -63 -17.5 -104.5t-72.5 -57.5v-460h-89v72q-41 -87 -148 -87zM216 649v68q37 17 81 17q45 0 68.5 -22.5t23.5 -60.5q0 -82 -124 -105l-39 42
q92 22 92 56q0 24 -34 24q-32 0 -68 -19z" />
    <glyph glyph-name="uni1EEE" unicode="&#x1eee;" horiz-adv-x="704" 
d="M346 -15q-116 0 -187 73t-71 197v445h95v-431q0 -94 42 -145.5t121 -51.5t121 51.5t42 145.5v431h28q48 0 67 25t15 81h75q6 -57 -18 -96.5t-72 -55.5v-399q0 -124 -71.5 -197t-186.5 -73zM178 770q0 54 28.5 82.5t70.5 28.5q34 0 74.5 -26.5t53.5 -26.5q17 0 23 11t7 32
h78q0 -55 -28 -83t-69 -28q-34 0 -75 26.5t-54 26.5q-17 0 -23.5 -11t-7.5 -32h-78z" />
    <glyph glyph-name="uni1EEF" unicode="&#x1eef;" horiz-adv-x="578" 
d="M246 -15q-82 0 -125.5 49t-43.5 136v336h91v-327q0 -116 95 -116q52 0 90.5 40t38.5 117v286h24q48 0 67 26.5t15 89.5h75q6 -63 -17.5 -104.5t-72.5 -57.5v-460h-89v72q-41 -87 -148 -87zM131 578q0 50 24.5 78.5t60.5 28.5q31 0 66 -21.5t47 -21.5q26 0 28 37h68
q0 -50 -24.5 -78.5t-60.5 -28.5q-30 0 -64 21.5t-48 21.5q-27 0 -29 -37h-68z" />
    <glyph glyph-name="uni1EF0" unicode="&#x1ef0;" horiz-adv-x="704" 
d="M346 -15q-116 0 -187 73t-71 197v445h95v-431q0 -94 42 -145.5t121 -51.5t121 51.5t42 145.5v431h28q48 0 67 25t15 81h75q6 -57 -18 -96.5t-72 -55.5v-399q0 -124 -71.5 -197t-186.5 -73zM292 -181v109h107v-109h-107z" />
    <glyph glyph-name="uni1EF1" unicode="&#x1ef1;" horiz-adv-x="578" 
d="M246 -15q-82 0 -125.5 49t-43.5 136v336h91v-327q0 -116 95 -116q52 0 90.5 40t38.5 117v286h24q48 0 67 26.5t15 89.5h75q6 -63 -17.5 -104.5t-72.5 -57.5v-460h-89v72q-41 -87 -148 -87zM226 -181v109h107v-109h-107z" />
    <glyph glyph-name="Ygrave" unicode="&#x1ef2;" horiz-adv-x="595" 
d="M250 0v299l-242 401h110l118 -204q61 -108 66 -117h2q36 71 64 120l114 201h106l-243 -403v-297h-95zM118 872h117l105 -112h-87z" />
    <glyph glyph-name="ygrave" unicode="&#x1ef3;" horiz-adv-x="510" 
d="M117 -204q-21 0 -46 3v78q19 -4 41 -4q44 0 69 22.5t25 63.5q0 25 -18 76l-169 471h99l108 -322q20 -56 34 -112h2q13 51 33 111l101 323h93l-180 -539q-31 -89 -55 -117q-44 -54 -137 -54zM80 700h116l105 -122h-88z" />
    <glyph glyph-name="uni1EF4" unicode="&#x1ef4;" horiz-adv-x="595" 
d="M250 0v299l-242 401h110l118 -204q61 -108 66 -117h2q36 71 64 120l114 201h106l-243 -403v-297h-95zM244 -181v109h107v-109h-107z" />
    <glyph glyph-name="uni1EF5" unicode="&#x1ef5;" horiz-adv-x="510" 
d="M117 -204q-21 0 -46 3v78q19 -4 41 -4q44 0 69 22.5t25 63.5q0 25 -18 76l-169 471h99l108 -322q20 -56 34 -112h2q13 51 33 111l101 323h93l-180 -539q-31 -89 -55 -117q-44 -54 -137 -54zM331 -181v109h107v-109h-107z" />
    <glyph glyph-name="uni1EF6" unicode="&#x1ef6;" horiz-adv-x="595" 
d="M250 0v299l-242 401h110l118 -204q61 -108 66 -117h2q36 71 64 120l114 201h106l-243 -403v-297h-95zM236 828v70q43 15 80 15q45 0 69 -22t24 -60q0 -78 -122 -100l-40 42q91 22 91 51q0 23 -34 23q-28 0 -68 -19z" />
    <glyph glyph-name="uni1EF7" unicode="&#x1ef7;" horiz-adv-x="510" 
d="M117 -204q-21 0 -46 3v78q19 -4 41 -4q44 0 69 22.5t25 63.5q0 25 -18 76l-169 471h99l108 -322q20 -56 34 -112h2q13 51 33 111l101 323h93l-180 -539q-31 -89 -55 -117q-44 -54 -137 -54zM197 649v68q37 17 81 17q45 0 68.5 -22.5t23.5 -60.5q0 -82 -124 -105l-39 42
q92 22 92 56q0 24 -34 24q-32 0 -68 -19z" />
    <glyph glyph-name="uni1EF8" unicode="&#x1ef8;" horiz-adv-x="595" 
d="M250 0v299l-242 401h110l118 -204q61 -108 66 -117h2q36 71 64 120l114 201h106l-243 -403v-297h-95zM132 770q0 54 28.5 82.5t70.5 28.5q34 0 74.5 -26.5t53.5 -26.5q17 0 23 11t7 32h78q0 -55 -28 -83t-69 -28q-34 0 -74.5 26.5t-54.5 26.5q-17 0 -23.5 -11t-7.5 -32
h-78z" />
    <glyph glyph-name="uni1EF9" unicode="&#x1ef9;" horiz-adv-x="510" 
d="M117 -204q-21 0 -46 3v78q19 -4 41 -4q44 0 69 22.5t25 63.5q0 25 -18 76l-169 471h99l108 -322q20 -56 34 -112h2q13 51 33 111l101 323h93l-180 -539q-31 -89 -55 -117q-44 -54 -137 -54zM91 578q0 54 28.5 82.5t70.5 28.5q34 0 74.5 -26.5t53.5 -26.5q17 0 23 11t7 32
h78q0 -55 -28 -83t-69 -28q-35 0 -75 26.5t-54 26.5q-17 0 -23.5 -11t-7.5 -32h-78z" />
    <glyph glyph-name="uni2002" unicode="&#x2002;" horiz-adv-x="500" 
 />
    <glyph glyph-name="uni2003" unicode="&#x2003;" horiz-adv-x="1000" 
 />
    <glyph glyph-name="uni2009" unicode="&#x2009;" horiz-adv-x="125" 
 />
    <glyph glyph-name="uni200A" unicode="&#x200a;" horiz-adv-x="42" 
 />
    <glyph glyph-name="endash" unicode="&#x2013;" horiz-adv-x="621" 
d="M58 221v83h505v-83h-505z" />
    <glyph glyph-name="emdash" unicode="&#x2014;" horiz-adv-x="896" 
d="M58 221v83h780v-83h-780z" />
    <glyph glyph-name="quoteleft" unicode="&#x2018;" horiz-adv-x="244" 
d="M187 700q-61 -80 -64 -150h50v-114h-107v81q0 107 57 183h64z" />
    <glyph glyph-name="quoteright" unicode="&#x2019;" horiz-adv-x="240" 
d="M63 436q61 80 64 150h-50v114h107v-81q0 -107 -57 -183h-64z" />
    <glyph glyph-name="quotesinglbase" unicode="&#x201a;" horiz-adv-x="257" 
d="M62 -150q61 80 64 150h-50v114h107v-81q0 -107 -57 -183h-64z" />
    <glyph glyph-name="quotedblleft" unicode="&#x201c;" horiz-adv-x="414" 
d="M357 700q-61 -80 -64 -150h50v-114h-107v81q0 107 57 183h64zM66 436v81q0 107 57 183h64q-61 -80 -64 -150h50v-114h-107z" />
    <glyph glyph-name="quotedblright" unicode="&#x201d;" horiz-adv-x="410" 
d="M63 436q61 80 64 150h-50v114h107v-81q0 -107 -57 -183h-64zM233 436q61 80 64 150h-50v114h107v-81q0 -107 -57 -183h-64z" />
    <glyph glyph-name="quotedblbase" unicode="&#x201e;" horiz-adv-x="427" 
d="M62 -150q61 80 64 150h-50v114h107v-81q0 -107 -57 -183h-64zM232 -150q61 80 64 150h-50v114h107v-81q0 -107 -57 -183h-64z" />
    <glyph glyph-name="dagger" unicode="&#x2020;" horiz-adv-x="413" 
d="M160 -120v548h-142v78h142v194h94v-194h141v-78h-141v-548h-94z" />
    <glyph glyph-name="daggerdbl" unicode="&#x2021;" horiz-adv-x="477" 
d="M192 -120v194h-142v78h142v276h-142v78h142v194h94v-194h141v-78h-141v-276h141v-78h-141v-194h-94z" />
    <glyph glyph-name="bullet" unicode="&#x2022;" horiz-adv-x="452" 
d="M227 133q-70 0 -118.5 48.5t-48.5 118.5t48.5 118.5t118.5 48.5t117.5 -48.5t47.5 -118.5t-47.5 -118.5t-117.5 -48.5z" />
    <glyph glyph-name="ellipsis" unicode="&#x2026;" horiz-adv-x="865" 
d="M69 0v114h107v-114h-107zM379 0v114h107v-114h-107zM689 0v114h107v-114h-107z" />
    <glyph glyph-name="perthousand" unicode="&#x2030;" horiz-adv-x="1314" 
d="M164 0l501 700h97l-501 -700h-97zM35 502q0 100 45 154.5t117 54.5t117 -54.5t45 -154.5q0 -101 -44 -155t-118 -54q-72 0 -117 54.5t-45 154.5zM112 502q0 -143 85 -143q84 0 84 143t-84 143q-85 0 -85 -143zM562 198q0 100 45 154.5t117 54.5t117 -54.5t45 -154.5
q0 -101 -44 -155t-118 -54q-72 0 -117 54.5t-45 154.5zM639 198q0 -143 85 -143q84 0 84 143t-84 143q-85 0 -85 -143zM956 198q0 100 45 154.5t117 54.5t117 -54.5t45 -154.5q0 -101 -44 -155t-118 -54q-72 0 -117 54.5t-45 154.5zM1033 198q0 -143 85 -143q84 0 84 143
t-84 143q-85 0 -85 -143z" />
    <glyph glyph-name="uni2032" unicode="&#x2032;" horiz-adv-x="246" 
d="M55 455l58 245h92l-58 -245h-92z" />
    <glyph glyph-name="uni2033" unicode="&#x2033;" horiz-adv-x="406" 
d="M215 455l58 245h92l-58 -245h-92zM55 455l58 245h92l-58 -245h-92z" />
    <glyph glyph-name="guilsinglleft" unicode="&#x2039;" horiz-adv-x="322" 
d="M255 56l-193 154v152l193 153v-115l-152 -109l152 -118v-117z" />
    <glyph glyph-name="guilsinglright" unicode="&#x203a;" horiz-adv-x="313" 
d="M58 516l193 -154v-152l-193 -153v115l152 109l-152 118v117z" />
    <glyph glyph-name="exclamdbl" unicode="&#x203c;" horiz-adv-x="429" 
d="M95 194l-22 193v313h93v-313l-23 -193h-48zM67 0v114h107v-114h-107zM259 70v114h107v-114h-107zM265 457v313h93v-313l-23 -193h-48z" />
    <glyph glyph-name="uni203D" unicode="&#x203d;" horiz-adv-x="525" 
d="M192 194l42 440q-54 -9 -84 -48.5t-30 -100.5h-97q0 102 59.5 162t158.5 67l8 81h90l-8 -87q74 -16 118 -65t44 -116q0 -51 -25 -89t-78 -79l-25 -19q-43 -33 -60.5 -62.5t-17.5 -83.5h-95zM185 0v114h107v-114h-107zM301 397l25 18q36 27 52 52.5t16 62.5q0 33 -19 59
t-52 38z" />
    <glyph glyph-name="uni2042" unicode="&#x2042;" horiz-adv-x="963" 
d="M686 25q0 46 2 70q-40 -26 -60 -37l-85 -50l-35 64l89 52q38 22 57 32q-24 13 -58 32l-88 51l35 65l89 -52q31 -17 57 -35q-3 21 -3 60v106h71v-102q0 -42 -2 -65q17 12 45 27l100 59l37 -63l-93 -55q-29 -16 -53 -27q14 -6 47 -25l99 -58l-37 -63l-96 56q-26 14 -49 30
q2 -24 2 -68v-100h-71v96zM29 72l89 52q38 22 57 32q-24 13 -58 32l-88 51l35 65l89 -52q31 -17 57 -35q-3 21 -3 60v106h71v-102q0 -42 -2 -65q17 12 45 27l100 59l37 -63l-93 -55q-29 -16 -53 -27q14 -6 47 -25l99 -58l-37 -63l-96 56q-26 14 -49 30q2 -24 2 -68v-100h-71
v96q0 46 2 70q-40 -26 -60 -37l-85 -50zM268 464l89 52q38 22 57 32q-24 13 -58 32l-88 51l35 65l89 -52q31 -17 57 -35q-3 21 -3 60v106h71v-102q0 -42 -2 -65q17 12 45 27l100 59l37 -63l-93 -55q-29 -16 -53 -27q14 -6 47 -25l99 -58l-37 -63l-96 56q-26 14 -49 30
q2 -24 2 -68v-100h-71v96q0 46 2 70q-40 -26 -60 -37l-85 -50z" />
    <glyph glyph-name="fraction" unicode="&#x2044;" horiz-adv-x="268" 
d="M-185 -100l542 800h97l-542 -800h-97z" />
    <glyph glyph-name="uni2051" unicode="&#x2051;" horiz-adv-x="557" 
d="M243 25q0 46 2 70q-40 -26 -60 -37l-85 -50l-35 64l89 52q38 22 57 32q-24 13 -58 32l-88 51l35 65l89 -52q31 -17 57 -35q-3 21 -3 60v140q0 46 2 70q-40 -26 -60 -37l-85 -50l-35 64l89 52q38 22 57 32q-24 13 -58 32l-88 51l35 65l89 -52q31 -17 57 -35q-3 21 -3 60
v106h71v-102q0 -42 -2 -65q17 12 45 27l100 59l37 -63l-93 -55q-29 -16 -53 -27q14 -6 47 -25l99 -58l-37 -63l-96 56q-26 14 -49 30q2 -24 2 -68v-140q0 -42 -2 -65q17 12 45 27l100 59l37 -63l-93 -55q-29 -16 -53 -27q14 -6 47 -25l99 -58l-37 -63l-96 56q-26 14 -49 30
q2 -24 2 -68v-100h-71v96z" />
    <glyph glyph-name="uni2070" unicode="&#x2070;" horiz-adv-x="501" 
d="M251 275q-93 0 -151 70t-58 198q0 127 58 197t151 70q92 0 150 -70t58 -197q0 -129 -56 -198.5t-152 -69.5zM137 543q0 -193 114 -193q113 0 113 193q0 192 -113 192q-114 0 -114 -192z" />
    <glyph glyph-name="uni2074" unicode="&#x2074;" horiz-adv-x="479" 
d="M289 290v109h-262v87l257 309h94v-322h66v-75h-66v-108h-89zM110 473h179v215z" />
    <glyph glyph-name="uni2075" unicode="&#x2075;" horiz-adv-x="458" 
d="M230 275q-80 0 -134 39.5t-63 103.5h96q7 -31 33.5 -50t67.5 -19q47 0 73 28t26 71t-26 71t-69 28q-59 0 -94 -47h-90l38 295h306v-76h-236l-19 -150q15 19 46.5 32.5t67.5 13.5q77 0 123 -45t46 -122q0 -76 -53 -124.5t-139 -48.5z" />
    <glyph glyph-name="uni2076" unicode="&#x2076;" horiz-adv-x="479" 
d="M253 275q-99 0 -155 69t-56 191q0 126 59 200.5t159 74.5q68 0 114.5 -34.5t54.5 -91.5h-92q-6 24 -28.5 39t-53.5 15q-60 0 -92.5 -50.5t-32.5 -142.5q18 33 54.5 53.5t78.5 20.5q75 0 126.5 -49t51.5 -121q0 -76 -53 -125t-135 -49zM148 449q0 -43 29.5 -72t73.5 -29
q43 0 70.5 28.5t27.5 72.5t-27.5 72t-70.5 28t-73 -29t-30 -71z" />
    <glyph glyph-name="uni2077" unicode="&#x2077;" horiz-adv-x="393" 
d="M73 290l207 426h-262v79h350v-81l-201 -424h-94z" />
    <glyph glyph-name="uni2078" unicode="&#x2078;" horiz-adv-x="477" 
d="M239 275q-87 0 -143 44t-56 111q0 48 29.5 83t76.5 46q-41 14 -64 44.5t-23 69.5q0 57 50.5 97t129.5 40q78 0 128.5 -40t50.5 -97q0 -40 -23 -70t-63 -44q48 -11 76.5 -46t28.5 -83q0 -67 -55.5 -111t-142.5 -44zM132 438q0 -40 30.5 -65.5t76.5 -25.5q47 0 77 25.5
t30 65.5t-29.5 65t-77.5 25t-77.5 -25t-29.5 -65zM151 667q0 -32 25 -54t63 -22t62.5 21.5t24.5 54.5q0 31 -24.5 51t-62.5 20t-63 -20t-25 -51z" />
    <glyph glyph-name="uni2079" unicode="&#x2079;" horiz-adv-x="480" 
d="M227 810q99 0 155 -69t56 -191q0 -126 -59 -200.5t-159 -74.5q-68 0 -114.5 34.5t-54.5 91.5h92q6 -24 28.5 -39t53.5 -15q60 0 92.5 50.5t32.5 142.5q-18 -33 -54.5 -53.5t-78.5 -20.5q-75 0 -126.5 49t-51.5 121q0 76 53 125t135 49zM131 636q0 -44 27.5 -72t70.5 -28
t73 29t30 71q0 43 -29.5 72t-73.5 29q-43 0 -70.5 -28.5t-27.5 -72.5z" />
    <glyph glyph-name="uni20A6" unicode="&#x20a6;" horiz-adv-x="857" 
d="M64 229v75h80v92h-80v75h80v229h121l140 -229h214v229h94v-229h80v-75h-80v-92h80v-75h-80v-229h-122l-140 229h-213v-229h-94v229h-80zM233 583q2 -38 4 -112h65zM238 304h167l-57 92h-110v-22v-70zM451 396l57 -92h111v27v65h-168zM554 229l67 -110q-1 37 -1 110h-66z
" />
    <glyph glyph-name="uni20A8" unicode="&#x20a8;" horiz-adv-x="559" 
d="M314 0l-247 310v78h111q135 0 157 83h-269v78h262q-32 73 -150 73h-112v78h469v-78h-157q35 -29 49 -73h78v-78h-72q-10 -76 -76 -119t-171 -43h-7l252 -309h-117z" />
    <glyph glyph-name="uni20A9" unicode="&#x20a9;" horiz-adv-x="992" 
d="M255 0l-80 319h-121v78h102l-76 303h94l73 -303h124l68 303h117l68 -303h123l72 303h93l-76 -303h102v-78h-121l-80 -319h-105l-75 319h-124l-74 -319h-104zM266 319l45 -187l42 187h-87zM451 397h88l-44 189zM642 319l42 -187l44 187h-86z" />
    <glyph glyph-name="uni20AA" unicode="&#x20aa;" horiz-adv-x="821" 
d="M95 0v700h193q263 0 263 -278v-206h-88v201q0 107 -42 154t-138 47h-96v-618h-92zM277 0v484h88v-402h97q95 0 137 47t42 154v417h92v-422q0 -141 -64.5 -209.5t-197.5 -68.5h-194z" />
    <glyph glyph-name="dong" unicode="&#x20ab;" horiz-adv-x="500" 
d="M221 92q-84 0 -137.5 62.5t-53.5 166.5q0 103 53.5 165t137.5 62q94 0 139 -74v115h-88v52h88v59h78v-59h52v-52h-52v-484h-78v62q-45 -75 -139 -75zM30 -52v74h460v-74h-460zM109 321q0 -75 33.5 -119.5t90.5 -44.5q56 0 92 46.5t36 117.5t-36.5 117t-91.5 46
q-57 0 -90.5 -44t-33.5 -119z" />
    <glyph glyph-name="Euro" unicode="&#x20ac;" horiz-adv-x="686" 
d="M396 -15q-98 0 -166.5 61t-92.5 180h-73v78h63q-1 15 -1 46t1 46h-63v78h73q25 119 94.5 180t168.5 61q91 0 151.5 -49t80.5 -136h-96q-36 106 -141 106q-130 0 -164 -162h193v-78h-204q-1 -15 -1 -46t1 -46h174v-78h-163q18 -82 62 -122t107 -40q103 0 136 101h96
q-20 -86 -81 -133t-155 -47z" />
    <glyph glyph-name="uni20B4" unicode="&#x20b4;" horiz-adv-x="725" 
d="M355 -15q-104 0 -166 52t-62 128q0 40 19 71h-82v78h597v-78h-425q-18 -26 -18 -60q0 -47 37 -79t100 -32q57 0 96 26.5t56 73.5h96q-15 -82 -80.5 -131t-167.5 -49zM64 386v78h409q29 21 29 67t-34.5 75t-95.5 29q-116 0 -145 -100h-98q15 81 78.5 130.5t164.5 49.5
q98 0 159.5 -52t61.5 -125q0 -47 -24 -74h92v-78h-597z" />
    <glyph glyph-name="uni20B8" unicode="&#x20b8;" horiz-adv-x="551" 
d="M228 0v478h-194v77h482v-77h-193v-478h-95zM34 622v78h482v-78h-482z" />
    <glyph glyph-name="uni20BA" unicode="&#x20ba;" horiz-adv-x="590" 
d="M128 0v244l-64 -28v85l64 28v78l-64 -28v85l64 28v208h95v-167l211 91v-85l-211 -91v-78l211 91v-85l-211 -91v-196h11q178 0 225 176h99q-25 -122 -111 -193.5t-223 -71.5h-96z" />
    <glyph glyph-name="uni20BD" unicode="&#x20bd;" horiz-adv-x="645" 
d="M55 287v78h81v335h223q116 0 187 -57.5t71 -148.5t-71 -150.5t-187 -59.5h-128v-89h202v-78h-202v-117h-95v117h-81v78h81v92h-81zM231 368h123q75 0 120.5 32.5t45.5 93.5t-45.5 93.5t-120.5 32.5h-123v-252z" />
    <glyph glyph-name="uni20BF" unicode="&#x20bf;" horiz-adv-x="617" 
d="M95 0v700h108v95h78v-95h38q20 0 30 -1v96h78v-112q121 -44 121 -165q0 -57 -32 -98.5t-83 -55.5q58 -14 96.5 -58t38.5 -111q0 -66 -38 -112.5t-103 -67.5v-110h-78v96q-8 -1 -25 -1h-43v-95h-78v95h-108zM190 80h124q75 0 116 31.5t41 88.5q0 55 -41 87t-116 32h-124
v-239zM190 397h124q65 0 101.5 30t36.5 82q0 111 -143 111h-119v-223z" />
    <glyph glyph-name="uni2105" unicode="&#x2105;" horiz-adv-x="1364" 
d="M500 -90l315 810h85l-315 -810h-85zM46 252q0 123 70 195.5t174 72.5q92 0 149 -46.5t70 -118.5h-93q-29 87 -120 87q-67 0 -110.5 -49t-43.5 -141q0 -91 43 -140t106 -49q95 0 126 87h94q-14 -71 -72 -118t-151 -47q-104 0 -173 70.5t-69 196.5zM822 253q0 116 70 192
t179 76q108 0 178.5 -76t70.5 -192t-70.5 -192t-178.5 -76q-109 0 -179 76t-70 192zM915 253q0 -89 43 -140.5t113 -51.5t113 51.5t43 140.5t-43 140.5t-113 51.5t-113 -51.5t-43 -140.5z" />
    <glyph glyph-name="uni2113" unicode="&#x2113;" horiz-adv-x="526" 
d="M313 -15q-140 0 -185 166q-40 -6 -85 -6v85q40 2 69 7q-5 40 -5 98q0 52 4.5 99.5t18.5 100.5t35.5 91.5t59 63.5t85.5 25q72 0 114 -54.5t42 -144.5q0 -119 -68 -210.5t-184 -132.5q23 -111 99 -111q31 0 52 22.5t29 59.5h93q-14 -77 -62.5 -118t-111.5 -41zM201 330
q0 -26 2 -70q167 65 167 263q0 113 -62 113q-30 0 -52 -28t-33.5 -75t-16.5 -97t-5 -106z" />
    <glyph glyph-name="uni2116" unicode="&#x2116;" horiz-adv-x="1203" 
d="M95 0v700h121l356 -580q-3 105 -3 211v369h94v-700h-121l-358 583q5 -117 5 -209v-374h-94zM737 489q0 99 60.5 162.5t154.5 63.5q93 0 154 -63.5t61 -162.5t-61 -163t-154 -64q-94 0 -154.5 64t-60.5 163zM826 489q0 -73 34 -114.5t92 -41.5t92 41.5t34 114.5
q0 72 -34.5 113.5t-91.5 41.5q-58 0 -92 -41.5t-34 -113.5z" />
    <glyph glyph-name="uni2117" unicode="&#x2117;" horiz-adv-x="855" 
d="M427 -18q-153 0 -260 105.5t-107 261.5t107 262.5t260 106.5t260 -106.5t107 -262.5t-107 -261.5t-260 -105.5zM127 349q0 -133 86.5 -220.5t213.5 -87.5q126 0 212.5 87.5t86.5 220.5t-86.5 221.5t-212.5 88.5q-127 0 -213.5 -88.5t-86.5 -221.5zM306 164v370h142
q65 0 105.5 -33.5t40.5 -86.5q0 -54 -40.5 -86.5t-105.5 -32.5h-69v-131h-73zM379 358h67q72 0 72 56q0 27 -20 42t-52 15h-67v-113z" />
    <glyph glyph-name="trademark" unicode="&#x2122;" horiz-adv-x="972" 
d="M430 270v430h117l114 -332l113 332h117v-430h-80l5 336l-119 -336h-72l-119 337l4 -337h-80zM26 627v73h351v-73h-134v-357h-83v357h-134z" />
    <glyph glyph-name="uni2126" unicode="&#x2126;" horiz-adv-x="835" 
d="M87 0v82h128q-148 99 -148 283q0 152 101.5 251t249.5 99t248.5 -99t100.5 -251q0 -184 -148 -283h128v-82h-277v73q89 18 144.5 95t55.5 192q0 121 -69.5 197t-183.5 76q-113 0 -183 -76t-70 -197q0 -115 55.5 -192t144.5 -95v-73h-277z" />
    <glyph glyph-name="uni2153" unicode="&#x2153;" horiz-adv-x="1029" 
d="M162 195v312h-145v64q134 0 157 129h79v-505h-91zM132 -100l542 800h97l-542 -800h-97zM603 38h91q7 -36 34 -57t71 -21q43 0 70.5 22.5t27.5 55.5q0 40 -33.5 63t-88.5 23h-38v70h38q49 0 78 22t29 57q0 33 -23.5 53t-60.5 20q-39 0 -63.5 -20.5t-30.5 -56.5h-91
q6 65 58 108t130 43q75 0 123 -41t48 -96q0 -43 -25.5 -74.5t-69.5 -44.5q111 -30 111 -130q0 -58 -53 -103t-135 -45q-84 0 -136.5 41.5t-60.5 110.5z" />
    <glyph glyph-name="uni2154" unicode="&#x2154;" horiz-adv-x="1176" 
d="M32 197q3 82 42.5 136.5t125.5 101.5l35 19q55 30 76.5 53.5t21.5 56.5q0 35 -24.5 55.5t-63.5 20.5q-49 0 -76 -27.5t-27 -79.5h-94q0 86 54.5 134t144.5 48q80 0 129 -43.5t49 -108.5q0 -92 -120 -158l-46 -26q-59 -33 -84.5 -55t-32.5 -49h277v-78h-387zM278 -100
l542 800h97l-542 -800h-97zM750 38h91q7 -36 34 -57t71 -21q43 0 70.5 22.5t27.5 55.5q0 40 -33.5 63t-88.5 23h-38v70h38q49 0 78 22t29 57q0 33 -23.5 53t-60.5 20q-39 0 -63.5 -20.5t-30.5 -56.5h-91q6 65 58 108t130 43q75 0 123 -41t48 -96q0 -43 -25.5 -74.5
t-69.5 -44.5q111 -30 111 -130q0 -58 -53 -103t-135 -45q-84 0 -136.5 41.5t-60.5 110.5z" />
    <glyph glyph-name="uni2155" unicode="&#x2155;" horiz-adv-x="1021" 
d="M162 195v312h-145v64q134 0 157 129h79v-505h-91zM132 -100l542 800h97l-542 -800h-97zM596 28h96q7 -31 33.5 -50t67.5 -19q47 0 73 28t26 71t-26 71t-69 28q-59 0 -94 -47h-90l38 295h306v-76h-236l-19 -150q15 19 46.5 32.5t67.5 13.5q77 0 123 -45t46 -122
q0 -76 -53 -124.5t-139 -48.5q-80 0 -134 39.5t-63 103.5z" />
    <glyph glyph-name="uni2156" unicode="&#x2156;" horiz-adv-x="1168" 
d="M32 197q3 82 42.5 136.5t125.5 101.5l35 19q55 30 76.5 53.5t21.5 56.5q0 35 -24.5 55.5t-63.5 20.5q-49 0 -76 -27.5t-27 -79.5h-94q0 86 54.5 134t144.5 48q80 0 129 -43.5t49 -108.5q0 -92 -120 -158l-46 -26q-59 -33 -84.5 -55t-32.5 -49h277v-78h-387zM278 -100
l542 800h97l-542 -800h-97zM743 28h96q7 -31 33.5 -50t67.5 -19q47 0 73 28t26 71t-26 71t-69 28q-59 0 -94 -47h-90l38 295h306v-76h-236l-19 -150q15 19 46.5 32.5t67.5 13.5q77 0 123 -45t46 -122q0 -76 -53 -124.5t-139 -48.5q-80 0 -134 39.5t-63 103.5z" />
    <glyph glyph-name="uni2157" unicode="&#x2157;" horiz-adv-x="1142" 
d="M231 181q-84 0 -136.5 41.5t-60.5 110.5h91q7 -36 34 -57t71 -21q43 0 70.5 22.5t27.5 55.5q0 40 -33.5 63t-88.5 23h-38v70h38q49 0 78 22t29 57q0 33 -23.5 53t-60.5 20q-39 0 -63.5 -20.5t-30.5 -56.5h-91q6 65 58 108t130 43q75 0 123 -41t48 -96q0 -43 -25.5 -74.5
t-69.5 -44.5q111 -30 111 -130q0 -58 -53 -103t-135 -45zM252 -100l542 800h97l-542 -800h-97zM716 28h96q7 -31 33.5 -50t67.5 -19q47 0 73 28t26 71t-26 71t-69 28q-59 0 -94 -47h-90l38 295h306v-76h-236l-19 -150q15 19 46.5 32.5t67.5 13.5q77 0 123 -45t46 -122
q0 -76 -53 -124.5t-139 -48.5q-80 0 -134 39.5t-63 103.5z" />
    <glyph glyph-name="uni2158" unicode="&#x2158;" horiz-adv-x="1168" 
d="M294 195v109h-262v87l257 309h94v-322h66v-75h-66v-108h-89zM115 378h179v215zM279 -100l542 800h97l-542 -800h-97zM743 28h96q7 -31 33.5 -50t67.5 -19q47 0 73 28t26 71t-26 71t-69 28q-59 0 -94 -47h-90l38 295h306v-76h-236l-19 -150q15 19 46.5 32.5t67.5 13.5
q77 0 123 -45t46 -122q0 -76 -53 -124.5t-139 -48.5q-80 0 -134 39.5t-63 103.5z" />
    <glyph glyph-name="uni2159" unicode="&#x2159;" horiz-adv-x="1032" 
d="M162 195v312h-145v64q134 0 157 129h79v-505h-91zM132 -100l542 800h97l-542 -800h-97zM595 145q0 126 59 200.5t159 74.5q68 0 114.5 -34.5t54.5 -91.5h-92q-6 24 -28.5 39t-53.5 15q-60 0 -92.5 -50.5t-32.5 -142.5q18 33 54.5 53.5t78.5 20.5q75 0 126.5 -49
t51.5 -121q0 -76 -53 -125t-135 -49q-99 0 -155 69t-56 191zM701 59q0 -43 29.5 -72t73.5 -29q43 0 70.5 28.5t27.5 72.5t-27.5 72t-70.5 28t-73 -29t-30 -71z" />
    <glyph glyph-name="uni215A" unicode="&#x215a;" horiz-adv-x="1152" 
d="M230 180q-80 0 -134 39.5t-63 103.5h96q7 -31 33.5 -50t67.5 -19q47 0 73 28t26 71t-26 71t-69 28q-59 0 -94 -47h-90l38 295h306v-76h-236l-19 -150q15 19 46.5 32.5t67.5 13.5q77 0 123 -45t46 -122q0 -76 -53 -124.5t-139 -48.5zM251 -100l542 800h97l-542 -800h-97z
M715 145q0 126 59 200.5t159 74.5q68 0 114.5 -34.5t54.5 -91.5h-92q-6 24 -28.5 39t-53.5 15q-60 0 -92.5 -50.5t-32.5 -142.5q18 33 54.5 53.5t78.5 20.5q75 0 126.5 -49t51.5 -121q0 -76 -53 -125t-135 -49q-99 0 -155 69t-56 191zM821 59q0 -43 29.5 -72t73.5 -29
q43 0 70.5 28.5t27.5 72.5t-27.5 72t-70.5 28t-73 -29t-30 -71z" />
    <glyph glyph-name="oneeighth" unicode="&#x215b;" horiz-adv-x="1030" 
d="M162 195v312h-145v64q134 0 157 129h79v-505h-91zM132 -100l542 800h97l-542 -800h-97zM593 40q0 48 29.5 83t76.5 46q-41 14 -64 44.5t-23 69.5q0 57 50.5 97t129.5 40q78 0 128.5 -40t50.5 -97q0 -40 -23 -70t-63 -44q48 -11 76.5 -46t28.5 -83q0 -67 -55.5 -111
t-142.5 -44t-143 44t-56 111zM685 48q0 -40 30.5 -65.5t76.5 -25.5q47 0 77 25.5t30 65.5t-29.5 65t-77.5 25t-77.5 -25t-29.5 -65zM704 277q0 -32 25 -54t63 -22t62.5 21.5t24.5 54.5q0 31 -24.5 51t-62.5 20t-63 -20t-25 -51z" />
    <glyph glyph-name="threeeighths" unicode="&#x215c;" horiz-adv-x="1151" 
d="M231 181q-84 0 -136.5 41.5t-60.5 110.5h91q7 -36 34 -57t71 -21q43 0 70.5 22.5t27.5 55.5q0 40 -33.5 63t-88.5 23h-38v70h38q49 0 78 22t29 57q0 33 -23.5 53t-60.5 20q-39 0 -63.5 -20.5t-30.5 -56.5h-91q6 65 58 108t130 43q75 0 123 -41t48 -96q0 -43 -25.5 -74.5
t-69.5 -44.5q111 -30 111 -130q0 -58 -53 -103t-135 -45zM252 -100l542 800h97l-542 -800h-97zM713 40q0 48 29.5 83t76.5 46q-41 14 -64 44.5t-23 69.5q0 57 50.5 97t129.5 40q78 0 128.5 -40t50.5 -97q0 -40 -23 -70t-63 -44q48 -11 76.5 -46t28.5 -83q0 -67 -55.5 -111
t-142.5 -44t-143 44t-56 111zM805 48q0 -40 30.5 -65.5t76.5 -25.5q47 0 77 25.5t30 65.5t-29.5 65t-77.5 25t-77.5 -25t-29.5 -65zM824 277q0 -32 25 -54t63 -22t62.5 21.5t24.5 54.5q0 31 -24.5 51t-62.5 20t-63 -20t-25 -51z" />
    <glyph glyph-name="fiveeighths" unicode="&#x215d;" horiz-adv-x="1150" 
d="M230 180q-80 0 -134 39.5t-63 103.5h96q7 -31 33.5 -50t67.5 -19q47 0 73 28t26 71t-26 71t-69 28q-59 0 -94 -47h-90l38 295h306v-76h-236l-19 -150q15 19 46.5 32.5t67.5 13.5q77 0 123 -45t46 -122q0 -76 -53 -124.5t-139 -48.5zM251 -100l542 800h97l-542 -800h-97z
M713 40q0 48 29.5 83t76.5 46q-41 14 -64 44.5t-23 69.5q0 57 50.5 97t129.5 40q78 0 128.5 -40t50.5 -97q0 -40 -23 -70t-63 -44q48 -11 76.5 -46t28.5 -83q0 -67 -55.5 -111t-142.5 -44t-143 44t-56 111zM805 48q0 -40 30.5 -65.5t76.5 -25.5q47 0 77 25.5t30 65.5
t-29.5 65t-77.5 25t-77.5 -25t-29.5 -65zM824 277q0 -32 25 -54t63 -22t62.5 21.5t24.5 54.5q0 31 -24.5 51t-62.5 20t-63 -20t-25 -51z" />
    <glyph glyph-name="seveneighths" unicode="&#x215e;" horiz-adv-x="1037" 
d="M74 195l207 426h-262v79h350v-81l-201 -424h-94zM139 -100l542 800h97l-542 -800h-97zM600 40q0 48 29.5 83t76.5 46q-41 14 -64 44.5t-23 69.5q0 57 50.5 97t129.5 40q78 0 128.5 -40t50.5 -97q0 -40 -23 -70t-63 -44q48 -11 76.5 -46t28.5 -83q0 -67 -55.5 -111
t-142.5 -44t-143 44t-56 111zM692 48q0 -40 30.5 -65.5t76.5 -25.5q47 0 77 25.5t30 65.5t-29.5 65t-77.5 25t-77.5 -25t-29.5 -65zM711 277q0 -32 25 -54t63 -22t62.5 21.5t24.5 54.5q0 31 -24.5 51t-62.5 20t-63 -20t-25 -51z" />
    <glyph glyph-name="uni2160" unicode="&#x2160;" horiz-adv-x="482" 
d="M46 0v84h149v532h-149v84h391v-84h-150v-532h150v-84h-391z" />
    <glyph glyph-name="uni2161" unicode="&#x2161;" horiz-adv-x="762" 
d="M46 0v84h149v532h-149v84h671v-84h-150v-532h150v-84h-671zM287 84h188v532h-188v-532z" />
    <glyph glyph-name="uni2162" unicode="&#x2162;" horiz-adv-x="1042" 
d="M46 0v84h149v532h-149v84h951v-84h-150v-532h150v-84h-951zM287 84h188v532h-188v-532zM567 84h188v532h-188v-532z" />
    <glyph glyph-name="uni2163" unicode="&#x2163;" horiz-adv-x="1060" 
d="M46 0v84h149v532h-149v84h579v-84h-98l90 -309q7 -23 29 -95t33 -114h1q12 42 34 114t30 100l91 304h-103v84h310v-84h-115l-170 -532h165v-84h-876zM287 84h308l-166 532h-142v-532z" />
    <glyph glyph-name="uni2164" unicode="&#x2164;" horiz-adv-x="763" 
d="M136 0v84h162l-166 532h-114v84h310v-84h-98l90 -309q7 -23 29 -95t33 -114h1q12 42 34 114t30 100l91 304h-103v84h310v-84h-115l-170 -532h165v-84h-489z" />
    <glyph glyph-name="uni2165" unicode="&#x2165;" horiz-adv-x="1023" 
d="M136 0v84h162l-166 532h-114v84h310v-84h-98l90 -309q7 -23 29 -95t33 -114h1q12 42 34 114t30 100l91 304h-103v84h543v-84h-150v-532h150v-84h-842zM460 84h276v532h-106z" />
    <glyph glyph-name="uni2166" unicode="&#x2166;" horiz-adv-x="1303" 
d="M136 0v84h162l-166 532h-114v84h310v-84h-98l90 -309q7 -23 29 -95t33 -114h1q12 42 34 114t30 100l91 304h-103v84h823v-84h-150v-532h150v-84h-1122zM460 84h276v532h-106zM828 84h188v532h-188v-532z" />
    <glyph glyph-name="uni2167" unicode="&#x2167;" horiz-adv-x="1583" 
d="M136 0v84h162l-166 532h-114v84h310v-84h-98l90 -309q7 -23 29 -95t33 -114h1q12 42 34 114t30 100l91 304h-103v84h1103v-84h-150v-532h150v-84h-1402zM460 84h276v532h-106zM828 84h188v532h-188v-532zM1108 84h188v532h-188v-532z" />
    <glyph glyph-name="uni2168" unicode="&#x2168;" horiz-adv-x="1059" 
d="M46 0v84h149v532h-149v84h966v-84h-109l-176 -256l190 -276h95v-84h-966zM287 84h146l189 273l-178 259h-157v-532zM536 84h274l-56 81q-33 47 -81 120q-17 -27 -75 -112zM550 616l36 -53q9 -13 39.5 -57.5t49.5 -73.5q66 96 90 132l36 52h-251z" />
    <glyph glyph-name="uni2169" unicode="&#x2169;" horiz-adv-x="771" 
d="M145 84l189 273l-178 259h-109v84h677v-84h-109l-176 -256l190 -276h95v-84h-677v84h98zM248 84h274l-56 81q-33 47 -81 120q-17 -27 -75 -112zM262 616l36 -53q9 -13 39.5 -57.5t49.5 -73.5q66 96 90 132l36 52h-251z" />
    <glyph glyph-name="uni216C" unicode="&#x216c;" horiz-adv-x="625" 
d="M46 0v84h149v532h-149v84h391v-84h-150v-532h211v145h92v-229h-544z" />
    <glyph glyph-name="uni216D" unicode="&#x216d;" horiz-adv-x="763" 
d="M393 -15q-142 0 -236.5 101.5t-94.5 263.5q0 161 96 263t235 102q138 0 210 -91v76h83v-230h-76q-48 162 -211 162q-104 0 -172.5 -77t-68.5 -205t68.5 -205t172.5 -77q167 0 211 162h76v-230h-84v75q-71 -90 -209 -90z" />
    <glyph glyph-name="uni216E" unicode="&#x216e;" horiz-adv-x="835" 
d="M51 0v84h149v532h-149v84h361q155 0 258 -97.5t103 -252.5t-103 -252.5t-258 -97.5h-361zM292 84h111q128 0 201.5 71t73.5 195t-73.5 195t-201.5 71h-111v-532z" />
    <glyph glyph-name="uni216F" unicode="&#x216f;" horiz-adv-x="1069" 
d="M46 0v84h147v532h-147v84h291l136 -395q47 -139 64 -193h1q44 139 59 181l139 407h287v-84h-147v-532h147v-84h-326v84h87v290q0 97 2 215l-204 -589h-94l-205 590q2 -67 2 -216v-290h88v-84h-327z" />
    <glyph glyph-name="arrowleft" unicode="&#x2190;" horiz-adv-x="881" 
d="M314 94l-256 256l256 256h123l-210 -210h591v-91h-592l211 -211h-123z" />
    <glyph glyph-name="arrowup" unicode="&#x2191;" horiz-adv-x="615" 
d="M52 381v123l256 256l256 -256v-123l-211 211v-592h-91v591z" />
    <glyph glyph-name="arrowright" unicode="&#x2192;" horiz-adv-x="881" 
d="M444 94l211 211h-592v91h591l-210 210h123l256 -256l-256 -256h-123z" />
    <glyph glyph-name="arrowdown" unicode="&#x2193;" horiz-adv-x="615" 
d="M563 319v-123l-256 -256l-256 256v123l211 -211v592h91v-591z" />
    <glyph glyph-name="uni2196" unicode="&#x2196;" horiz-adv-x="662" 
d="M147 251l-87 87v362h362l87 -87h-298l419 -419l-65 -64l-418 419v-298z" />
    <glyph glyph-name="uni2197" unicode="&#x2197;" horiz-adv-x="662" 
d="M152 613l87 87h362v-362l-87 -87v298l-418 -418l-65 64l418 418h-297z" />
    <glyph glyph-name="uni2198" unicode="&#x2198;" horiz-adv-x="661" 
d="M514 449l87 -87v-362h-362l-87 87h298l-418 419l64 64l418 -418v297z" />
    <glyph glyph-name="uni2199" unicode="&#x2199;" horiz-adv-x="661" 
d="M509 87l-87 -87h-362v362l87 87v-298l419 418l64 -64l-418 -418h297z" />
    <glyph glyph-name="partialdiff" unicode="&#x2202;" horiz-adv-x="548" 
d="M270 -15q-100 0 -159.5 72t-59.5 184q0 106 57 175t140 69q50 0 87.5 -20.5t53.5 -48.5q-16 110 -71.5 165t-142.5 55q-39 0 -81 -13v80q48 12 88 12q142 0 226 -108.5t84 -302.5q0 -158 -57.5 -238.5t-164.5 -80.5zM147 241q0 -80 33.5 -128.5t89.5 -48.5q59 0 92 48
t33 129q0 77 -33.5 121t-90.5 44t-90.5 -43t-33.5 -122z" />
    <glyph glyph-name="emptyset" unicode="&#x2205;" horiz-adv-x="844" 
d="M421 -10q-114 0 -206 65l-46 -55h-80l79 94q-106 106 -106 256q0 149 105 254.5t254 105.5q113 0 207 -65l46 55h79l-79 -94q107 -107 107 -256t-105.5 -254.5t-254.5 -105.5zM129 350q0 -118 81 -205l376 450q-74 52 -165 52q-120 0 -206 -87.5t-86 -209.5zM257 105
q74 -52 164 -52q122 0 207.5 87.5t85.5 209.5q0 120 -82 205z" />
    <glyph glyph-name="uni2206" unicode="&#x2206;" horiz-adv-x="695" 
d="M30 0v92l259 608h117l260 -608v-92h-636zM119 82h456l-228 536z" />
    <glyph glyph-name="product" unicode="&#x220f;" horiz-adv-x="709" 
d="M95 -120v820h519v-820h-95v736h-329v-736h-95z" />
    <glyph glyph-name="summation" unicode="&#x2211;" horiz-adv-x="559" 
d="M40 -120v86l259 323l-259 325v86h478v-84h-368l263 -324l-268 -328h373v-84h-478z" />
    <glyph glyph-name="minus" unicode="&#x2212;" horiz-adv-x="564" 
d="M61 221v83h442v-83h-442z" />
    <glyph glyph-name="uni2215" unicode="&#x2215;" horiz-adv-x="433" 
d="M15 -90l315 810h86l-315 -810h-86z" />
    <glyph glyph-name="radical" unicode="&#x221a;" horiz-adv-x="674" 
d="M202 0l-167 506h92l132 -412l162 606h229v-80h-162l-170 -620h-116z" />
    <glyph glyph-name="infinity" unicode="&#x221e;" horiz-adv-x="856" 
d="M242 157q-79 0 -130.5 52.5t-51.5 137.5q0 84 51 136t131 52q122 0 187 -124q65 124 185 124q80 0 131 -52t51 -136q0 -85 -51 -137.5t-131 -52.5q-122 0 -185 129q-61 -129 -187 -129zM152 347q0 -49 26.5 -78.5t66.5 -29.5q78 0 130 108q-55 106 -130 106
q-40 0 -66.5 -29.5t-26.5 -76.5zM481 347q54 -108 130 -108q40 0 66.5 30t26.5 78q0 47 -26.5 76.5t-66.5 29.5q-76 0 -130 -106z" />
    <glyph glyph-name="integral" unicode="&#x222b;" horiz-adv-x="415" 
d="M72 -126q-29 0 -54 4v74q30 -2 43 -2q60 0 83 24t23 81v473q0 175 175 175q24 0 53 -3v-74q-28 2 -38 2q-56 0 -76 -24.5t-20 -84.5v-477q0 -81 -51.5 -124.5t-137.5 -43.5z" />
    <glyph glyph-name="approxequal" unicode="&#x2248;" horiz-adv-x="634" 
d="M73 113q0 65 33 99t91 34q47 0 125 -32.5t103 -32.5q53 0 53 51h83q0 -65 -32.5 -97t-90.5 -32q-49 0 -127.5 32.5t-102.5 32.5q-27 0 -40.5 -15t-13.5 -40h-81zM73 299q0 65 33 99t91 34q47 0 125 -32.5t103 -32.5q53 0 53 51h83q0 -65 -32.5 -97t-90.5 -32
q-49 0 -127.5 32.5t-102.5 32.5q-27 0 -40.5 -15t-13.5 -40h-81z" />
    <glyph glyph-name="notequal" unicode="&#x2260;" horiz-adv-x="571" 
d="M150 0l45 120h-132v83h163l39 105h-202v83h233l42 114h82l-42 -114h130v-83h-161l-39 -105h200v-83h-231l-45 -120h-82z" />
    <glyph glyph-name="lessequal" unicode="&#x2264;" horiz-adv-x="568" 
d="M63 1v77h440v-77h-440zM62 290v108l440 162v-88l-357 -127l357 -130v-89z" />
    <glyph glyph-name="greaterequal" unicode="&#x2265;" horiz-adv-x="568" 
d="M505 1h-440v77h440v-77zM66 126v89l357 130l-357 127v88l440 -162v-108z" />
    <glyph glyph-name="angleleft" unicode="&#x2329;" horiz-adv-x="320" 
d="M205 -100l-174 425l174 425l75 -31l-159 -390l162 -397z" />
    <glyph glyph-name="angleright" unicode="&#x232a;" horiz-adv-x="321" 
d="M116 750l174 -425l-174 -425l-75 31l159 390l-162 397z" />
    <glyph glyph-name="uni2460" unicode="&#x2460;" horiz-adv-x="885" 
d="M442 -33q-161 0 -271.5 111.5t-110.5 271.5q0 162 110 272.5t272 110.5t272 -110.5t110 -272.5q0 -160 -110.5 -271.5t-271.5 -111.5zM122 350q0 -140 92 -234.5t228 -94.5t228.5 94.5t92.5 234.5q0 139 -92.5 234t-228.5 95t-228 -95t-92 -234zM299 403v57
q120 0 142 117h71v-455h-82v281h-131z" />
    <glyph glyph-name="uni2461" unicode="&#x2461;" horiz-adv-x="885" 
d="M442 -33q-161 0 -271.5 111.5t-110.5 271.5q0 162 110 272.5t272 110.5t272 -110.5t110 -272.5q0 -160 -110.5 -271.5t-271.5 -111.5zM122 350q0 -140 92 -234.5t228 -94.5t228.5 94.5t92.5 234.5q0 139 -92.5 234t-228.5 95t-228 -95t-92 -234zM268 124q3 74 38 123
t113 91l32 17q49 27 68.5 48.5t19.5 50.5q0 31 -22 50t-57 19q-44 0 -68.5 -25t-24.5 -72h-85q0 77 49 120.5t130 43.5q73 0 117 -39.5t44 -97.5q0 -45 -27.5 -78.5t-80.5 -63.5l-42 -23q-53 -30 -76 -50t-29 -44h249v-70h-348z" />
    <glyph glyph-name="uni2462" unicode="&#x2462;" horiz-adv-x="885" 
d="M442 -33q-161 0 -271.5 111.5t-110.5 271.5q0 162 110 272.5t272 110.5t272 -110.5t110 -272.5q0 -160 -110.5 -271.5t-271.5 -111.5zM122 350q0 -140 92 -234.5t228 -94.5t228.5 94.5t92.5 234.5q0 139 -92.5 234t-228.5 95t-228 -95t-92 -234zM269 246h82
q6 -32 30.5 -51t64.5 -19q38 0 63 20t25 50q0 36 -30 57t-80 21h-34v63h34q44 0 70.5 19.5t26.5 51.5q0 29 -21.5 47.5t-54.5 18.5q-72 0 -85 -70h-82q6 59 53 97.5t117 38.5q68 0 111 -36.5t43 -86.5q0 -38 -23.5 -67t-62.5 -40q100 -28 100 -117q0 -53 -47.5 -93
t-121.5 -40q-76 0 -123.5 37t-54.5 99z" />
    <glyph glyph-name="uni2463" unicode="&#x2463;" horiz-adv-x="885" 
d="M442 -33q-161 0 -271.5 111.5t-110.5 271.5q0 162 110 272.5t272 110.5t272 -110.5t110 -272.5q0 -160 -110.5 -271.5t-271.5 -111.5zM122 350q0 -140 92 -234.5t228 -94.5t228.5 94.5t92.5 234.5q0 139 -92.5 234t-228.5 95t-228 -95t-92 -234zM237 220v78l232 279h84
v-290h60v-68h-60v-97h-80v98h-236zM312 287h161v193z" />
    <glyph glyph-name="uni2464" unicode="&#x2464;" horiz-adv-x="885" 
d="M442 -33q-161 0 -271.5 111.5t-110.5 271.5q0 162 110 272.5t272 110.5t272 -110.5t110 -272.5q0 -160 -110.5 -271.5t-271.5 -111.5zM122 350q0 -140 92 -234.5t228 -94.5t228.5 94.5t92.5 234.5q0 139 -92.5 234t-228.5 95t-228 -95t-92 -234zM268 237h86
q6 -28 30.5 -45t60.5 -17q42 0 65.5 25t23.5 64t-23 64t-62 25q-55 0 -85 -42h-81l34 266h276v-69h-213l-17 -135q13 17 41.5 29.5t61.5 12.5q69 0 110.5 -40.5t41.5 -110.5q0 -68 -48 -111.5t-125 -43.5q-72 0 -120.5 35.5t-56.5 92.5z" />
    <glyph glyph-name="uni2465" unicode="&#x2465;" horiz-adv-x="885" 
d="M442 -33q-161 0 -271.5 111.5t-110.5 271.5q0 162 110 272.5t272 110.5t272 -110.5t110 -272.5q0 -160 -110.5 -271.5t-271.5 -111.5zM122 350q0 -140 92 -234.5t228 -94.5t228.5 94.5t92.5 234.5q0 139 -92.5 234t-228.5 95t-228 -95t-92 -234zM252 343
q0 114 52.5 180.5t143.5 66.5q61 0 103 -31t49 -82h-83q-5 21 -25.5 34.5t-47.5 13.5q-54 0 -83.5 -45t-29.5 -128q17 30 49.5 48t70.5 18q67 0 113.5 -44t46.5 -109q0 -69 -47.5 -112.5t-121.5 -43.5q-89 0 -139.5 62t-50.5 172zM347 265q0 -38 26.5 -64.5t66.5 -26.5
q39 0 63.5 25.5t24.5 65.5t-25 65t-63 25q-39 0 -66 -26t-27 -64z" />
    <glyph glyph-name="uni2466" unicode="&#x2466;" horiz-adv-x="885" 
d="M442 -33q-161 0 -271.5 111.5t-110.5 271.5q0 162 110 272.5t272 110.5t272 -110.5t110 -272.5q0 -160 -110.5 -271.5t-271.5 -111.5zM122 350q0 -140 92 -234.5t228 -94.5t228.5 94.5t92.5 234.5q0 139 -92.5 234t-228.5 95t-228 -95t-92 -234zM292 505v72h315v-73
l-181 -382h-84l186 383h-236z" />
    <glyph glyph-name="uni2467" unicode="&#x2467;" horiz-adv-x="885" 
d="M442 -33q-161 0 -271.5 111.5t-110.5 271.5q0 162 110 272.5t272 110.5t272 -110.5t110 -272.5q0 -160 -110.5 -271.5t-271.5 -111.5zM122 350q0 -140 92 -234.5t228 -94.5t228.5 94.5t92.5 234.5q0 139 -92.5 234t-228.5 95t-228 -95t-92 -234zM264 248q0 44 26.5 75.5
t68.5 40.5q-37 13 -57.5 40.5t-20.5 62.5q0 51 46 87t116 36t115.5 -36t45.5 -87q0 -36 -20.5 -63.5t-56.5 -39.5q43 -10 68.5 -41t25.5 -75q0 -60 -50 -99.5t-128 -39.5t-128.5 39.5t-50.5 99.5zM347 255q0 -35 27.5 -58.5t68.5 -23.5q42 0 69 23t27 59q0 37 -26 59t-70 22
q-43 0 -69.5 -22t-26.5 -59zM364 461q0 -29 22.5 -48.5t56.5 -19.5t56 19.5t22 48.5q0 28 -22 46t-56 18q-35 0 -57 -18t-22 -46z" />
    <glyph glyph-name="uni2468" unicode="&#x2468;" horiz-adv-x="885" 
d="M442 -33q-161 0 -271.5 111.5t-110.5 271.5q0 162 110 272.5t272 110.5t272 -110.5t110 -272.5q0 -160 -110.5 -271.5t-271.5 -111.5zM122 350q0 -140 92 -234.5t228 -94.5t228.5 94.5t92.5 234.5q0 139 -92.5 234t-228.5 95t-228 -95t-92 -234zM273 434q0 69 47.5 113
t121.5 44q89 0 139.5 -62t50.5 -172q0 -114 -52.5 -180.5t-143.5 -66.5q-61 0 -103 31t-49 82h83q5 -22 25.5 -35.5t48.5 -13.5q54 0 83 45.5t29 128.5q-16 -30 -48.5 -48.5t-71.5 -18.5q-67 0 -113.5 44t-46.5 109zM356 434q0 -40 25 -65t63 -25q39 0 66 26t27 64
q0 39 -26.5 65t-66.5 26q-39 0 -63.5 -25.5t-24.5 -65.5z" />
    <glyph glyph-name="uni24EA" unicode="&#x24ea;" horiz-adv-x="885" 
d="M442 -33q-161 0 -271.5 111.5t-110.5 271.5q0 162 110 272.5t272 110.5t272 -110.5t110 -272.5q0 -160 -110.5 -271.5t-271.5 -111.5zM122 350q0 -140 92 -234.5t228 -94.5t228.5 94.5t92.5 234.5q0 139 -92.5 234t-228.5 95t-228 -95t-92 -234zM255 350q0 114 52.5 177
t135.5 63t135 -63t52 -177q0 -117 -50.5 -179t-136.5 -62q-83 0 -135.5 63t-52.5 178zM340 350q0 -174 103 -174q102 0 102 174q0 173 -102 173q-103 0 -103 -173z" />
    <glyph glyph-name="uni24FF" unicode="&#x24ff;" horiz-adv-x="843" 
d="M421 -15q156 0 258 104.5t102 260.5t-102 260.5t-258 104.5t-258 -104.5t-102 -260.5t102 -260.5t258 -104.5zM238 350q0 112 51 173.5t133 61.5t132.5 -61.5t50.5 -173.5q0 -114 -49.5 -175t-133.5 -61q-82 0 -133 61.5t-51 174.5zM322 350q0 -170 100 -170q99 0 99 170
q0 169 -99 169q-100 0 -100 -169z" />
    <glyph glyph-name="filledbox" unicode="&#x25a0;" horiz-adv-x="890" 
d="M95 0v700h700v-700h-700z" />
    <glyph glyph-name="uni25A1" unicode="&#x25a1;" horiz-adv-x="890" 
d="M95 0v700h700v-700h-700zM186 91h518v518h-518v-518z" />
    <glyph glyph-name="triagup" unicode="&#x25b2;" horiz-adv-x="868" 
d="M16 0l418 735l418 -735h-836z" />
    <glyph glyph-name="uni25B3" unicode="&#x25b3;" horiz-adv-x="868" 
d="M16 0l418 735l418 -735h-836zM164 84h541l-271 477z" />
    <glyph glyph-name="uni25B6" unicode="&#x25b6;" horiz-adv-x="779" 
d="M106 -16v732l623 -366z" />
    <glyph glyph-name="uni25B7" unicode="&#x25b7;" horiz-adv-x="779" 
d="M106 -16v732l623 -366zM195 136l363 214l-363 214v-428z" />
    <glyph glyph-name="triagdn" unicode="&#x25bc;" horiz-adv-x="870" 
d="M853 700l-418 -735l-418 735h836z" />
    <glyph glyph-name="uni25BD" unicode="&#x25bd;" horiz-adv-x="870" 
d="M853 700l-418 -735l-418 735h836zM164 616l271 -477l270 477h-541z" />
    <glyph glyph-name="uni25C0" unicode="&#x25c0;" horiz-adv-x="779" 
d="M673 716v-732l-623 366z" />
    <glyph glyph-name="uni25C1" unicode="&#x25c1;" horiz-adv-x="779" 
d="M673 716v-732l-623 366zM221 350l363 -214v428z" />
    <glyph glyph-name="uni25C6" unicode="&#x25c6;" horiz-adv-x="923" 
d="M461 -63l-413 413l413 414l413 -414z" />
    <glyph glyph-name="uni25C7" unicode="&#x25c7;" horiz-adv-x="923" 
d="M461 -63l-413 413l413 414l413 -414zM169 350l292 -293l293 293l-293 294z" />
    <glyph glyph-name="lozenge" unicode="&#x25ca;" horiz-adv-x="614" 
d="M264 0l-212 350l212 350h86l212 -350l-212 -350h-86zM152 352l156 -263l154 259l-156 263z" />
    <glyph glyph-name="circle" unicode="&#x25cb;" horiz-adv-x="853" 
d="M426 -16q-152 0 -259 106.5t-107 259.5t107 259.5t259 106.5t259 -106.5t107 -259.5t-107 -259.5t-259 -106.5zM154 350q0 -116 79 -196.5t193 -80.5t193 80.5t79 196.5t-79 196.5t-193 80.5t-193 -80.5t-79 -196.5z" />
    <glyph glyph-name="uni25CF" unicode="&#x25cf;" horiz-adv-x="853" 
d="M426 -16q-152 0 -259 106.5t-107 259.5t107 259.5t259 106.5t259 -106.5t107 -259.5t-107 -259.5t-259 -106.5z" />
    <glyph glyph-name="uni2661" unicode="&#x2661;" horiz-adv-x="851" 
d="M426 -19q-31 78 -86 135.5t-139 119.5q-57 42 -88.5 74t-52 79t-20.5 107q0 93 57 155t149 62q119 0 180 -97q26 42 72 69.5t108 27.5q91 0 148.5 -62t57.5 -155q0 -86 -38 -141.5t-123 -118.5q-85 -62 -140 -119t-85 -136zM135 493q0 -60 33 -103.5t100 -92.5
q62 -45 97.5 -81t60.5 -85q24 49 59.5 84.5t97.5 81.5q67 49 100.5 92.5t33.5 103.5q0 62 -37.5 99.5t-97.5 37.5q-53 0 -96.5 -33.5t-59.5 -83.5q-17 50 -60 83.5t-97 33.5q-59 0 -96.5 -37.5t-37.5 -99.5z" />
    <glyph glyph-name="heart" unicode="&#x2665;" horiz-adv-x="851" 
d="M426 -20q-28 67 -80.5 121.5t-143.5 124.5q-90 69 -126.5 127.5t-36.5 141.5q0 90 57.5 154t149.5 64q64 0 112 -34.5t68 -83.5q20 49 68 83.5t112 34.5q92 0 149.5 -64t57.5 -154q0 -83 -36.5 -141.5t-126.5 -127.5q-91 -70 -143.5 -124.5t-80.5 -121.5z" />
    <glyph glyph-name="uni2776" unicode="&#x2776;" horiz-adv-x="843" 
d="M421 -15q156 0 258 104.5t102 260.5t-102 260.5t-258 104.5t-258 -104.5t-102 -260.5t102 -260.5t258 -104.5zM281 402v56q118 0 138 114h70v-445h-80v275h-128z" />
    <glyph glyph-name="uni2777" unicode="&#x2777;" horiz-adv-x="843" 
d="M421 -15q156 0 258 104.5t102 260.5t-102 260.5t-258 104.5t-258 -104.5t-102 -260.5t102 -260.5t258 -104.5zM251 129q3 72 37.5 120.5t110.5 88.5l31 17q48 26 67 47t19 50q0 30 -21.5 48.5t-55.5 18.5q-43 0 -67 -24.5t-24 -69.5h-83q0 75 48 117.5t127 42.5
q70 0 113.5 -38.5t43.5 -95.5q0 -81 -105 -139l-41 -23q-52 -29 -74.5 -48t-28.5 -43h244v-69h-341z" />
    <glyph glyph-name="uni2778" unicode="&#x2778;" horiz-adv-x="843" 
d="M421 -15q156 0 258 104.5t102 260.5t-102 260.5t-258 104.5t-258 -104.5t-102 -260.5t102 -260.5t258 -104.5zM252 249h80q6 -32 29.5 -50.5t62.5 -18.5q38 0 62 19.5t24 49.5q0 35 -29 55t-78 20h-33v62h33q43 0 68.5 19t25.5 51q0 28 -21 46t-53 18q-34 0 -55.5 -18.5
t-26.5 -49.5h-80q5 58 51 95.5t114 37.5q67 0 108.5 -36t41.5 -85q0 -37 -22.5 -65t-60.5 -39q98 -27 98 -115q0 -51 -47 -90.5t-119 -39.5q-74 0 -120 36.5t-53 97.5z" />
    <glyph glyph-name="uni2779" unicode="&#x2779;" horiz-adv-x="843" 
d="M421 -15q156 0 258 104.5t102 260.5t-102 260.5t-258 104.5t-258 -104.5t-102 -260.5t102 -260.5t258 -104.5zM221 223v77l226 272h83v-284h58v-66h-58v-95h-79v96h-230zM294 288h157v189z" />
    <glyph glyph-name="uni277A" unicode="&#x277a;" horiz-adv-x="843" 
d="M421 -15q156 0 258 104.5t102 260.5t-102 260.5t-258 104.5t-258 -104.5t-102 -260.5t102 -260.5t258 -104.5zM250 240h85q5 -27 29 -44t59 -17q41 0 64.5 24.5t23.5 62.5t-23 62.5t-61 24.5q-52 0 -83 -41h-79l33 260h270v-67h-208l-17 -132q13 16 41 28t60 12
q67 0 107.5 -39.5t40.5 -107.5q0 -67 -46.5 -109.5t-122.5 -42.5q-70 0 -117.5 35t-55.5 91z" />
    <glyph glyph-name="uni277B" unicode="&#x277b;" horiz-adv-x="843" 
d="M421 -15q156 0 258 104.5t102 260.5t-102 260.5t-258 104.5t-258 -104.5t-102 -260.5t102 -260.5t258 -104.5zM235 343q0 111 52 176.5t140 65.5q59 0 100.5 -30.5t48.5 -80.5h-81q-5 21 -25.5 34t-47.5 13q-53 0 -81.5 -44t-28.5 -125q17 29 48.5 47t68.5 18
q66 0 111.5 -43t45.5 -107q0 -67 -46.5 -110t-118.5 -43q-88 0 -137 61t-49 168zM328 267q0 -38 26 -63.5t65 -25.5q38 0 62 25t24 64t-24 63.5t-62 24.5t-64.5 -25.5t-26.5 -62.5z" />
    <glyph glyph-name="uni277C" unicode="&#x277c;" horiz-adv-x="843" 
d="M421 -15q156 0 258 104.5t102 260.5t-102 260.5t-258 104.5t-258 -104.5t-102 -260.5t102 -260.5t258 -104.5zM275 502v70h308v-72l-177 -373h-83l182 375h-230z" />
    <glyph glyph-name="uni277D" unicode="&#x277d;" horiz-adv-x="843" 
d="M421 -15q156 0 258 104.5t102 260.5t-102 260.5t-258 104.5t-258 -104.5t-102 -260.5t102 -260.5t258 -104.5zM246 250q0 43 26 74t67 40q-36 13 -56 39t-20 61q0 50 44.5 85.5t113.5 35.5t113.5 -35.5t44.5 -85.5q0 -35 -20.5 -61.5t-55.5 -38.5q42 -10 67.5 -40.5
t25.5 -73.5q0 -59 -49.5 -97.5t-125.5 -38.5q-77 0 -126 38.5t-49 97.5zM327 257q0 -34 27 -57t67 -23q42 0 68 22.5t26 57.5q0 36 -25.5 58t-68.5 22q-42 0 -68 -22t-26 -58zM344 459q0 -29 21.5 -48t55.5 -19t55.5 19t21.5 48q0 27 -22 44.5t-55 17.5q-34 0 -55.5 -17
t-21.5 -45z" />
    <glyph glyph-name="uni277E" unicode="&#x277e;" horiz-adv-x="843" 
d="M421 -15q156 0 258 104.5t102 260.5t-102 260.5t-258 104.5t-258 -104.5t-102 -260.5t102 -260.5t258 -104.5zM256 433q0 67 47 110t119 43q87 0 136.5 -61t49.5 -168q0 -111 -52 -176.5t-140 -65.5q-59 0 -100.5 30.5t-48.5 80.5h81q5 -21 25 -34.5t47 -13.5
q53 0 81.5 44.5t28.5 125.5q-16 -29 -48 -47t-69 -18q-66 0 -111.5 43t-45.5 107zM337 433q0 -39 24.5 -63.5t62.5 -24.5t64 25.5t26 62.5q0 38 -25.5 63.5t-64.5 25.5q-38 0 -62.5 -25t-24.5 -64z" />
    <glyph glyph-name="uni2B1B" unicode="&#x2b1b;" horiz-adv-x="1030" 
d="M95 770h840v-840h-840v840z" />
    <glyph glyph-name="uni2B1C" unicode="&#x2b1c;" horiz-adv-x="1030" 
d="M95 770h840v-840h-840v840zM186 21h658v658h-658v-658z" />
    <glyph glyph-name="uni300A" unicode="&#x300a;" horiz-adv-x="499" 
d="M383 -100l-174 425l174 425l76 -31l-159 -390l162 -397zM31 325l174 425l75 -31l-159 -390l162 -397l-78 -32z" />
    <glyph glyph-name="uni300B" unicode="&#x300b;" horiz-adv-x="499" 
d="M116 750l174 -425l-174 -425l-76 31l159 390l-162 397zM216 718l78 32l174 -425l-174 -425l-75 31l159 390z" />
    <glyph glyph-name="uni300C" unicode="&#x300c;" horiz-adv-x="383" 
d="M93 250v490h276v-78h-194v-412h-82z" />
    <glyph glyph-name="uni300D" unicode="&#x300d;" horiz-adv-x="371" 
d="M288 400v-490h-276v78h194v412h82z" />
    <glyph glyph-name="uni300E" unicode="&#x300e;" horiz-adv-x="448" 
d="M93 235v505h329v-138h-175v-367h-154zM148 284h44v367h181v40h-225v-407z" />
    <glyph glyph-name="uni300F" unicode="&#x300f;" horiz-adv-x="440" 
d="M355 415v-505h-329v138h175v367h154zM75 -41h225v407h-44v-367h-181v-40z" />
    <glyph glyph-name="uni3010" unicode="&#x3010;" horiz-adv-x="344" 
d="M93 -90v830h227q-138 -186 -138 -415t138 -415h-227z" />
    <glyph glyph-name="uni3011" unicode="&#x3011;" horiz-adv-x="344" 
d="M251 740v-830h-227q138 186 138 415t-138 415h227z" />
    <glyph glyph-name="uni3014" unicode="&#x3014;" horiz-adv-x="318" 
d="M238 -105l-174 190v480l174 190l58 -58l-150 -162v-415l152 -165z" />
    <glyph glyph-name="uni3015" unicode="&#x3015;" horiz-adv-x="318" 
d="M80 755l174 -190v-480l-174 -190l-58 58l150 162v415l-152 165z" />
    <glyph glyph-name="uniF8FF" unicode="&#xf8ff;" horiz-adv-x="1098" 
d="M533 416q-24 0 -59 5q-72 8 -122 48q-48 40 -58 92q-1 5 -1 21q0 20 -2 27l-9 -6q-29 -18 -43 -18q-9 0 -17 5q-12 12 -12 25q0 18 18 34l17 -21q-8 -8 -8 -13q0 -2 2 -4q3 0 10 3q6 3 18 11q23 14 31 12q15 -1 20 -25q2 -9 2 -29v-16q11 -46 49 -78t100 -41q5 18 54 24
h3q25 3 39.5 -6t16.5 -19q2 1 5 1t4 1q59 12 102 84q35 59 24 95l-1 1q-5 12 -10 18.5t-24.5 13.5t-51.5 5q-2 -1 -8 -1q-53 0 -73 -11q-15 -10 -19 -20l-8 -22l-15 19q-33 45 -90 29q-4 -2 -6 -2q-25 -8 -39 -6q-6 2 -12 -4q-16 -12 -28 -8q-79 29 -129 1q-34 -19 -55 -66
l-4 -10q30 16 68 16q50 0 68 -23l-21 -17q-9 13 -47 13q-57 0 -82 -34l-34 -45l11 56q7 33 17 55q26 55 66 78q62 35 150 2l1 1q16 16 37 11q1 0 25 5q4 2 6 2q34 10 65 1q25 -8 42 -25q12 12 20 16q26 15 86 15h6q31 2 53 -2.5t34 -15t16.5 -17.5t9.5 -18l1 -2
q15 -46 -25 -117q-45 -81 -121 -97q-34 -7 -63 -7zM65 49q11 16 35 14q29 -4 45 4.5t19 21.5q6 36 -25 94q-9 14 -10 21q-9 28 4 63q9 32 2 50q-32 81 13 137q23 26 56.5 37.5t66.5 4.5l2 -1h1q31 -21 88 -87q12 -14 16 -21q18 -33 -5 -64q-24 -33 -63 -23q-18 3 -21 -2
q-1 0 -1 -3q0 -5 5 -10q14 -11 15 -22q2 -15 -12 -44q-2 -3 3 -17t3 -23q-5 -22 -31 -22q-3 0 -4 -1q-1 -4 4 -8q18 -15 18 -36h-27q0 10 -8 16q-17 11 -14 32q3 23 28 23l7 1q1 0 1 1q0 4 -2 8q-9 24 -3 38q11 20 11 29l-4 4q-16 13 -17 31q0 16 11 24q15 12 44 7
q24 -6 35 13q13 17 4 34q-8 12 -13 18q-56 67 -79 79q-25 5 -51.5 -4.5t-42.5 -28.5q-14 -17 -19 -45q-6 -29 10 -65q11 -31 -1 -68q-11 -28 -5 -47q0 -1 3 -7l5 -10q0 -1 4 -8.5t5 -9t4.5 -9.5t4.5 -11t4 -10.5t3.5 -12t2 -12t2 -13t0 -12.5t-1.5 -13q-5 -24 -29 -39
q-28 -15 -64 -9q-7 0 -8 -1q-6 -8 1 -19l-23 -15q-15 27 -2 48zM134 3q1 14 16 24q7 5 26 10q17 5 20 9l20 -18q-9 -10 -34 -17q-10 -2 -17 -6q-1 0 -1 -1q19 -2 42 7q10 2 15 -5q11 -13 40 -5q10 3 12 10q0 2 -1 3l-3 3q-14 12 -14 23q0 9 7 16q9 8 27 5q1 -1 4 -1q2 0 4 2
v4q-2 5 -9 6q-9 2 -16 -6l-20 18q17 19 41 14q22 -3 29 -23q5 -14 -2 -25q-6 -13 -21 -16q-3 -1 -8 -1l1 -1q10 -12 7 -28q-6 -21 -30 -29q-13 -4 -26 -4q-22 0 -36 12q-1 0 -8 -1.5t-11 -2.5q-33 -6 -47 8q-7 6 -7 16zM319 213l21 17q54 -67 187 -70q128 -3 210 51l15 -23
q-43 -28 -103 -42q-53 -12 -110 -12h-12q-61 0 -118 20q-60 21 -90 59zM335 541q34 8 46 10q15 0 21 -4q5 -4 3.5 -11t-7.5 -7t-24 11q-14 7 -39 1zM443 489q-7 14 4 28q11 15 37 22q29 7 75 1q21 -1 32 -16q9 -14 6 -29q-1 -2 -2 -5t-2 -4l-2 -4l-17 -1q0 1 4 13l2 4
q2 10 -3 16q-5 7 -20 10q-78 8 -97 -17q-3 -7 -2 -11zM474 499q0 8 7 8q5 1 6 -4t-2 -7q-4 -1 -6 -1t-3.5 1.5t-1.5 2.5zM487 446q49 -5 79 -1q-9 13 -38 10h-4q-1 0 -11 -1.5t-15 -2.5q-3 -1 -6 -3t-5 -2zM556 496q-1 1 -1 4t1 4q4 1 7 -0.5t4 -4t0 -4.5q-2 -3 -6.5 -2.5
t-4.5 3.5zM638 542q-1 14 23 14q5 0 19.5 -2.5t20.5 -2.5q0 -1 -3.5 -1.5t-8 -1.5t-5.5 -1q-3 -1 -10.5 -5.5t-15.5 -7.5q-6 -2 -12.5 0t-7.5 8zM652 310q0 9 2 23q4 34 23 60q24 33 41 45t57 26q34 12 68 7q34 -6 55 -27q19 -19 24 -47q4 -28 -8 -63q-12 -34 -4 -47
q5 -10 5 -17q0 -9 -6 -31q-7 -31 -5.5 -40.5t11.5 -15.5q27 -15 29 -38q1 -14 -8 -32q-2 -4 -2 -6q2 -2 10 -2q4 0 13.5 0.5t14.5 0.5q14 2 19 2q35 0 53 -18q11 -11 9 -26q0 -18 -18 -28q-18 -8 -32 1l14 23q3 -2 6 0q2 0 4 5q0 4 -3 7q-9 9 -33 9q-10 0 -17 -1
q-51 -8 -65 13q-6 11 3 31q7 10 5.5 19t-15.5 17q-25 14 -25 42q-1 13 6 43q5 15 5 24q0 3 -2 6q-13 25 3 68q20 52 -10 82q-35 35 -96 14q-34 -11 -49 -21.5t-36 -40.5q-12 -17 -17 -48q-5 -28 1 -34q7 0 20 12q17 14 35.5 15t26.5 -10q20 -18 0 -42l-1 -2q-1 0 -1 -1
q7 -7 19 -17q20 -17 7 -44q-4 -13 -3 -17l6 -4q12 -7 16 -13q7 -13 -1 -29q-11 -22 -16 -55l34 -6q10 -3 19 -14q9 -8 16 -11q9 -3 12 0q0 2 -1 3l21 17q14 -17 2 -35q-14 -19 -42 -10q-16 5 -28 19q-4 5 -6 5q-6 2 -14 2q-36 7 -41 17q-2 7 1 13q4 36 19 67q2 2 2 3l-6 4
q-15 7 -19 20q-3 15 5 34q4 9 -1 14q-23 19 -27 29q-5 12 6 26l1 1q4 4 3 7q-9 9 -26 -7q-17 -14 -29 -17q-16 -5 -27 6q-12 11 -12 35zM781 585q-1 11 -1.5 17t1.5 15t3 12.5t4 11t4 9.5l2 3q7 18 25.5 26.5t37.5 2.5q86 -26 121 -84q11 -19 13 -24l2 -3q35 -21 53 -51
q22 -36 22 -79q-5 -43 -27 -62l-27 -24l4 36q2 12 -3.5 36t-15.5 43q-6 10 -18 19q-8 5 -25 5q-6 0 -16 2q-15 3 -22 15q-9 13 -7 26q-4 2 -10 2q-3 0 -12 -7q-14 -11 -20 -13q-30 -10 -55 17q-4 2 -5 5q-7 3 -19 19q-6 8 -9 25zM808 588q0 -3 5 -14q1 -4 12 -12l9 -9
q13 -14 27 -8q7 3 12 8q15 13 29 13q3 0 1 13l-45 16q2 5 17 11t27 3q40 -9 37 -62q0 -3 -0.5 -7t-1 -6.5t-0.5 -5t1 -3.5t3 -1l1 -1q2 -1 3 -1q4 -1 13 -1q24 0 38 -9q18 -13 26 -27q10 -18 17 -45q3 34 -16 65q-21 32 -47 45q-2 1 -5 6l-4 8l-12 20q-13 24 -38 39.5
t-68 32.5q-22 9 -31 -14l-1 -2q-12 -31 -9 -52zM903 63q18 8 48 -11q8 -7 14 -8q1 -1 3 0l-2 4l10 24q13 -5 18 -22q3 -12 -5 -22q-13 -14 -31 -10q-5 1 -22 11q-18 12 -23 9z" />
    <glyph glyph-name="A.ss07" horiz-adv-x="694" 
d="M88 445q0 123 71 196.5t188 73.5t188 -73.5t71 -196.5v-445h-95v228h-328v-228h-95v445zM183 310h328v120q0 203 -164 203t-164 -203v-120z" />
    <glyph glyph-name="Aacute.ss07" horiz-adv-x="694" 
d="M88 445q0 123 71 196.5t188 73.5t188 -73.5t71 -196.5v-445h-95v228h-328v-228h-95v445zM183 310h328v120q0 203 -164 203t-164 -203v-120zM304 760l105 112h117l-135 -112h-87z" />
    <glyph glyph-name="Abreve.ss07" horiz-adv-x="694" 
d="M88 445q0 123 71 196.5t188 73.5t188 -73.5t71 -196.5v-445h-95v228h-328v-228h-95v445zM183 310h328v120q0 203 -164 203t-164 -203v-120zM190 872h81q2 -29 22.5 -45.5t53.5 -16.5q34 0 54.5 16.5t22.5 45.5h80q-1 -57 -44.5 -91t-112.5 -34q-67 0 -111.5 34t-45.5 91z
" />
    <glyph glyph-name="uni1EAE.ss07" horiz-adv-x="694" 
d="M88 445q0 123 71 196.5t188 73.5t188 -73.5t71 -196.5v-445h-95v228h-328v-228h-95v445zM183 310h328v120q0 203 -164 203t-164 -203v-120zM190 872h81q2 -29 22.5 -45.5t53.5 -16.5q34 0 54.5 16.5t22.5 45.5h80q-1 -57 -44.5 -91t-112.5 -34q-67 0 -111.5 34t-45.5 91z
M305 902l105 112h117l-135 -112h-87z" />
    <glyph glyph-name="uni1EB6.ss07" horiz-adv-x="694" 
d="M88 445q0 123 71 196.5t188 73.5t188 -73.5t71 -196.5v-445h-95v228h-328v-228h-95v445zM183 310h328v120q0 203 -164 203t-164 -203v-120zM190 872h81q2 -29 22.5 -45.5t53.5 -16.5q34 0 54.5 16.5t22.5 45.5h80q-1 -57 -44.5 -91t-112.5 -34q-67 0 -111.5 34t-45.5 91z
M293 -181v109h107v-109h-107z" />
    <glyph glyph-name="uni1EB6.ss07.ss15" horiz-adv-x="694" 
d="M88 445q0 123 71 196.5t188 73.5t188 -73.5t71 -196.5v-445h-95v228h-328v-228h-95v445zM183 310h328v120q0 203 -164 203t-164 -203v-120zM190 872h81q2 -29 22.5 -45.5t53.5 -16.5q34 0 54.5 16.5t22.5 45.5h80q-1 -57 -44.5 -91t-112.5 -34q-67 0 -111.5 34t-45.5 91z
M285 -125q0 25 18 43t44 18q25 0 43 -18t18 -43q0 -26 -18 -44t-43 -18q-26 0 -44 18t-18 44z" />
    <glyph glyph-name="uni1EB6.ss15" horiz-adv-x="660" 
d="M8 0l270 700h106l267 -700h-103l-59 161h-321l-60 -161h-100zM174 872h81q2 -29 22.5 -45.5t53.5 -16.5q34 0 54.5 16.5t22.5 45.5h80q-1 -57 -44.5 -91t-112.5 -34q-67 0 -111.5 34t-45.5 91zM199 244h260l-57 155q-12 33 -33.5 91t-38.5 105h-1q-44 -121 -74 -201z
M269 -125q0 25 18 43t44 18q25 0 43 -18t18 -43q0 -26 -18 -44t-43 -18q-26 0 -44 18t-18 44z" />
    <glyph glyph-name="uni1EB0.ss07" horiz-adv-x="694" 
d="M88 445q0 123 71 196.5t188 73.5t188 -73.5t71 -196.5v-445h-95v228h-328v-228h-95v445zM166 1014h117l105 -112h-87zM183 310h328v120q0 203 -164 203t-164 -203v-120zM190 872h81q2 -29 22.5 -45.5t53.5 -16.5q34 0 54.5 16.5t22.5 45.5h80q-1 -57 -44.5 -91
t-112.5 -34q-67 0 -111.5 34t-45.5 91z" />
    <glyph glyph-name="uni1EB2.ss07" horiz-adv-x="694" 
d="M88 445q0 123 71 196.5t188 73.5t188 -73.5t71 -196.5v-445h-95v228h-328v-228h-95v445zM183 310h328v120q0 203 -164 203t-164 -203v-120zM190 872h81q2 -29 22.5 -45.5t53.5 -16.5q34 0 54.5 16.5t22.5 45.5h80q-1 -57 -44.5 -91t-112.5 -34q-67 0 -111.5 34t-45.5 91z
M284 970v70q43 15 80 15q45 0 69 -22t24 -60q0 -78 -122 -100l-40 42q91 22 91 51q0 23 -34 23q-28 0 -68 -19z" />
    <glyph glyph-name="uni1EB4.ss07" horiz-adv-x="694" 
d="M88 445q0 123 71 196.5t188 73.5t188 -73.5t71 -196.5v-445h-95v228h-328v-228h-95v445zM179 920q0 54 28.5 82.5t70.5 28.5q34 0 74.5 -26.5t53.5 -26.5q17 0 23 11t7 32h78q0 -55 -28 -83t-69 -28q-35 0 -75 26.5t-54 26.5q-17 0 -23.5 -11t-7.5 -32h-78zM183 310h328
v120q0 203 -164 203t-164 -203v-120zM190 872h81q2 -29 22.5 -45.5t53.5 -16.5q34 0 54.5 16.5t22.5 45.5h80q-1 -57 -44.5 -91t-112.5 -34q-67 0 -111.5 34t-45.5 91z" />
    <glyph glyph-name="Acircumflex.ss07" horiz-adv-x="694" 
d="M88 445q0 123 71 196.5t188 73.5t188 -73.5t71 -196.5v-445h-95v228h-328v-228h-95v445zM183 310h328v120q0 203 -164 203t-164 -203v-120zM183 760l115 112h96l117 -112h-87l-76 54l-77 -54h-88z" />
    <glyph glyph-name="uni1EA4.ss07" horiz-adv-x="694" 
d="M88 445q0 123 71 196.5t188 73.5t188 -73.5t71 -196.5v-445h-95v228h-328v-228h-95v445zM183 310h328v120q0 203 -164 203t-164 -203v-120zM183 760l115 112h96l117 -112h-87l-76 54l-77 -54h-88zM437 881l105 112h117l-135 -112h-87z" />
    <glyph glyph-name="uni1EAC.ss07" horiz-adv-x="694" 
d="M88 445q0 123 71 196.5t188 73.5t188 -73.5t71 -196.5v-445h-95v228h-328v-228h-95v445zM183 310h328v120q0 203 -164 203t-164 -203v-120zM183 760l115 112h96l117 -112h-87l-76 54l-77 -54h-88zM293 -181v109h107v-109h-107z" />
    <glyph glyph-name="uni1EAC.ss07.ss15" horiz-adv-x="694" 
d="M88 445q0 123 71 196.5t188 73.5t188 -73.5t71 -196.5v-445h-95v228h-328v-228h-95v445zM183 310h328v120q0 203 -164 203t-164 -203v-120zM183 760l115 112h96l117 -112h-87l-76 54l-77 -54h-88zM285 -125q0 25 18 43t44 18q25 0 43 -18t18 -43q0 -26 -18 -44t-43 -18
q-26 0 -44 18t-18 44z" />
    <glyph glyph-name="uni1EAC.ss15" horiz-adv-x="660" 
d="M8 0l270 700h106l267 -700h-103l-59 161h-321l-60 -161h-100zM168 760l115 112h96l117 -112h-87l-76 54l-77 -54h-88zM199 244h260l-57 155q-12 33 -33.5 91t-38.5 105h-1q-44 -121 -74 -201zM269 -125q0 25 18 43t44 18q25 0 43 -18t18 -43q0 -26 -18 -44t-43 -18
q-26 0 -44 18t-18 44z" />
    <glyph glyph-name="uni1EA6.ss07" horiz-adv-x="694" 
d="M88 445q0 123 71 196.5t188 73.5t188 -73.5t71 -196.5v-445h-95v228h-328v-228h-95v445zM183 310h328v120q0 203 -164 203t-164 -203v-120zM183 760l115 112h96l117 -112h-87l-76 54l-77 -54h-88zM298 993h117l105 -112h-87z" />
    <glyph glyph-name="uni1EA8.ss07" horiz-adv-x="694" 
d="M88 445q0 123 71 196.5t188 73.5t188 -73.5t71 -196.5v-445h-95v228h-328v-228h-95v445zM183 310h328v120q0 203 -164 203t-164 -203v-120zM183 760l115 112h96l117 -112h-87l-76 54l-77 -54h-88zM416 949v70q43 15 80 15q45 0 69 -22t24 -60q0 -78 -122 -100l-40 42
q91 22 91 51q0 23 -34 23q-28 0 -68 -19z" />
    <glyph glyph-name="uni1EAA.ss07" horiz-adv-x="694" 
d="M88 445q0 123 71 196.5t188 73.5t188 -73.5t71 -196.5v-445h-95v228h-328v-228h-95v445zM179 920q0 54 28.5 82.5t70.5 28.5q34 0 74.5 -26.5t53.5 -26.5q17 0 23 11t7 32h78q0 -55 -28 -83t-69 -28q-35 0 -75 26.5t-54 26.5q-17 0 -23.5 -11t-7.5 -32h-78zM183 310h328
v120q0 203 -164 203t-164 -203v-120zM183 760l115 112h96l117 -112h-87l-76 54l-77 -54h-88z" />
    <glyph glyph-name="Adieresis.ss07" horiz-adv-x="694" 
d="M88 445q0 123 71 196.5t188 73.5t188 -73.5t71 -196.5v-445h-95v228h-328v-228h-95v445zM173 760v110h112v-110h-112zM183 310h328v120q0 203 -164 203t-164 -203v-120zM409 760v110h112v-110h-112z" />
    <glyph glyph-name="Adieresis.ss07.ss15" horiz-adv-x="694" 
d="M88 445q0 123 71 196.5t188 73.5t188 -73.5t71 -196.5v-445h-95v228h-328v-228h-95v445zM162 822q0 28 19.5 47t46.5 19q28 0 47.5 -19t19.5 -47t-19.5 -47.5t-47.5 -19.5q-27 0 -46.5 19.5t-19.5 47.5zM183 310h328v120q0 203 -164 203t-164 -203v-120zM398 822
q0 28 19.5 47t46.5 19t47 -19.5t20 -46.5q0 -28 -20 -47.5t-47 -19.5t-46.5 19.5t-19.5 47.5z" />
    <glyph glyph-name="Adieresis.ss15" horiz-adv-x="660" 
d="M8 0l270 700h106l267 -700h-103l-59 161h-321l-60 -161h-100zM147 822q0 28 19.5 47t46.5 19q28 0 47.5 -19t19.5 -47t-19.5 -47.5t-47.5 -19.5q-27 0 -46.5 19.5t-19.5 47.5zM199 244h260l-57 155q-12 33 -33.5 91t-38.5 105h-1q-44 -121 -74 -201zM383 822
q0 28 19.5 47t46.5 19t47 -19.5t20 -46.5q0 -28 -20 -47.5t-47 -19.5t-46.5 19.5t-19.5 47.5z" />
    <glyph glyph-name="uni1EA0.ss07" horiz-adv-x="694" 
d="M88 445q0 123 71 196.5t188 73.5t188 -73.5t71 -196.5v-445h-95v228h-328v-228h-95v445zM183 310h328v120q0 203 -164 203t-164 -203v-120zM293 -181v109h107v-109h-107z" />
    <glyph glyph-name="uni1EA0.ss07.ss15" horiz-adv-x="694" 
d="M88 445q0 123 71 196.5t188 73.5t188 -73.5t71 -196.5v-445h-95v228h-328v-228h-95v445zM183 310h328v120q0 203 -164 203t-164 -203v-120zM285 -125q0 25 18 43t44 18q25 0 43 -18t18 -43q0 -26 -18 -44t-43 -18q-26 0 -44 18t-18 44z" />
    <glyph glyph-name="uni1EA0.ss15" horiz-adv-x="660" 
d="M8 0l270 700h106l267 -700h-103l-59 161h-321l-60 -161h-100zM199 244h260l-57 155q-12 33 -33.5 91t-38.5 105h-1q-44 -121 -74 -201zM269 -125q0 25 18 43t44 18q25 0 43 -18t18 -43q0 -26 -18 -44t-43 -18q-26 0 -44 18t-18 44z" />
    <glyph glyph-name="Agrave.ss07" horiz-adv-x="694" 
d="M88 445q0 123 71 196.5t188 73.5t188 -73.5t71 -196.5v-445h-95v228h-328v-228h-95v445zM166 872h117l105 -112h-87zM183 310h328v120q0 203 -164 203t-164 -203v-120z" />
    <glyph glyph-name="uni1EA2.ss07" horiz-adv-x="694" 
d="M88 445q0 123 71 196.5t188 73.5t188 -73.5t71 -196.5v-445h-95v228h-328v-228h-95v445zM183 310h328v120q0 203 -164 203t-164 -203v-120zM283 828v70q43 15 80 15q45 0 69 -22t24 -60q0 -78 -122 -100l-40 42q91 22 91 51q0 23 -34 23q-28 0 -68 -19z" />
    <glyph glyph-name="Amacron.ss07" horiz-adv-x="694" 
d="M88 445q0 123 71 196.5t188 73.5t188 -73.5t71 -196.5v-445h-95v228h-328v-228h-95v445zM172 776v73h350v-73h-350zM183 310h328v120q0 203 -164 203t-164 -203v-120z" />
    <glyph glyph-name="Aogonek.ss07" horiz-adv-x="694" 
d="M88 445q0 123 71 196.5t188 73.5t188 -73.5t71 -196.5v-445q-53 -21 -85.5 -48t-32.5 -55q0 -20 14.5 -30.5t38.5 -10.5q32 0 63 14v-59q-36 -16 -86 -16q-46 0 -77.5 20.5t-31.5 60.5t36 72t87 52h-21v228h-328v-228h-95v445zM183 310h328v120q0 203 -164 203t-164 -203
v-120z" />
    <glyph glyph-name="Aring.ss07" horiz-adv-x="694" 
d="M88 445q0 123 71 196.5t188 73.5t188 -73.5t71 -196.5v-445h-95v228h-328v-228h-95v445zM183 310h328v120q0 203 -164 203t-164 -203v-120zM258 826q0 36 26 59.5t63 23.5t62.5 -23.5t25.5 -59.5q0 -37 -25.5 -60t-62.5 -23t-63 23t-26 60zM307 826q0 -18 11.5 -29.5
t28.5 -11.5t28 11.5t11 29.5q0 17 -11 28.5t-28 11.5t-28.5 -11.5t-11.5 -28.5z" />
    <glyph glyph-name="Atilde.ss07" horiz-adv-x="694" 
d="M88 445q0 123 71 196.5t188 73.5t188 -73.5t71 -196.5v-445h-95v228h-328v-228h-95v445zM179 770q0 54 28.5 82.5t70.5 28.5q34 0 74.5 -26.5t53.5 -26.5q17 0 23 11t7 32h78q0 -55 -28 -83t-69 -28q-35 0 -75 26.5t-54 26.5q-17 0 -23.5 -11t-7.5 -32h-78zM183 310h328
v120q0 203 -164 203t-164 -203v-120z" />
    <glyph glyph-name="AE.ss07" horiz-adv-x="1021" 
d="M88 445q0 117 71 186t188 69h617v-84h-373v-213h318v-85h-318v-234h378v-84h-473v228h-313v-228h-95v445zM183 310h313v306h-149q-164 0 -164 -186v-120z" />
    <glyph glyph-name="Cdotaccent.ss15" horiz-adv-x="731" 
d="M387 -15q-147 0 -241 100t-94 265q0 162 97 263.5t238 101.5q67 0 123 -21.5t91.5 -56t56.5 -72t29 -75.5h-97q-46 139 -200 139q-104 0 -171.5 -75t-67.5 -204q0 -128 68.5 -203.5t170.5 -75.5q86 0 133.5 41t66.5 98h97q-8 -38 -29 -75.5t-56.5 -72t-91.5 -56
t-123 -21.5zM319 822q0 27 20 46.5t47 19.5t47 -19.5t20 -46.5t-20 -47t-47 -20t-47 19.5t-20 47.5z" />
    <glyph glyph-name="uni1EC6.ss15" horiz-adv-x="620" 
d="M95 0v700h468v-84h-373v-213h318v-85h-318v-234h378v-84h-473zM165 760l115 112h96l117 -112h-87l-76 54l-77 -54h-88zM270 -125q0 25 18 43t44 18q25 0 43 -18t18 -43q0 -26 -18 -44t-43 -18q-26 0 -44 18t-18 44z" />
    <glyph glyph-name="Edieresis.ss15" horiz-adv-x="620" 
d="M95 0v700h468v-84h-373v-213h318v-85h-318v-234h378v-84h-473zM144 822q0 28 19.5 47t46.5 19q28 0 47.5 -19t19.5 -47t-19.5 -47.5t-47.5 -19.5q-27 0 -46.5 19.5t-19.5 47.5zM380 822q0 28 19.5 47t46.5 19t47 -19.5t20 -46.5q0 -28 -20 -47.5t-47 -19.5t-46.5 19.5
t-19.5 47.5z" />
    <glyph glyph-name="Edotaccent.ss15" horiz-adv-x="620" 
d="M95 0v700h468v-84h-373v-213h318v-85h-318v-234h378v-84h-473zM262 822q0 27 20 46.5t47 19.5t47 -19.5t20 -46.5t-20 -47t-47 -20t-47 19.5t-20 47.5z" />
    <glyph glyph-name="uni1EB8.ss15" horiz-adv-x="620" 
d="M95 0v700h468v-84h-373v-213h318v-85h-318v-234h378v-84h-473zM270 -125q0 25 18 43t44 18q25 0 43 -18t18 -43q0 -26 -18 -44t-43 -18q-26 0 -44 18t-18 44z" />
    <glyph glyph-name="G.ss08" horiz-adv-x="766" 
d="M393 -15q-151 0 -246 99t-95 260q0 166 101 268.5t252 102.5q114 0 194 -62.5t101 -147.5h-97q-55 126 -199 126q-111 0 -182 -77.5t-71 -209.5q0 -129 69.5 -202t177.5 -73q104 0 158.5 62.5t62.5 155.5h-228v78h324v-39q0 -67 -20 -127.5t-58.5 -108.5t-101.5 -76.5
t-142 -28.5z" />
    <glyph glyph-name="G.ss12" horiz-adv-x="781" 
d="M385 -15q-145 0 -239 101.5t-94 258.5q0 164 100 267t254 103q127 0 205.5 -62.5t98.5 -147.5h-98q-55 126 -208 126q-109 0 -181 -76.5t-72 -209.5q0 -128 69 -203t184 -75q97 0 156.5 62t64.5 168h-253v77h346q-13 -84 -13 -178q0 -116 36 -196h-94q-16 45 -23 109
q-69 -124 -239 -124z" />
    <glyph glyph-name="Gbreve.ss08" horiz-adv-x="766" 
d="M393 -15q-151 0 -246 99t-95 260q0 166 101 268.5t252 102.5q114 0 194 -62.5t101 -147.5h-97q-55 126 -199 126q-111 0 -182 -77.5t-71 -209.5q0 -129 69.5 -202t177.5 -73q104 0 158.5 62.5t62.5 155.5h-228v78h324v-39q0 -67 -20 -127.5t-58.5 -108.5t-101.5 -76.5
t-142 -28.5zM244 872h81q2 -29 22.5 -45.5t53.5 -16.5q34 0 54.5 16.5t22.5 45.5h80q-1 -57 -44.5 -91t-112.5 -34q-67 0 -111.5 34t-45.5 91z" />
    <glyph glyph-name="Gbreve.ss12" horiz-adv-x="781" 
d="M385 -15q-145 0 -239 101.5t-94 258.5q0 164 100 267t254 103q127 0 205.5 -62.5t98.5 -147.5h-98q-55 126 -208 126q-109 0 -181 -76.5t-72 -209.5q0 -128 69 -203t184 -75q97 0 156.5 62t64.5 168h-253v77h346q-13 -84 -13 -178q0 -116 36 -196h-94q-16 45 -23 109
q-69 -124 -239 -124zM255 872h81q2 -29 22.5 -45.5t53.5 -16.5q34 0 54.5 16.5t22.5 45.5h80q-1 -57 -44.5 -91t-112.5 -34q-67 0 -111.5 34t-45.5 91z" />
    <glyph glyph-name="Gcircumflex.ss08" horiz-adv-x="766" 
d="M393 -15q-151 0 -246 99t-95 260q0 166 101 268.5t252 102.5q114 0 194 -62.5t101 -147.5h-97q-55 126 -199 126q-111 0 -182 -77.5t-71 -209.5q0 -129 69.5 -202t177.5 -73q104 0 158.5 62.5t62.5 155.5h-228v78h324v-39q0 -67 -20 -127.5t-58.5 -108.5t-101.5 -76.5
t-142 -28.5zM237 760l115 112h96l117 -112h-87l-76 54l-77 -54h-88z" />
    <glyph glyph-name="Gcircumflex.ss12" horiz-adv-x="781" 
d="M385 -15q-145 0 -239 101.5t-94 258.5q0 164 100 267t254 103q127 0 205.5 -62.5t98.5 -147.5h-98q-55 126 -208 126q-109 0 -181 -76.5t-72 -209.5q0 -128 69 -203t184 -75q97 0 156.5 62t64.5 168h-253v77h346q-13 -84 -13 -178q0 -116 36 -196h-94q-16 45 -23 109
q-69 -124 -239 -124zM248 760l115 112h96l117 -112h-87l-76 54l-77 -54h-88z" />
    <glyph glyph-name="uni0122.ss08" horiz-adv-x="766" 
d="M393 -15q-151 0 -246 99t-95 260q0 166 101 268.5t252 102.5q114 0 194 -62.5t101 -147.5h-97q-55 126 -199 126q-111 0 -182 -77.5t-71 -209.5q0 -129 69.5 -202t177.5 -73q104 0 158.5 62.5t62.5 155.5h-228v78h324v-39q0 -67 -20 -127.5t-58.5 -108.5t-101.5 -76.5
t-142 -28.5zM347 -277q51 63 54 119h-48v98h99v-68q0 -87 -47 -149h-58z" />
    <glyph glyph-name="uni0122.ss08.ss15" horiz-adv-x="766" 
d="M393 -15q-151 0 -246 99t-95 260q0 166 101 268.5t252 102.5q114 0 194 -62.5t101 -147.5h-97q-55 126 -199 126q-111 0 -182 -77.5t-71 -209.5q0 -129 69.5 -202t177.5 -73q104 0 158.5 62.5t62.5 155.5h-228v78h324v-39q0 -67 -20 -127.5t-58.5 -108.5t-101.5 -76.5
t-142 -28.5zM307 -273l53 202h79l-52 -202h-80z" />
    <glyph glyph-name="uni0122.ss12" horiz-adv-x="781" 
d="M385 -15q-145 0 -239 101.5t-94 258.5q0 164 100 267t254 103q127 0 205.5 -62.5t98.5 -147.5h-98q-55 126 -208 126q-109 0 -181 -76.5t-72 -209.5q0 -128 69 -203t184 -75q97 0 156.5 62t64.5 168h-253v77h346q-13 -84 -13 -178q0 -116 36 -196h-94q-16 45 -23 109
q-69 -124 -239 -124zM347 -277q51 63 54 119h-48v98h99v-68q0 -87 -47 -149h-58z" />
    <glyph glyph-name="uni0122.ss12.ss15" horiz-adv-x="781" 
d="M385 -15q-145 0 -239 101.5t-94 258.5q0 164 100 267t254 103q127 0 205.5 -62.5t98.5 -147.5h-98q-55 126 -208 126q-109 0 -181 -76.5t-72 -209.5q0 -128 69 -203t184 -75q97 0 156.5 62t64.5 168h-253v77h346q-13 -84 -13 -178q0 -116 36 -196h-94q-16 45 -23 109
q-69 -124 -239 -124zM307 -273l53 202h79l-52 -202h-80z" />
    <glyph glyph-name="uni0122.ss15" horiz-adv-x="789" 
d="M384 -15q-144 0 -238 101t-94 257q0 165 100 268.5t254 103.5q127 0 205.5 -62.5t98.5 -147.5h-97q-56 126 -209 126q-109 0 -181 -76.5t-72 -209.5q0 -128 68.5 -203t183.5 -75q100 0 162 61.5t66 168.5h-259v78h338v-375h-86v99q-72 -114 -240 -114zM307 -273l53 202
h79l-52 -202h-80z" />
    <glyph glyph-name="Gdotaccent.ss08" horiz-adv-x="766" 
d="M393 -15q-151 0 -246 99t-95 260q0 166 101 268.5t252 102.5q114 0 194 -62.5t101 -147.5h-97q-55 126 -199 126q-111 0 -182 -77.5t-71 -209.5q0 -129 69.5 -202t177.5 -73q104 0 158.5 62.5t62.5 155.5h-228v78h324v-39q0 -67 -20 -127.5t-58.5 -108.5t-101.5 -76.5
t-142 -28.5zM345 760v110h111v-110h-111z" />
    <glyph glyph-name="Gdotaccent.ss08.ss15" horiz-adv-x="766" 
d="M393 -15q-151 0 -246 99t-95 260q0 166 101 268.5t252 102.5q114 0 194 -62.5t101 -147.5h-97q-55 126 -199 126q-111 0 -182 -77.5t-71 -209.5q0 -129 69.5 -202t177.5 -73q104 0 158.5 62.5t62.5 155.5h-228v78h324v-39q0 -67 -20 -127.5t-58.5 -108.5t-101.5 -76.5
t-142 -28.5zM334 822q0 27 20 46.5t47 19.5t47 -19.5t20 -46.5t-20 -47t-47 -20t-47 19.5t-20 47.5z" />
    <glyph glyph-name="Gdotaccent.ss12" horiz-adv-x="781" 
d="M385 -15q-145 0 -239 101.5t-94 258.5q0 164 100 267t254 103q127 0 205.5 -62.5t98.5 -147.5h-98q-55 126 -208 126q-109 0 -181 -76.5t-72 -209.5q0 -128 69 -203t184 -75q97 0 156.5 62t64.5 168h-253v77h346q-13 -84 -13 -178q0 -116 36 -196h-94q-16 45 -23 109
q-69 -124 -239 -124zM356 760v110h111v-110h-111z" />
    <glyph glyph-name="Gdotaccent.ss12.ss15" horiz-adv-x="781" 
d="M385 -15q-145 0 -239 101.5t-94 258.5q0 164 100 267t254 103q127 0 205.5 -62.5t98.5 -147.5h-98q-55 126 -208 126q-109 0 -181 -76.5t-72 -209.5q0 -128 69 -203t184 -75q97 0 156.5 62t64.5 168h-253v77h346q-13 -84 -13 -178q0 -116 36 -196h-94q-16 45 -23 109
q-69 -124 -239 -124zM345 822q0 27 20 46.5t47 19.5t47 -19.5t20 -46.5t-20 -47t-47 -20t-47 19.5t-20 47.5z" />
    <glyph glyph-name="Gdotaccent.ss15" horiz-adv-x="789" 
d="M384 -15q-144 0 -238 101t-94 257q0 165 100 268.5t254 103.5q127 0 205.5 -62.5t98.5 -147.5h-97q-56 126 -209 126q-109 0 -181 -76.5t-72 -209.5q0 -128 68.5 -203t183.5 -75q100 0 162 61.5t66 168.5h-259v78h338v-375h-86v99q-72 -114 -240 -114zM345 822
q0 27 20 46.5t47 19.5t47 -19.5t20 -46.5t-20 -47t-47 -20t-47 19.5t-20 47.5z" />
    <glyph glyph-name="IJ.ss12" horiz-adv-x="588" 
d="M95 0v700h95v-700h-95zM315 0q90 93 90 219v481h95v-473q0 -79 -17 -131t-58 -96h-110z" />
    <glyph glyph-name="Idotaccent.ss15" horiz-adv-x="285" 
d="M95 0v700h95v-700h-95zM75 822q0 27 20 46.5t47 19.5t47 -19.5t20 -46.5t-20 -47t-47 -20t-47 19.5t-20 47.5z" />
    <glyph glyph-name="uni1ECA.ss15" horiz-adv-x="285" 
d="M95 0v700h95v-700h-95zM81 -125q0 25 18 43t44 18q25 0 43 -18t18 -43q0 -26 -18 -44t-43 -18q-26 0 -44 18t-18 44z" />
    <glyph glyph-name="J.ss12" horiz-adv-x="303" 
d="M30 0q90 93 90 219v481h95v-473q0 -79 -17 -131t-58 -96h-110z" />
    <glyph glyph-name="Jcircumflex.ss12" horiz-adv-x="303" 
d="M30 0q90 93 90 219v481h95v-473q0 -79 -17 -131t-58 -96h-110zM3 760l115 112h96l117 -112h-87l-76 54l-77 -54h-88z" />
    <glyph glyph-name="uni0136.ss15" horiz-adv-x="678" 
d="M95 0v700h95v-357l352 357h121l-281 -283l286 -417h-117l-235 352l-126 -127v-225h-95zM256 -273l53 202h79l-52 -202h-80z" />
    <glyph glyph-name="Lcaron.ss15" horiz-adv-x="517" 
d="M95 0v700h95v-611h301v-89h-396zM240 509l50 191h74l-49 -191h-75z" />
    <glyph glyph-name="uni013B.ss15" horiz-adv-x="516" 
d="M95 0v700h95v-611h301v-89h-396zM198 -273l53 202h79l-52 -202h-80z" />
    <glyph glyph-name="Ldot.ss15" horiz-adv-x="531" 
d="M95 0v700h95v-611h301v-89h-396zM330 352q0 26 18.5 44t45.5 18q26 0 44.5 -18.5t18.5 -43.5q0 -26 -18.5 -45t-44.5 -19t-45 19t-19 45z" />
    <glyph glyph-name="uni0145.ss15" horiz-adv-x="758" 
d="M95 0v700h121l356 -580q-3 105 -3 211v369h94v-700h-121l-358 583q5 -112 5 -209v-374h-94zM285 -273l53 202h79l-52 -202h-80z" />
    <glyph glyph-name="uni1ED8.ss15" horiz-adv-x="800" 
d="M400 -15q-145 0 -247 103.5t-102 261.5t102 261.5t247 103.5t247 -103.5t102 -261.5t-102 -261.5t-247 -103.5zM150 350q0 -127 69 -204t181 -77t181 77t69 204t-69 204t-181 77t-181 -77t-69 -204zM236 760l115 112h96l117 -112h-87l-76 54l-77 -54h-88zM338 -125
q0 25 18 43t44 18q25 0 43 -18t18 -43q0 -26 -18 -44t-43 -18q-26 0 -44 18t-18 44z" />
    <glyph glyph-name="Odieresis.ss15" horiz-adv-x="800" 
d="M400 -15q-145 0 -247 103.5t-102 261.5t102 261.5t247 103.5t247 -103.5t102 -261.5t-102 -261.5t-247 -103.5zM150 350q0 -127 69 -204t181 -77t181 77t69 204t-69 204t-181 77t-181 -77t-69 -204zM215 822q0 28 19.5 47t46.5 19q28 0 47.5 -19t19.5 -47t-19.5 -47.5
t-47.5 -19.5q-27 0 -46.5 19.5t-19.5 47.5zM451 822q0 28 19.5 47t46.5 19t47 -19.5t20 -46.5q0 -28 -20 -47.5t-47 -19.5t-46.5 19.5t-19.5 47.5z" />
    <glyph glyph-name="uni1ECC.ss15" horiz-adv-x="800" 
d="M400 -15q-145 0 -247 103.5t-102 261.5t102 261.5t247 103.5t247 -103.5t102 -261.5t-102 -261.5t-247 -103.5zM150 350q0 -127 69 -204t181 -77t181 77t69 204t-69 204t-181 77t-181 -77t-69 -204zM338 -125q0 25 18 43t44 18q25 0 43 -18t18 -43q0 -26 -18 -44t-43 -18
q-26 0 -44 18t-18 44z" />
    <glyph glyph-name="uni1EE2.ss15" horiz-adv-x="800" 
d="M400 -15q-145 0 -247 103.5t-102 261.5t102 261.5t247 103.5q53 0 101 -15q50 2 72.5 27.5t18.5 78.5h75q10 -103 -82 -144q75 -48 119.5 -129.5t44.5 -182.5q0 -158 -102 -261.5t-247 -103.5zM150 350q0 -127 69 -204t181 -77t181 77t69 204t-69 204t-181 77t-181 -77
t-69 -204zM338 -125q0 25 18 43t44 18q25 0 43 -18t18 -43q0 -26 -18 -44t-43 -18q-26 0 -44 18t-18 44z" />
    <glyph glyph-name="Q.ss10" horiz-adv-x="800" 
d="M644 -40l-74 69q-80 -44 -170 -44q-145 0 -247 103.5t-102 261.5t102 261.5t247 103.5t247 -103.5t102 -261.5q0 -165 -111 -271l128 -119h-122zM150 350q0 -127 69 -204t181 -77q58 0 104 21l-153 142h121l101 -94q77 77 77 212q0 127 -69 204t-181 77t-181 -77
t-69 -204z" />
    <glyph glyph-name="R.ss09" horiz-adv-x="666" 
d="M95 0v700h257q115 0 180 -52t65 -133q0 -68 -35.5 -110.5t-95.5 -59.5q50 -5 79.5 -43t29.5 -105v-62q0 -94 36 -134v-1h-107q-24 53 -24 125v62q0 67 -26.5 92.5t-90.5 25.5h-173v-305h-95zM190 383h158q152 0 152 119q0 118 -156 118h-154v-237z" />
    <glyph glyph-name="Racute.ss09" horiz-adv-x="666" 
d="M95 0v700h257q115 0 180 -52t65 -133q0 -68 -35.5 -110.5t-95.5 -59.5q50 -5 79.5 -43t29.5 -105v-62q0 -94 36 -134v-1h-107q-24 53 -24 125v62q0 67 -26.5 92.5t-90.5 25.5h-173v-305h-95zM190 383h158q152 0 152 119q0 118 -156 118h-154v-237zM289 760l105 112h117
l-135 -112h-87z" />
    <glyph glyph-name="Rcaron.ss09" horiz-adv-x="666" 
d="M95 0v700h257q115 0 180 -52t65 -133q0 -68 -35.5 -110.5t-95.5 -59.5q50 -5 79.5 -43t29.5 -105v-62q0 -94 36 -134v-1h-107q-24 53 -24 125v62q0 67 -26.5 92.5t-90.5 25.5h-173v-305h-95zM141 872h87l77 -54l76 54h88l-115 -112h-96zM190 383h158q152 0 152 119
q0 118 -156 118h-154v-237z" />
    <glyph glyph-name="uni0156.ss09" horiz-adv-x="666" 
d="M95 0v700h257q115 0 180 -52t65 -133q0 -68 -35.5 -110.5t-95.5 -59.5q50 -5 79.5 -43t29.5 -105v-62q0 -94 36 -134v-1h-107q-24 53 -24 125v62q0 67 -26.5 92.5t-90.5 25.5h-173v-305h-95zM190 383h158q152 0 152 119q0 118 -156 118h-154v-237zM294 -277q51 63 54 119
h-48v98h99v-68q0 -87 -47 -149h-58z" />
    <glyph glyph-name="uni0156.ss09.ss15" horiz-adv-x="666" 
d="M95 0v700h257q115 0 180 -52t65 -133q0 -68 -35.5 -110.5t-95.5 -59.5q50 -5 79.5 -43t29.5 -105v-62q0 -94 36 -134v-1h-107q-24 53 -24 125v62q0 67 -26.5 92.5t-90.5 25.5h-173v-305h-95zM190 383h158q152 0 152 119q0 118 -156 118h-154v-237zM254 -273l53 202h79
l-52 -202h-80z" />
    <glyph glyph-name="uni0156.ss15" horiz-adv-x="656" 
d="M95 0v700h252q116 0 182.5 -55.5t66.5 -145.5q0 -77 -53 -129.5t-144 -65.5l219 -304h-114l-209 300h-105v-300h-95zM190 378h149q72 0 116 31t44 90q0 61 -42 91t-115 30h-152v-242zM251 -273l53 202h79l-52 -202h-80z" />
    <glyph glyph-name="uni0218.ss15" horiz-adv-x="661" 
d="M339 -15q-128 0 -206.5 63t-90.5 167h100q13 -70 64 -109t135 -39q79 0 127.5 35t48.5 88q0 44 -34 69t-119 46l-86 21q-113 28 -163.5 71.5t-50.5 120.5q0 83 74.5 140t183.5 57q115 0 186.5 -51.5t87.5 -133.5h-98q-15 49 -60 77t-116 28t-116 -32t-45 -83
q0 -41 30 -61.5t112 -41.5l85 -22q122 -32 175 -76t53 -116q0 -94 -77.5 -156t-199.5 -62zM234 -273l53 202h79l-52 -202h-80z" />
    <glyph glyph-name="uni021A.ss15" horiz-adv-x="532" 
d="M219 0v614h-194v86h482v-86h-193v-614h-95zM171 -273l53 202h79l-52 -202h-80z" />
    <glyph glyph-name="Udieresis.ss15" horiz-adv-x="692" 
d="M346 -15q-116 0 -187 73t-71 197v445h95v-431q0 -94 42 -145.5t121 -51.5t121 51.5t42 145.5v431h95v-445q0 -124 -71.5 -197t-186.5 -73zM161 822q0 28 19.5 47t46.5 19q28 0 47.5 -19t19.5 -47t-19.5 -47.5t-47.5 -19.5q-27 0 -46.5 19.5t-19.5 47.5zM397 822
q0 28 19.5 47t46.5 19t47 -19.5t20 -46.5q0 -28 -20 -47.5t-47 -19.5t-46.5 19.5t-19.5 47.5z" />
    <glyph glyph-name="uni1EE4.ss15" horiz-adv-x="692" 
d="M346 -15q-116 0 -187 73t-71 197v445h95v-431q0 -94 42 -145.5t121 -51.5t121 51.5t42 145.5v431h95v-445q0 -124 -71.5 -197t-186.5 -73zM284 -125q0 25 18 43t44 18q25 0 43 -18t18 -43q0 -26 -18 -44t-43 -18q-26 0 -44 18t-18 44z" />
    <glyph glyph-name="uni1EF0.ss15" horiz-adv-x="704" 
d="M346 -15q-116 0 -187 73t-71 197v445h95v-431q0 -94 42 -145.5t121 -51.5t121 51.5t42 145.5v431h28q48 0 67 25t15 81h75q6 -57 -18 -96.5t-72 -55.5v-399q0 -124 -71.5 -197t-186.5 -73zM284 -125q0 25 18 43t44 18q25 0 43 -18t18 -43q0 -26 -18 -44t-43 -18
q-26 0 -44 18t-18 44z" />
    <glyph glyph-name="Wdieresis.ss15" horiz-adv-x="918" 
d="M211 0l-181 700h97l142 -569l132 569h120l132 -568l139 568h96l-180 -700h-108l-142 586l-140 -586h-107zM276 822q0 28 19.5 47t46.5 19q28 0 47.5 -19t19.5 -47t-19.5 -47.5t-47.5 -19.5q-27 0 -46.5 19.5t-19.5 47.5zM512 822q0 28 19.5 47t46.5 19t47 -19.5t20 -46.5
q0 -28 -20 -47.5t-47 -19.5t-46.5 19.5t-19.5 47.5z" />
    <glyph glyph-name="Ydieresis.ss15" horiz-adv-x="595" 
d="M250 0v299l-242 401h110l118 -204q61 -108 66 -117h2q36 71 64 120l114 201h106l-243 -403v-297h-95zM115 822q0 28 19.5 47t46.5 19q28 0 47.5 -19t19.5 -47t-19.5 -47.5t-47.5 -19.5q-27 0 -46.5 19.5t-19.5 47.5zM351 822q0 28 19.5 47t46.5 19t47 -19.5t20 -46.5
q0 -28 -20 -47.5t-47 -19.5t-46.5 19.5t-19.5 47.5z" />
    <glyph glyph-name="uni1EF4.ss15" horiz-adv-x="595" 
d="M250 0v299l-242 401h110l118 -204q61 -108 66 -117h2q36 71 64 120l114 201h106l-243 -403v-297h-95zM236 -125q0 25 18 43t44 18q25 0 43 -18t18 -43q0 -26 -18 -44t-43 -18q-26 0 -44 18t-18 44z" />
    <glyph glyph-name="Zdotaccent.ss15" horiz-adv-x="600" 
d="M43 0v90l399 525h-389v85h494v-90l-399 -525h409v-85h-514zM233 822q0 27 20 46.5t47 19.5t47 -19.5t20 -46.5t-20 -47t-47 -20t-47 19.5t-20 47.5z" />
    <glyph glyph-name="I_S_B_N.dlig" horiz-adv-x="2309" 
d="M1033 0v620h-420q-71 0 -114 -27t-43 -72q0 -43 29 -65t96 -39l73 -19q115 -30 169 -78.5t54 -125.5q0 -86 -65.5 -140t-199.5 -54h-517v700h95v-614h415q81 0 126.5 29t45.5 73q0 45 -30.5 70t-108.5 47l-78 21q-100 28 -150.5 72t-50.5 116q0 80 65 133t166 53h667
q104 0 166.5 -48.5t62.5 -133.5q0 -57 -32 -98.5t-82 -55.5q58 -13 96 -56t38 -108q0 -70 -56 -120h196v620h121l356 -580q-3 105 -3 211v369h94v-700h-121l-358 583q5 -112 5 -209v-374h-707zM1128 80h124q76 0 116.5 31.5t40.5 88.5q0 56 -41 87.5t-116 31.5h-124v-239z
M1128 397h124q65 0 101 30t36 82q0 111 -142 111h-119v-223z" />
    <glyph glyph-name="a.ss01" horiz-adv-x="609" 
d="M271 -15q-99 0 -161.5 73.5t-62.5 195.5t62.5 194.5t161.5 72.5q111 0 164 -88v73h91v-506h-91v73q-53 -88 -164 -88zM140 254q0 -88 39 -140.5t107 -52.5q65 0 107.5 55t42.5 138t-42.5 137t-107.5 54q-68 0 -107 -51.5t-39 -139.5z" />
    <glyph glyph-name="aacute.ss01" horiz-adv-x="609" 
d="M271 -15q-99 0 -161.5 73.5t-62.5 195.5t62.5 194.5t161.5 72.5q111 0 164 -88v73h91v-506h-91v73q-53 -88 -164 -88zM140 254q0 -88 39 -140.5t107 -52.5q65 0 107.5 55t42.5 138t-42.5 137t-107.5 54q-68 0 -107 -51.5t-39 -139.5zM256 578l106 122h116l-134 -122h-88z
" />
    <glyph glyph-name="abreve.ss01" horiz-adv-x="609" 
d="M271 -15q-99 0 -161.5 73.5t-62.5 195.5t62.5 194.5t161.5 72.5q111 0 164 -88v73h91v-506h-91v73q-53 -88 -164 -88zM140 254q0 -88 39 -140.5t107 -52.5q65 0 107.5 55t42.5 138t-42.5 137t-107.5 54q-68 0 -107 -51.5t-39 -139.5zM142 705h80q2 -33 22.5 -52.5
t54.5 -19.5t54.5 19.5t22.5 52.5h80q-1 -62 -44.5 -98.5t-112.5 -36.5q-68 0 -112 37t-45 98z" />
    <glyph glyph-name="uni1EAF.ss01" horiz-adv-x="609" 
d="M271 -15q-99 0 -161.5 73.5t-62.5 195.5t62.5 194.5t161.5 72.5q111 0 164 -88v73h91v-506h-91v73q-53 -88 -164 -88zM140 254q0 -88 39 -140.5t107 -52.5q65 0 107.5 55t42.5 138t-42.5 137t-107.5 54q-68 0 -107 -51.5t-39 -139.5zM142 705h80q2 -33 22.5 -52.5
t54.5 -19.5t54.5 19.5t22.5 52.5h80q-1 -62 -44.5 -98.5t-112.5 -36.5q-68 0 -112 37t-45 98zM256 751l106 122h116l-134 -122h-88z" />
    </font>
</defs>
</svg>
