<?xml version="1.0" standalone="no"?>
<!DOCTYPE svg PUBLIC "-//W3C//DTD SVG 1.1//EN" "http://www.w3.org/Graphics/SVG/1.1/DTD/svg11.dtd" >
<svg xmlns="http://www.w3.org/2000/svg" xmlns:xlink="http://www.w3.org/1999/xlink" version="1.1">
<metadata>
Created by FontForge 20220308 at Mon Jun  5 10:06:10 2023
 By romain pradier
Copyright 2022 Dinamo (Johannes Breyer, Fabian Harb). All rights reserved.
</metadata>
<defs>
<font id="BurberryOracle-Medium" horiz-adv-x="640" >
  <font-face 
    font-family="BurberryOracle-Medium"
    font-weight="500"
    font-stretch="normal"
    units-per-em="1000"
    panose-1="2 11 6 4 4 2 2 6 2 3"
    ascent="805"
    descent="-195"
    x-height="511"
    cap-height="700"
    bbox="-192 -299 2251 1085"
    underline-thickness="50"
    underline-position="-125"
    unicode-range="U+0020-FB02"
  />
<missing-glyph horiz-adv-x="689" 
d="M84 0v700h521v-700h-521zM183 92h324v516h-324v-516z" />
    <glyph glyph-name="fi" unicode="fi" horiz-adv-x="635" 
d="M111 0v423h-93v88h93v39q0 80 45.5 122.5t127.5 42.5q34 0 71 -7v-92q-27 5 -44 5q-78 0 -78 -81v-29h130v-88h-130v-423h-122zM437 573v124h136v-124h-136zM446 0v511h118v-511h-118z" />
    <glyph glyph-name="fl" unicode="fl" horiz-adv-x="636" 
d="M111 0v423h-93v88h93v39q0 80 45.5 122.5t127.5 42.5q34 0 71 -7v-92q-27 5 -44 5q-78 0 -78 -81v-29h130v-88h-130v-423h-122zM446 0v700h119v-700h-119z" />
    <glyph glyph-name="w_w_w.liga" unicode="www" horiz-adv-x="2138" 
d="M158 0l-137 511h129l89 -388l96 388h134l96 -392l97 392h152l98 -392l97 392h133l97 -392l97 392h146l98 -392l97 392h133l96 -388l88 388h122l-135 -511h-148l-95 363l-92 -363h-146l-94 351l-93 -351h-148l-95 363l-92 -363h-146l-97 363l-96 -363h-147l-96 363
l-92 -363h-146z" />
    <glyph glyph-name=".notdef" horiz-adv-x="689" 
d="M84 0v700h521v-700h-521zM183 92h324v516h-324v-516z" />
    <glyph glyph-name=".null" horiz-adv-x="0" 
 />
    <glyph glyph-name="nonmarkingreturn" horiz-adv-x="333" 
 />
    <glyph glyph-name="space" unicode=" " horiz-adv-x="245" 
 />
    <glyph glyph-name="exclam" unicode="!" horiz-adv-x="276" 
d="M102 195l-24 195v310h120v-310l-25 -195h-71zM70 0v138h136v-138h-136z" />
    <glyph glyph-name="quotedbl" unicode="&#x22;" horiz-adv-x="412" 
d="M263 398l-30 164v138h124v-138l-31 -164h-63zM55 562v138h124v-138l-31 -164h-63z" />
    <glyph glyph-name="numbersign" unicode="#" horiz-adv-x="658" 
d="M322 0l36 171h-133l-37 -171h-107l37 171h-81v92h100l38 174h-98v92h117l37 171h108l-37 -171h131l36 171h108l-36 -171h79v-92h-99l-36 -174h95v-92h-115l-36 -171h-107zM245 263h132l37 174h-132z" />
    <glyph glyph-name="dollar" unicode="$" horiz-adv-x="626" 
d="M269 -95v84q-98 15 -161 80.5t-69 159.5h120q17 -111 110 -139v222l-16 4q-199 51 -199 198q0 77 61.5 132.5t153.5 66.5v82h101v-85q94 -14 148.5 -69.5t61.5 -139.5h-121q-15 88 -89 108v-204q107 -30 160 -77.5t53 -127.5q0 -78 -59.5 -138t-153.5 -73v-84h-101z
M171 525q0 -35 21.5 -55.5t76.5 -36.5v181q-46 -7 -72 -30.5t-26 -58.5zM370 88q46 9 71 35t25 65t-22 61.5t-74 36.5v-198z" />
    <glyph glyph-name="percent" unicode="%" horiz-adv-x="926" 
d="M160 0l497 700h115l-498 -700h-114zM31 504q0 100 47.5 155.5t120.5 55.5t120.5 -55.5t47.5 -155.5q0 -102 -44.5 -156.5t-123.5 -54.5q-73 0 -120.5 55.5t-47.5 155.5zM124 504q0 -136 75 -136q74 0 74 136t-74 136q-75 0 -75 -136zM560 200q0 100 47.5 155.5
t120.5 55.5t120.5 -55.5t47.5 -155.5q0 -102 -44.5 -156.5t-123.5 -54.5q-73 0 -120.5 55.5t-47.5 155.5zM653 200q0 -136 75 -136q74 0 74 136t-74 136q-75 0 -75 -136z" />
    <glyph glyph-name="ampersand" unicode="&#x26;" horiz-adv-x="688" 
d="M281 -15q-111 0 -177 51t-66 139q0 126 175 210q-77 92 -77 169q0 70 54.5 115.5t133.5 45.5t126.5 -45.5t47.5 -117.5q0 -106 -125 -181l127 -146q23 66 20 156h107q10 -141 -51 -243l119 -138h-145l-48 55q-90 -70 -221 -70zM162 183q0 -47 35 -72.5t93 -25.5
q89 0 146 45l-162 186q-60 -31 -86 -61t-26 -72zM255 560q0 -52 61 -123q77 47 77 116q0 31 -18.5 52.5t-50.5 21.5q-30 0 -49.5 -18.5t-19.5 -48.5z" />
    <glyph glyph-name="quotesingle" unicode="'" horiz-adv-x="233" 
d="M85 398l-30 164v138h124v-138l-31 -164h-63z" />
    <glyph glyph-name="parenleft" unicode="(" horiz-adv-x="317" 
d="M202 -90q-73 83 -117 192.5t-44 222.5t43.5 221.5t117.5 193.5h102q-144 -199 -144 -415t144 -415h-102z" />
    <glyph glyph-name="parenright" unicode=")" horiz-adv-x="317" 
d="M115 740q73 -83 117 -192.5t44 -222.5t-43.5 -221.5t-117.5 -193.5h-102q144 199 144 415t-144 415h102z" />
    <glyph glyph-name="asterisk" unicode="*" horiz-adv-x="538" 
d="M223 403q0 45 2 70q-23 -15 -61 -37l-76 -44l-44 78l82 48q36 20 55 30q-6 3 -27.5 14.5t-33.5 18.5l-77 46l45 81l81 -47q25 -14 56 -34q-2 21 -2 59v97h91v-94q0 -41 -2 -64q11 7 29 18t21 13l88 50l44 -77l-84 -50q-23 -13 -54 -29q17 -8 49 -26l89 -52l-46 -81
l-87 51q-32 18 -49 30q2 -24 2 -67v-91h-91v89z" />
    <glyph glyph-name="plus" unicode="+" horiz-adv-x="558" 
d="M224 36v173h-179v105h179v172h110v-172h179v-105h-179v-173h-110z" />
    <glyph glyph-name="comma" unicode="," horiz-adv-x="268" 
d="M52 -164q75 85 81 164h-66v138h136v-98q0 -124 -71 -204h-80z" />
    <glyph glyph-name="hyphen" unicode="-" horiz-adv-x="376" 
d="M52 240v105h272v-105h-272z" />
    <glyph glyph-name="period" unicode="." horiz-adv-x="259" 
d="M62 0v138h136v-138h-136z" />
    <glyph glyph-name="slash" unicode="/" horiz-adv-x="458" 
d="M14 -90l315 810h114l-315 -810h-114z" />
    <glyph glyph-name="zero" unicode="0" horiz-adv-x="642" 
d="M321 -15q-122 0 -196 94.5t-74 270.5t74 270.5t196 94.5q123 0 197 -94t74 -271t-74 -271t-197 -94zM176 350q0 -264 145 -264t145 264t-145 264t-145 -264z" />
    <glyph glyph-name="one" unicode="1" horiz-adv-x="390" 
d="M184 0v476h-170v83q72 0 120 36t65 105h106v-700h-121z" />
    <glyph glyph-name="two" unicode="2" horiz-adv-x="605" 
d="M36 1q3 113 53 188.5t161 141.5l45 26q71 42 100 74t29 79q0 48 -32 76.5t-82 28.5q-57 0 -92 -35.5t-36 -95.5h-127q1 108 72 169t185 61q106 0 172.5 -58.5t66.5 -147.5q0 -71 -41 -123t-122 -99l-62 -36q-71 -42 -104.5 -72t-47.5 -69h382v-108h-520z" />
    <glyph glyph-name="three" unicode="3" horiz-adv-x="599" 
d="M295 -15q-113 0 -180.5 52.5t-76.5 141.5h127q7 -41 41.5 -67.5t88.5 -26.5q58 0 94.5 29.5t36.5 83.5q0 51 -44 81.5t-121 30.5h-49v99h49q70 0 107 28.5t37 78.5q0 44 -30.5 72t-79.5 28q-48 0 -79 -25t-39 -67h-126q10 85 76.5 138t167.5 53q105 0 170 -54.5
t65 -134.5q0 -57 -34.5 -101t-91.5 -62q69 -18 108 -63.5t39 -110.5q0 -87 -70.5 -145.5t-185.5 -58.5z" />
    <glyph glyph-name="four" unicode="4" horiz-adv-x="630" 
d="M379 0v151h-346v119l336 430h133v-447h90v-103h-90v-150h-123zM146 254h233v298z" />
    <glyph glyph-name="five" unicode="5" horiz-adv-x="594" 
d="M293 -15q-114 0 -179 54.5t-72 131.5h131q9 -35 39.5 -58.5t80.5 -23.5q62 0 97 38.5t35 99.5q0 59 -32 96t-88 37q-78 0 -120 -68h-128l50 408h404v-104h-304l-25 -204q19 26 58 44.5t87 18.5q102 0 163 -63t61 -170q0 -103 -70.5 -170t-187.5 -67z" />
    <glyph glyph-name="six" unicode="6" horiz-adv-x="619" 
d="M328 -15q-128 0 -203 91.5t-75 260.5q0 178 75 278t208 100q98 0 155.5 -46.5t69.5 -119.5h-123q-27 68 -105 68q-80 0 -118.5 -71.5t-38.5 -184.5q53 92 176 92q99 0 161 -66t62 -168q0 -99 -68 -166.5t-176 -67.5zM194 221q0 -59 36.5 -97.5t91.5 -38.5q58 0 92 38.5
t34 97.5q0 61 -34 99.5t-92 38.5q-55 0 -91.5 -39.5t-36.5 -98.5z" />
    <glyph glyph-name="seven" unicode="7" horiz-adv-x="499" 
d="M85 0l271 591h-338v109h455v-114l-260 -586h-128z" />
    <glyph glyph-name="eight" unicode="8" horiz-adv-x="623" 
d="M312 -15q-117 0 -191 59.5t-74 151.5q0 68 38.5 115.5t101.5 62.5q-54 19 -84.5 60t-30.5 99q0 77 66.5 129.5t173.5 52.5t173 -52.5t66 -129.5q0 -56 -31 -97.5t-84 -60.5q62 -15 101 -63t39 -116q0 -92 -73.5 -151.5t-190.5 -59.5zM172 207q0 -55 39.5 -89t100.5 -34
q62 0 100.5 34t38.5 89t-38 87.5t-101 32.5t-101.5 -33t-38.5 -87zM196 519q0 -44 33 -72.5t83 -28.5q51 0 83 28.5t32 72.5q0 43 -32 70t-83 27t-83.5 -27t-32.5 -70z" />
    <glyph glyph-name="nine" unicode="9" horiz-adv-x="619" 
d="M287 -15q-99 0 -158 46.5t-71 119.5h123q27 -68 108 -68q80 0 119 71.5t39 184.5q-53 -92 -171 -92q-102 0 -165.5 64.5t-63.5 165.5q0 103 68 170.5t177 67.5q127 0 202 -91.5t75 -260.5q0 -178 -74.5 -278t-207.5 -100zM171 479q0 -60 34.5 -97.5t92.5 -37.5
q55 0 91.5 38.5t36.5 96.5t-36.5 97t-91.5 39q-58 0 -92.5 -38.5t-34.5 -97.5z" />
    <glyph glyph-name="colon" unicode=":" horiz-adv-x="259" 
d="M62 373v138h136v-138h-136zM62 0v138h136v-138h-136z" />
    <glyph glyph-name="semicolon" unicode=";" horiz-adv-x="280" 
d="M76 373v138h136v-138h-136zM60 -164q75 85 81 164h-66v138h136v-98q0 -124 -71 -204h-80z" />
    <glyph glyph-name="less" unicode="&#x3c;" horiz-adv-x="555" 
d="M495 29l-440 151v148l440 149v-116l-329 -106l329 -110v-116z" />
    <glyph glyph-name="equal" unicode="=" horiz-adv-x="572" 
d="M58 301v105h456v-105h-456zM58 109v105h456v-105h-456z" />
    <glyph glyph-name="greater" unicode="&#x3e;" horiz-adv-x="555" 
d="M60 477l440 -151v-148l-440 -149v116l329 106l-329 110v116z" />
    <glyph glyph-name="question" unicode="?" horiz-adv-x="535" 
d="M190 198q0 76 24 118t81 88l21 17q34 26 48.5 49.5t14.5 55.5q0 40 -28.5 66t-78.5 26q-59 0 -91 -36.5t-33 -104.5h-127q0 113 68 175.5t185 62.5q105 0 169.5 -54t64.5 -139q0 -49 -25.5 -88.5t-78.5 -79.5l-27 -21q-42 -33 -57 -59t-16 -76h-114zM181 0v134h132v-134
h-132z" />
    <glyph glyph-name="at" unicode="@" horiz-adv-x="871" 
d="M440 -95q-180 0 -290.5 110.5t-110.5 290.5q0 173 116.5 288.5t292.5 115.5q165 0 276 -98.5t111 -250.5q0 -114 -59 -186t-139 -72q-85 0 -110 69q-18 -32 -52 -52t-75 -20q-76 0 -121.5 52t-45.5 138q0 96 51.5 158t134.5 62q40 0 71.5 -18.5t46.5 -50.5l9 54h97
l-40 -244q-13 -79 39 -79q39 0 67.5 49.5t28.5 124.5q0 130 -78.5 204.5t-211.5 74.5q-136 0 -220.5 -88t-84.5 -227q0 -145 83.5 -232.5t220.5 -87.5q131 0 201 68h118q-48 -72 -132 -112.5t-194 -40.5zM338 290q0 -53 20.5 -82t57.5 -29q44 0 69 37t25 103
q0 53 -20.5 82.5t-57.5 29.5q-44 0 -69 -37t-25 -104z" />
    <glyph glyph-name="A" unicode="A" horiz-adv-x="660" 
d="M1 0l261 700h138l258 -700h-134l-50 146h-292l-50 -146h-131zM219 251h219l-47 138q-6 17 -62 180h-1q-45 -136 -62 -181z" />
    <glyph glyph-name="B" unicode="B" horiz-adv-x="627" 
d="M84 0v700h234q110 0 176 -48.5t66 -135.5q0 -56 -33 -97t-84 -56q60 -13 98.5 -56t38.5 -108q0 -93 -72 -146t-186 -53h-238zM208 101h104q141 0 141 103q0 49 -34 77t-101 28h-110v-208zM208 403h110q55 0 85.5 27t30.5 73q0 96 -127 96h-99v-196z" />
    <glyph glyph-name="C" unicode="C" horiz-adv-x="733" 
d="M390 -15q-153 0 -249.5 98.5t-96.5 266.5q0 165 100 265t246 100q68 0 124 -20t92.5 -53.5t59 -72.5t31.5 -82h-129q-14 48 -58.5 83.5t-116.5 35.5q-97 0 -156.5 -68t-59.5 -188t60 -188t156 -68q72 0 116.5 35.5t58.5 83.5h129q-9 -43 -31.5 -82t-59 -72.5t-92.5 -53.5
t-124 -20z" />
    <glyph glyph-name="D" unicode="D" horiz-adv-x="725" 
d="M84 0v700h229q160 0 264 -97t104 -253t-104 -253t-264 -97h-229zM209 107h94q119 0 185 63.5t66 179.5t-66 179.5t-185 63.5h-94v-486z" />
    <glyph glyph-name="E" unicode="E" horiz-adv-x="626" 
d="M84 0v700h489v-107h-364v-181h309v-105h-309v-200h369v-107h-494z" />
    <glyph glyph-name="F" unicode="F" horiz-adv-x="562" 
d="M84 0v700h447v-110h-322v-187h272v-106h-272v-297h-125z" />
    <glyph glyph-name="G" unicode="G" horiz-adv-x="788" 
d="M382 -15q-147 0 -242.5 100.5t-95.5 258.5q0 164 102.5 267.5t260.5 103.5q132 0 212 -64.5t100 -151.5h-129q-50 109 -185 109q-101 0 -165.5 -70t-64.5 -193q0 -119 63 -187t170 -68q84 0 140 50.5t62 145.5h-241v100h349v-386h-116v84q-30 -45 -86.5 -72t-133.5 -27z
" />
    <glyph glyph-name="H" unicode="H" horiz-adv-x="724" 
d="M84 0v700h125v-293h306v293h125v-700h-125v300h-306v-300h-125z" />
    <glyph glyph-name="I" unicode="I" horiz-adv-x="292" 
d="M84 0v700h125v-700h-125z" />
    <glyph glyph-name="J" unicode="J" horiz-adv-x="549" 
d="M249 -15q-111 0 -167.5 60t-56.5 164v37h123v-25q0 -129 101 -129q50 0 73.5 33.5t23.5 103.5v471h125v-489q0 -99 -57 -162.5t-165 -63.5z" />
    <glyph glyph-name="K" unicode="K" horiz-adv-x="690" 
d="M84 0v700h125v-329l320 329h155l-278 -288l280 -412h-154l-215 327l-108 -111v-216h-125z" />
    <glyph glyph-name="L" unicode="L" horiz-adv-x="523" 
d="M84 0v700h125v-586h292v-114h-417z" />
    <glyph glyph-name="M" unicode="M" horiz-adv-x="897" 
d="M84 0v700h182l128 -383q32 -98 58 -191h1q29 104 55 180l129 394h177v-700h-122v279q0 116 4 264l-182 -543h-129l-184 544q5 -130 5 -265v-279h-122z" />
    <glyph glyph-name="N" unicode="N" horiz-adv-x="755" 
d="M84 0v700h164l301 -541q-2 124 -2 223v318h124v-700h-164l-303 543q3 -92 3 -221v-322h-123z" />
    <glyph glyph-name="O" unicode="O" horiz-adv-x="803" 
d="M402 -15q-149 0 -254 101.5t-105 263.5t105 263.5t254 101.5t253.5 -101.5t104.5 -263.5t-104.5 -263.5t-253.5 -101.5zM175 350q0 -117 63 -187.5t164 -70.5t163.5 70t62.5 188t-62.5 188t-163.5 70t-164 -70.5t-63 -187.5z" />
    <glyph glyph-name="P" unicode="P" horiz-adv-x="610" 
d="M84 0v700h236q116 0 190.5 -59t74.5 -156q0 -98 -74.5 -159t-190.5 -61h-111v-265h-125zM209 371h103q63 0 103.5 29t40.5 85q0 57 -40.5 85.5t-103.5 28.5h-103v-228z" />
    <glyph glyph-name="Q" unicode="Q" horiz-adv-x="803" 
d="M682 -84l-115 107q-76 -38 -165 -38q-149 0 -254 101.5t-105 263.5t105 263.5t254 101.5t253.5 -101.5t104.5 -263.5q0 -158 -102 -260l101 -94zM175 350q0 -117 63 -187.5t164 -70.5q42 0 77 12l-97 91l77 80l113 -105q56 68 56 180q0 118 -62.5 188t-163.5 70
t-164 -70.5t-63 -187.5z" />
    <glyph glyph-name="R" unicode="R" horiz-adv-x="662" 
d="M84 0v700h266q117 0 187 -56t70 -153q0 -78 -49 -129t-131 -69l205 -293h-148l-189 285h-86v-285h-125zM209 385h131q64 0 102 26t38 80q0 53 -37.5 80.5t-99.5 27.5h-134v-214z" />
    <glyph glyph-name="S" unicode="S" horiz-adv-x="669" 
d="M339 -15q-131 0 -213 65.5t-91 170.5h131q11 -63 57.5 -98t123.5 -35q68 0 111 29.5t43 74.5q0 39 -29.5 60.5t-100.5 37.5l-95 22q-112 26 -166 72t-54 122q0 92 78 150.5t194 58.5q123 0 196 -54.5t87 -136.5h-125q-13 42 -54 66.5t-105 24.5q-63 0 -103 -27t-40 -71
q0 -34 26.5 -52.5t95.5 -35.5l84 -20q127 -30 184.5 -76.5t57.5 -125.5q0 -98 -82 -160t-211 -62z" />
    <glyph glyph-name="T" unicode="T" horiz-adv-x="546" 
d="M211 0v589h-189v111h502v-111h-188v-589h-125z" />
    <glyph glyph-name="U" unicode="U" horiz-adv-x="694" 
d="M347 -15q-123 0 -196.5 72.5t-73.5 197.5v445h125v-430q0 -84 37 -129.5t108 -45.5t108.5 45.5t37.5 129.5v430h125v-445q0 -125 -73.5 -197.5t-197.5 -72.5z" />
    <glyph glyph-name="V" unicode="V" horiz-adv-x="652" 
d="M244 0l-237 700h134l128 -390q39 -114 58 -175h1q26 77 61 177l130 388h129l-243 -700h-161z" />
    <glyph glyph-name="W" unicode="W" horiz-adv-x="935" 
d="M190 0l-163 700h132l120 -558l116 558h155l113 -552l117 552h127l-162 -700h-158l-119 537l-118 -537h-160z" />
    <glyph glyph-name="X" unicode="X" horiz-adv-x="647" 
d="M9 0l236 357l-226 343h145l75 -117l85 -134h2q38 57 88 135l74 116h141l-225 -342l235 -358h-145l-89 138q-50 81 -81 128h-2q-16 -23 -43.5 -66.5t-34.5 -54.5l-94 -145h-141z" />
    <glyph glyph-name="Y" unicode="Y" horiz-adv-x="617" 
d="M246 0v293l-249 407h151l97 -170q49 -87 68 -128h2q20 45 67 130l94 168h143l-248 -406v-294h-125z" />
    <glyph glyph-name="Z" unicode="Z" horiz-adv-x="608" 
d="M40 0v111l380 483h-370v106h508v-111l-380 -483h390v-106h-528z" />
    <glyph glyph-name="bracketleft" unicode="[" horiz-adv-x="321" 
d="M81 -90v830h206v-87h-97v-656h97v-87h-206z" />
    <glyph glyph-name="backslash" unicode="\" horiz-adv-x="458" 
d="M329 -90l-315 810h114l315 -810h-114z" />
    <glyph glyph-name="bracketright" unicode="]" horiz-adv-x="321" 
d="M240 740v-830h-206v87h97v656h-97v87h206z" />
    <glyph glyph-name="asciicircum" unicode="^" horiz-adv-x="523" 
d="M37 255l155 445h140l154 -445h-126l-98 297l-100 -297h-125z" />
    <glyph glyph-name="underscore" unicode="_" horiz-adv-x="573" 
d="M33 -153v105h505v-105h-505z" />
    <glyph glyph-name="grave" unicode="`" horiz-adv-x="600" 
d="M162 573l-145 132h145l107 -132h-107z" />
    <glyph glyph-name="a" unicode="a" horiz-adv-x="561" 
d="M215 -14q-77 0 -129 40t-52 115q0 36 14 63t33 42.5t49.5 26.5t52.5 15t53 8l38 5q57 7 80 20.5t23 48.5q0 32 -24.5 50.5t-67.5 18.5q-41 0 -67 -16.5t-33 -43.5h-129q13 65 73 106t158 41q207 0 207 -161v-242q0 -63 16 -123h-118q-8 43 -10 67q-22 -34 -65 -57.5
t-102 -23.5zM159 145q0 -33 25 -50.5t64 -17.5q57 0 93 38t36 95v56q-25 -32 -104 -44q-60 -10 -87 -25t-27 -52z" />
    <glyph glyph-name="b" unicode="b" horiz-adv-x="614" 
d="M347 -15q-108 0 -156 81v-66h-119v700h119v-254q46 80 156 80q100 0 164 -73.5t64 -197.5t-64 -197t-164 -73zM189 255q0 -77 37.5 -126t96.5 -49q62 0 96 47t34 128t-34 128t-96 47q-59 0 -96.5 -49.5t-37.5 -125.5z" />
    <glyph glyph-name="c" unicode="c" horiz-adv-x="558" 
d="M292 -15q-112 0 -183 73t-71 196q0 122 72.5 196.5t184.5 74.5q96 0 157 -50t72 -126h-117q-27 78 -110 78q-60 0 -97 -45.5t-37 -127.5q0 -81 37 -126t94 -45q85 0 113 78h118q-11 -75 -73.5 -125.5t-159.5 -50.5z" />
    <glyph glyph-name="d" unicode="d" horiz-adv-x="614" 
d="M268 -15q-100 0 -164.5 73.5t-64.5 197.5q0 123 64.5 196.5t164.5 73.5q107 0 155 -81v255h120v-700h-120v64q-21 -36 -61 -57.5t-94 -21.5zM161 256q0 -81 34 -128.5t96 -47.5q59 0 96.5 49.5t37.5 126.5q0 76 -37.5 125t-96.5 49q-62 0 -96 -46.5t-34 -127.5z" />
    <glyph glyph-name="e" unicode="e" horiz-adv-x="586" 
d="M302 -15q-121 0 -192.5 73.5t-71.5 195.5q0 118 75 195t181 77q116 0 186 -80.5t71 -224.5h-392q4 -64 44.5 -103t100.5 -39q78 0 107 54h126q-21 -67 -82 -107.5t-153 -40.5zM161 308h271q-8 57 -43.5 90t-91.5 33q-52 0 -90 -34.5t-46 -88.5z" />
    <glyph glyph-name="f" unicode="f" horiz-adv-x="374" 
d="M111 0v423h-93v88h93v39q0 80 45.5 122.5t127.5 42.5q34 0 71 -7v-92q-27 5 -44 5q-78 0 -78 -81v-29h130v-88h-130v-423h-122z" />
    <glyph glyph-name="g" unicode="g" horiz-adv-x="609" 
d="M288 -210q-101 0 -158.5 40t-68.5 116h124q17 -64 107 -64q127 0 127 125v86q-19 -36 -58.5 -58.5t-93.5 -22.5q-98 0 -162.5 67.5t-64.5 188.5t64.5 189t162.5 68q52 0 92.5 -22.5t59.5 -57.5v66h119v-499q0 -99 -62 -160.5t-188 -61.5zM162 269q0 -78 33 -121t95 -43
q59 0 95 45.5t36 118.5t-36 118.5t-95 45.5q-60 0 -94 -44t-34 -120z" />
    <glyph glyph-name="h" unicode="h" horiz-adv-x="577" 
d="M72 0v700h119v-251q51 77 149 77q78 0 124 -48.5t46 -137.5v-340h-120v330q0 98 -84 98q-49 0 -82 -36t-33 -107v-285h-119z" />
    <glyph glyph-name="i" unicode="i" horiz-adv-x="261" 
d="M72 0v511h118v-511h-118zM63 573v124h136v-124h-136z" />
    <glyph glyph-name="j" unicode="j" horiz-adv-x="261" 
d="M39 -186q-25 0 -44 3v86q10 -2 20 -2q33 0 45 21t12 63v526h118v-536q0 -161 -151 -161zM63 573v124h136v-124h-136z" />
    <glyph glyph-name="k" unicode="k" horiz-adv-x="565" 
d="M72 0v700h119v-403l216 214h151l-213 -205l219 -306h-143l-158 226l-72 -69v-157h-119z" />
    <glyph glyph-name="l" unicode="l" horiz-adv-x="263" 
d="M72 0v700h119v-700h-119z" />
    <glyph glyph-name="m" unicode="m" horiz-adv-x="864" 
d="M72 0v511h115v-62q45 77 141 77q95 0 136 -84q50 84 157 84q79 0 127.5 -48t48.5 -135v-343h-120v326q0 101 -80 101q-49 0 -76 -34t-27 -99v-294h-119v324q0 103 -81 103q-48 0 -75.5 -34.5t-27.5 -98.5v-294h-119z" />
    <glyph glyph-name="n" unicode="n" horiz-adv-x="577" 
d="M72 0v511h116v-66q51 81 152 81q78 0 124 -48.5t46 -137.5v-340h-120v330q0 98 -84 98q-49 0 -82 -36t-33 -107v-285h-119z" />
    <glyph glyph-name="o" unicode="o" horiz-adv-x="597" 
d="M299 -15q-113 0 -187.5 76t-74.5 194t75 194.5t187 76.5t186.5 -76.5t74.5 -194.5t-74.5 -194t-186.5 -76zM159 255q0 -82 38 -128t102 -46q63 0 101 46t38 128q0 83 -38 128.5t-101 45.5q-64 0 -102 -45.5t-38 -128.5z" />
    <glyph glyph-name="p" unicode="p" horiz-adv-x="614" 
d="M72 -195v706h119v-65q46 80 156 80q100 0 164 -73.5t64 -197.5t-64 -197t-164 -73q-108 0 -156 81v-261h-119zM189 255q0 -77 37.5 -126t96.5 -49q62 0 96 47t34 128t-34 128t-96 47q-59 0 -96.5 -49.5t-37.5 -125.5z" />
    <glyph glyph-name="q" unicode="q" horiz-adv-x="614" 
d="M423 64q-21 -36 -61 -57.5t-94 -21.5q-100 0 -164.5 73.5t-64.5 197.5q0 123 64.5 196.5t164.5 73.5q107 0 155 -81v66h120v-706h-120v259zM161 256q0 -81 34 -128.5t96 -47.5q59 0 96.5 49.5t37.5 126.5q0 76 -37.5 125t-96.5 49q-62 0 -96 -46.5t-34 -127.5z" />
    <glyph glyph-name="r" unicode="r" horiz-adv-x="388" 
d="M72 0v511h116v-105q46 128 182 120v-114q-56 5 -91 -8q-88 -31 -88 -173v-231h-119z" />
    <glyph glyph-name="s" unicode="s" horiz-adv-x="531" 
d="M273 -15q-109 0 -173 48t-70 126h128q7 -40 37.5 -63t83.5 -23q44 0 71.5 17.5t27.5 48.5q0 26 -22 41t-76 26l-60 13q-86 19 -129 54.5t-43 97.5q0 68 58.5 111t151.5 43q97 0 155 -43t68 -109h-119q-19 65 -105 65q-39 0 -63.5 -16.5t-24.5 -43.5q0 -24 18.5 -37
t62.5 -22l62 -14q92 -20 139.5 -55.5t47.5 -98.5q0 -75 -63.5 -120.5t-162.5 -45.5z" />
    <glyph glyph-name="t" unicode="t" horiz-adv-x="361" 
d="M255 -5q-68 0 -110 36t-42 115v272h-87v93h87v150h116v-150h102v-93h-102v-250q0 -41 16 -61t52 -20q16 0 44 5v-87q-28 -10 -76 -10z" />
    <glyph glyph-name="u" unicode="u" horiz-adv-x="569" 
d="M237 -15q-77 0 -123.5 48.5t-46.5 139.5v338h119v-320q0 -108 86 -108q44 0 75.5 36.5t31.5 108.5v283h119v-511h-117v63q-43 -78 -144 -78z" />
    <glyph glyph-name="v" unicode="v" horiz-adv-x="523" 
d="M188 0l-176 511h132l88 -288q25 -88 32 -113h1q2 7 33 113l86 288h126l-173 -511h-149z" />
    <glyph glyph-name="w" unicode="w" horiz-adv-x="796" 
d="M158 0l-137 511h129l89 -388l96 388h134l95 -387l88 387h122l-135 -511h-147l-96 363l-92 -363h-146z" />
    <glyph glyph-name="x" unicode="x" horiz-adv-x="529" 
d="M10 0l180 257l-175 254h137l52 -77q32 -44 63 -93h1q17 26 62 93l52 77h132l-174 -250l179 -261h-136l-61 90q-44 63 -58 87h-1q-11 -17 -33 -49t-24 -36l-63 -92h-133z" />
    <glyph glyph-name="y" unicode="y" horiz-adv-x="528" 
d="M125 -207q-30 0 -57 4v100q19 -5 42 -5q42 0 66.5 21.5t24.5 62.5q0 24 -17 69l-175 466h135l89 -271q22 -65 38 -134h2q17 68 37 132l82 273h125l-186 -532q-35 -98 -65 -132q-47 -54 -141 -54z" />
    <glyph glyph-name="z" unicode="z" horiz-adv-x="485" 
d="M43 0v103l266 310h-266v98h397v-104l-268 -310h273v-97h-402z" />
    <glyph glyph-name="braceleft" unicode="{" horiz-adv-x="343" 
d="M310 -109q-204 -28 -204 165v118q0 55 -15.5 81.5t-59.5 26.5v86q44 0 59.5 26.5t15.5 81.5v118q0 193 204 165v-85q-52 6 -72.5 -11t-20.5 -79v-134q0 -106 -66 -125q66 -19 66 -125v-134q0 -62 20.5 -79t72.5 -11v-85z" />
    <glyph glyph-name="bar" unicode="|" horiz-adv-x="291" 
d="M84 -170v908h123v-908h-123z" />
    <glyph glyph-name="braceright" unicode="}" horiz-adv-x="343" 
d="M33 759q204 28 204 -165v-118q0 -55 15.5 -81.5t59.5 -26.5v-86q-44 0 -59.5 -26.5t-15.5 -81.5v-118q0 -193 -204 -165v85q52 -6 72.5 11t20.5 79v134q0 106 66 125q-66 19 -66 125v134q0 62 -20.5 79t-72.5 11v85z" />
    <glyph glyph-name="asciitilde" unicode="~" horiz-adv-x="511" 
d="M61 235q0 62 32.5 93.5t80.5 31.5q38 0 86 -24t64 -24q30 0 32 38h94q0 -62 -32 -93.5t-80 -31.5q-39 0 -87 24t-65 24q-30 0 -33 -38h-92z" />
    <glyph glyph-name="uni00A0" unicode="&#xa0;" horiz-adv-x="245" 
 />
    <glyph glyph-name="exclamdown" unicode="&#xa1;" horiz-adv-x="264" 
d="M168 316l24 -195v-310h-120v310l25 195h71zM64 373v138h136v-138h-136z" />
    <glyph glyph-name="cent" unicode="&#xa2;" horiz-adv-x="586" 
d="M260 -88v78q-91 16 -147.5 87t-56.5 177q0 107 56.5 178t147.5 88v88h98v-87q77 -12 125.5 -59.5t59.5 -112.5h-118q-21 56 -67 72v-332q46 16 67 72h119q-12 -65 -60.5 -112.5t-125.5 -59.5v-77h-98zM181 254q0 -126 79 -161v324q-79 -35 -79 -163z" />
    <glyph glyph-name="sterling" unicode="&#xa3;" horiz-adv-x="628" 
d="M51 0v102h55q50 0 79 28.5t29 69.5q0 35 -24 85h-139v91h91q-43 84 -43 145q0 82 65.5 138t169.5 56q108 0 170.5 -61t62.5 -170h-120q-1 62 -29.5 97.5t-83.5 35.5q-49 0 -79 -28t-30 -79q0 -48 45 -134h164v-91h-120q18 -44 18 -80q0 -70 -58 -103h318v-102h-541z" />
    <glyph glyph-name="currency" unicode="&#xa4;" horiz-adv-x="672" 
d="M335 -15q-81 0 -145 42l-73 -73l-73 75l71 73q-42 67 -42 153t42 153l-71 72l74 76l71 -72q65 42 146 42q80 0 147 -43l72 73l75 -76l-74 -74q41 -66 41 -151t-41 -151l74 -75l-75 -75l-73 74q-63 -43 -146 -43zM195 255q0 -82 38 -127.5t102 -45.5q63 0 101 45.5
t38 127.5t-38 127.5t-101 45.5q-64 0 -102 -45.5t-38 -127.5z" />
    <glyph glyph-name="yen" unicode="&#xa5;" horiz-adv-x="633" 
d="M106 233v86h135l-226 381h146l95 -170q51 -94 65 -128h2q22 51 65 130l92 168h138l-225 -381h134v-86h-149v-56h114v-87h-114v-90h-122v90h-115v87h115v56h-150z" />
    <glyph glyph-name="brokenbar" unicode="&#xa6;" horiz-adv-x="291" 
d="M84 -170v363h123v-363h-123zM84 375v363h123v-363h-123z" />
    <glyph glyph-name="section" unicode="&#xa7;" horiz-adv-x="560" 
d="M278 -210q-105 0 -167 47.5t-68 126.5h128q7 -39 35.5 -62.5t75.5 -23.5t76.5 25t29.5 63q0 33 -22 54.5t-76 38.5l-70 22q-162 51 -162 170q0 96 86 144q-84 46 -84 137q0 81 62.5 132t163.5 51q90 0 146 -43.5t67 -109.5h-119q-19 66 -100 66q-42 0 -71 -24t-29 -61
q0 -33 20.5 -54t66.5 -34l58 -16q90 -26 138 -69t48 -112q0 -89 -82 -145q80 -50 80 -137q0 -83 -65.5 -134.5t-165.5 -51.5zM178 265q0 -32 19 -54t68 -37l59 -18q66 26 66 90q0 35 -22 57.5t-77 38.5l-37 11q-34 -9 -55 -32.5t-21 -55.5z" />
    <glyph glyph-name="dieresis" unicode="&#xa8;" horiz-adv-x="363" 
d="M216 573v116h123v-116h-123zM25 573v116h123v-116h-123z" />
    <glyph glyph-name="copyright" unicode="&#xa9;" horiz-adv-x="848" 
d="M424 -18q-153 0 -260 105.5t-107 261.5t107 262.5t260 106.5t260 -106.5t107 -262.5t-107 -261.5t-260 -105.5zM136 349q0 -129 83 -213t205 -84t205.5 84.5t83.5 212.5q0 129 -83.5 214t-205.5 85t-205 -85t-83 -214zM241 350q0 89 53 142t131 53q73 0 119 -39t54 -94
h-89q-15 62 -83 62q-42 0 -70 -33.5t-28 -90.5t28 -90.5t70 -33.5q32 0 54 16t29 46h89q-8 -54 -54 -93.5t-119 -39.5q-79 0 -131.5 52.5t-52.5 142.5z" />
    <glyph glyph-name="ordfeminine" unicode="&#xaa;" horiz-adv-x="512" 
d="M202 255q-71 0 -114.5 36.5t-43.5 94.5q0 113 153 129l56 6q44 5 62 18.5t18 41.5q0 25 -20 41t-54 16q-69 0 -81 -55h-116q10 63 62.5 97.5t134.5 34.5q89 0 135 -36t46 -104v-204q0 -56 14 -105h-107q-8 33 -10 56q-18 -31 -55 -49t-80 -18zM155 389q0 -25 18.5 -38.5
t50.5 -13.5q46 0 77.5 30.5t31.5 75.5v39q-12 -14 -30.5 -20t-65.5 -14q-41 -6 -61.5 -18t-20.5 -41z" />
    <glyph glyph-name="guillemotleft" unicode="&#xab;" horiz-adv-x="558" 
d="M265 42l-209 149v190l209 149v-139l-159 -101l159 -107v-141zM289 191v190l209 149v-139l-159 -101l159 -107v-141z" />
    <glyph glyph-name="logicalnot" unicode="&#xac;" horiz-adv-x="581" 
d="M408 121v99h-346v105h455v-204h-109z" />
    <glyph glyph-name="uni00AD" unicode="&#xad;" horiz-adv-x="386" 
d="M57 240v105h272v-105h-272z" />
    <glyph glyph-name="registered" unicode="&#xae;" horiz-adv-x="848" 
d="M424 -18q-153 0 -260 105.5t-107 261.5t107 262.5t260 106.5t260 -106.5t107 -262.5t-107 -261.5t-260 -105.5zM136 349q0 -129 83 -213t205 -84t205.5 84.5t83.5 212.5q0 129 -83.5 214t-205.5 85t-205 -85t-83 -214zM285 164v370h154q64 0 102.5 -32t38.5 -82
q0 -40 -25.5 -69.5t-69.5 -39.5l99 -147h-94l-93 142h-28v-142h-84zM369 373h61q64 0 64 47q0 45 -64 45h-61v-92z" />
    <glyph glyph-name="macron" unicode="&#xaf;" horiz-adv-x="600" 
d="M16 583v91h333v-91h-333z" />
    <glyph glyph-name="degree" unicode="&#xb0;" horiz-adv-x="484" 
d="M242 339q-79 0 -134.5 53.5t-55.5 134.5t55.5 134.5t134.5 53.5t134 -53.5t55 -134.5t-55 -134.5t-134 -53.5zM158 527q0 -44 23 -70t61 -26t60.5 26t22.5 70q0 45 -22.5 70.5t-60.5 25.5q-39 0 -61.5 -25.5t-22.5 -70.5z" />
    <glyph glyph-name="plusminus" unicode="&#xb1;" horiz-adv-x="558" 
d="M224 195v103h-179v103h179v104h110v-104h179v-103h-179v-103h-110zM45 44v105h468v-105h-468z" />
    <glyph glyph-name="uni00B2" unicode="&#xb2;" horiz-adv-x="474" 
d="M27 292q4 88 43 144.5t127 104.5l34 18q48 27 68.5 48.5t20.5 51.5t-20.5 48.5t-53.5 18.5q-41 0 -63.5 -25.5t-22.5 -71.5h-119q0 87 57 137t151 50q84 0 135.5 -45.5t51.5 -112.5q0 -52 -31.5 -90.5t-93.5 -73.5l-43 -23q-57 -31 -78.5 -48t-26.5 -36h267v-95h-403z
" />
    <glyph glyph-name="uni00B3" unicode="&#xb3;" horiz-adv-x="468" 
d="M237 275q-89 0 -145.5 42.5t-62.5 118.5h115q5 -34 29 -52.5t62 -18.5q36 0 59.5 20.5t23.5 49.5q0 34 -29 54t-79 20h-42v85h41q43 0 68 19.5t25 50.5q0 28 -20 45.5t-50 17.5q-32 0 -54 -18.5t-27 -51.5h-113q5 70 61.5 114.5t135.5 44.5q80 0 130.5 -40.5t50.5 -99.5
q0 -84 -89 -115q106 -30 106 -130q0 -63 -54 -109.5t-142 -46.5z" />
    <glyph glyph-name="acute" unicode="&#xb4;" horiz-adv-x="600" 
d="M12 573l107 132h146l-146 -132h-107z" />
    <glyph glyph-name="uni00B5" unicode="&#xb5;" horiz-adv-x="574" 
d="M72 -195v706h119v-320q0 -108 86 -108q44 0 75.5 36.5t31.5 108.5v283h119v-511h-117v63q-43 -78 -144 -78q-27 0 -51 6v-186h-119z" />
    <glyph glyph-name="paragraph" unicode="&#xb6;" horiz-adv-x="747" 
d="M280 -195v511h-38q-101 0 -163 54.5t-62 138.5q0 85 62 138t163 53h468v-111h-100v-784h-125v784h-80v-784h-125z" />
    <glyph glyph-name="periodcentered" unicode="&#xb7;" horiz-adv-x="258" 
d="M61 287v137h136v-137h-136z" />
    <glyph glyph-name="cedilla" unicode="&#xb8;" horiz-adv-x="600" 
d="M112 -234q-47 0 -86 12v69q42 -11 74 -11q48 0 48 28q0 24 -41 24q-24 0 -53 -9v58l50 90l65 -27l-32 -55q42 0 70 -21.5t28 -63.5q0 -46 -35 -70t-88 -24z" />
    <glyph glyph-name="uni00B9" unicode="&#xb9;" horiz-adv-x="338" 
d="M160 290v306h-146v77q69 0 108 30.5t51 97.5h101v-511h-114z" />
    <glyph glyph-name="ordmasculine" unicode="&#xba;" horiz-adv-x="537" 
d="M268 255q-98 0 -161.5 65t-63.5 165t63.5 165t161.5 65t162 -65t64 -165t-64 -165t-162 -65zM156 485q0 -68 30 -105.5t82 -37.5q53 0 83 37.5t30 105.5q0 67 -30.5 105t-82.5 38t-82 -38t-30 -105z" />
    <glyph glyph-name="guillemotright" unicode="&#xbb;" horiz-adv-x="553" 
d="M288 530l209 -149v-190l-209 -149v139l159 101l-159 107v141zM55 42v139l159 101l-159 107v141l209 -149v-190z" />
    <glyph glyph-name="onequarter" unicode="&#xbc;" horiz-adv-x="1048" 
d="M160 189v306h-146v77q69 0 108 30.5t51 97.5h101v-511h-114zM143 -100l542 800h129l-542 -800h-129zM579 -2v107l253 306h120v-323h65v-91h-65v-97h-112v98h-261zM677 89h163v193z" />
    <glyph glyph-name="onehalf" unicode="&#xbd;" horiz-adv-x="1073" 
d="M160 189v306h-146v77q69 0 108 30.5t51 97.5h101v-511h-114zM143 -100l542 800h129l-542 -800h-129zM626 -98q4 88 43 144.5t127 104.5l34 18q48 27 68.5 48.5t20.5 51.5t-20.5 48.5t-53.5 18.5q-41 0 -63.5 -25.5t-22.5 -71.5h-119q0 87 57 137t151 50q84 0 135.5 -45.5
t51.5 -112.5q0 -52 -31.5 -90.5t-93.5 -73.5l-43 -23q-57 -31 -78.5 -48t-26.5 -36h267v-95h-403z" />
    <glyph glyph-name="threequarters" unicode="&#xbe;" horiz-adv-x="1164" 
d="M236 174q-89 0 -145.5 42.5t-62.5 118.5h115q5 -34 29 -52.5t62 -18.5q36 0 59.5 20.5t23.5 49.5q0 34 -29 54t-79 20h-42v85h41q43 0 68 19.5t25 50.5q0 28 -20 45.5t-50 17.5q-32 0 -54 -18.5t-27 -51.5h-113q5 70 61.5 114.5t135.5 44.5q80 0 130.5 -40.5t50.5 -99.5
q0 -84 -89 -115q106 -30 106 -130q0 -63 -54 -109.5t-142 -46.5zM258 -100l542 800h129l-542 -800h-129zM695 -2v107l253 306h120v-323h65v-91h-65v-97h-112v98h-261zM793 89h163v193z" />
    <glyph glyph-name="questiondown" unicode="&#xbf;" horiz-adv-x="527" 
d="M340 313q0 -76 -24 -118t-81 -88l-21 -17q-34 -26 -48.5 -49.5t-14.5 -55.5q0 -40 28.5 -66t78.5 -26q59 0 91 36.5t33 104.5h127q0 -113 -68 -175.5t-185 -62.5q-105 0 -169.5 54t-64.5 139q0 49 25.5 88.5t78.5 79.5l27 21q42 33 57 59t16 76h114zM217 377v134h132
v-134h-132z" />
    <glyph glyph-name="Agrave" unicode="&#xc0;" horiz-adv-x="660" 
d="M1 0l261 700h138l258 -700h-134l-50 146h-292l-50 -146h-131zM132 882h146l107 -122h-107zM219 251h219l-47 138q-6 17 -62 180h-1q-45 -136 -62 -181z" />
    <glyph glyph-name="Aacute" unicode="&#xc1;" horiz-adv-x="660" 
d="M1 0l261 700h138l258 -700h-134l-50 146h-292l-50 -146h-131zM219 251h219l-47 138q-6 17 -62 180h-1q-45 -136 -62 -181zM276 760l107 122h146l-145 -122h-108z" />
    <glyph glyph-name="Acircumflex" unicode="&#xc2;" horiz-adv-x="660" 
d="M1 0l261 700h138l258 -700h-134l-50 146h-292l-50 -146h-131zM150 759l115 122h133l116 -122h-118l-63 55l-64 -55h-119zM219 251h219l-47 138q-6 17 -62 180h-1q-45 -136 -62 -181z" />
    <glyph glyph-name="Atilde" unicode="&#xc3;" horiz-adv-x="660" 
d="M1 0l261 700h138l258 -700h-134l-50 146h-292l-50 -146h-131zM142 762q0 60 32 91.5t80 31.5q37 0 81 -24t59 -24q31 0 33 38h94q0 -60 -32 -91.5t-80 -31.5q-37 0 -82 24.5t-61 24.5q-29 0 -33 -39h-91zM219 251h219l-47 138q-6 17 -62 180h-1q-45 -136 -62 -181z" />
    <glyph glyph-name="Adieresis" unicode="&#xc4;" horiz-adv-x="660" 
d="M1 0l261 700h138l258 -700h-134l-50 146h-292l-50 -146h-131zM145 760v124h132v-124h-132zM219 251h219l-47 138q-6 17 -62 180h-1q-45 -136 -62 -181zM386 760v124h132v-124h-132z" />
    <glyph glyph-name="Aring" unicode="&#xc5;" horiz-adv-x="660" 
d="M1 0l261 700h138l258 -700h-134l-50 146h-292l-50 -146h-131zM219 251h219l-47 138q-6 17 -62 180h-1q-45 -136 -62 -181zM235 830q0 38 28 63.5t69 25.5q40 0 68 -25.5t28 -63.5q0 -39 -28 -64t-68 -25q-41 0 -69 25t-28 64zM296 830q0 -16 10 -26t26 -10q15 0 25 10
t10 26t-10 26t-25 10q-16 0 -26 -10t-10 -26z" />
    <glyph glyph-name="AE" unicode="&#xc6;" horiz-adv-x="1047" 
d="M-28 0l483 700h539v-107h-364v-181h309v-105h-309v-200h369v-107h-494v136h-294l-92 -136h-147zM282 241h223v331z" />
    <glyph glyph-name="Ccedilla" unicode="&#xc7;" horiz-adv-x="733" 
d="M376 -234q-47 0 -86 12v69q42 -11 74 -11q48 0 48 28q0 24 -41 24q-24 0 -53 -9v58l28 50q-136 15 -219 111.5t-83 251.5q0 165 100 265t246 100q68 0 124 -20t92.5 -53.5t59 -72.5t31.5 -82h-129q-14 48 -58.5 83.5t-116.5 35.5q-97 0 -156.5 -68t-59.5 -188t60 -188
t156 -68q72 0 116.5 35.5t58.5 83.5h129q-18 -86 -87.5 -151.5t-184.5 -75.5l-24 -41q42 0 70 -21.5t28 -63.5q0 -46 -35 -70t-88 -24z" />
    <glyph glyph-name="Egrave" unicode="&#xc8;" horiz-adv-x="626" 
d="M84 0v700h489v-107h-364v-181h309v-105h-309v-200h369v-107h-494zM129 882h146l107 -122h-107z" />
    <glyph glyph-name="Eacute" unicode="&#xc9;" horiz-adv-x="626" 
d="M84 0v700h489v-107h-364v-181h309v-105h-309v-200h369v-107h-494zM273 760l107 122h146l-145 -122h-108z" />
    <glyph glyph-name="Ecircumflex" unicode="&#xca;" horiz-adv-x="626" 
d="M84 0v700h489v-107h-364v-181h309v-105h-309v-200h369v-107h-494zM147 759l115 122h133l116 -122h-118l-63 55l-64 -55h-119z" />
    <glyph glyph-name="Edieresis" unicode="&#xcb;" horiz-adv-x="626" 
d="M84 0v700h489v-107h-364v-181h309v-105h-309v-200h369v-107h-494zM142 760v124h132v-124h-132zM383 760v124h132v-124h-132z" />
    <glyph glyph-name="Igrave" unicode="&#xcc;" horiz-adv-x="292" 
d="M84 0v700h125v-700h-125zM-53 882h146l107 -122h-107z" />
    <glyph glyph-name="Iacute" unicode="&#xcd;" horiz-adv-x="292" 
d="M84 0v700h125v-700h-125zM91 760l107 122h146l-145 -122h-108z" />
    <glyph glyph-name="Icircumflex" unicode="&#xce;" horiz-adv-x="292" 
d="M84 0v700h125v-700h-125zM-35 759l115 122h133l116 -122h-118l-63 55l-64 -55h-119z" />
    <glyph glyph-name="Idieresis" unicode="&#xcf;" horiz-adv-x="292" 
d="M84 0v700h125v-700h-125zM-40 760v124h132v-124h-132zM201 760v124h132v-124h-132z" />
    <glyph glyph-name="Eth" unicode="&#xd0;" horiz-adv-x="774" 
d="M133 0v299h-116v106h116v295h229q160 0 264 -97t104 -253t-104 -253t-264 -97h-229zM258 107h94q119 0 185 63.5t66 179.5t-66 179.5t-185 63.5h-94v-188h130v-106h-130v-192z" />
    <glyph glyph-name="Ntilde" unicode="&#xd1;" horiz-adv-x="755" 
d="M84 0v700h164l301 -541q-2 124 -2 223v318h124v-700h-164l-303 543q3 -92 3 -221v-322h-123zM188 762q0 60 32 91.5t80 31.5q37 0 81 -24t59 -24q31 0 33 38h94q0 -60 -32 -91.5t-80 -31.5q-37 0 -82 24.5t-61 24.5q-29 0 -33 -39h-91z" />
    <glyph glyph-name="Ograve" unicode="&#xd2;" horiz-adv-x="803" 
d="M402 -15q-149 0 -254 101.5t-105 263.5t105 263.5t254 101.5t253.5 -101.5t104.5 -263.5t-104.5 -263.5t-253.5 -101.5zM175 350q0 -117 63 -187.5t164 -70.5t163.5 70t62.5 188t-62.5 188t-163.5 70t-164 -70.5t-63 -187.5zM202 882h146l107 -122h-107z" />
    <glyph glyph-name="Oacute" unicode="&#xd3;" horiz-adv-x="803" 
d="M402 -15q-149 0 -254 101.5t-105 263.5t105 263.5t254 101.5t253.5 -101.5t104.5 -263.5t-104.5 -263.5t-253.5 -101.5zM175 350q0 -117 63 -187.5t164 -70.5t163.5 70t62.5 188t-62.5 188t-163.5 70t-164 -70.5t-63 -187.5zM346 760l107 122h146l-145 -122h-108z" />
    <glyph glyph-name="Ocircumflex" unicode="&#xd4;" horiz-adv-x="803" 
d="M402 -15q-149 0 -254 101.5t-105 263.5t105 263.5t254 101.5t253.5 -101.5t104.5 -263.5t-104.5 -263.5t-253.5 -101.5zM175 350q0 -117 63 -187.5t164 -70.5t163.5 70t62.5 188t-62.5 188t-163.5 70t-164 -70.5t-63 -187.5zM220 759l115 122h133l116 -122h-118l-63 55
l-64 -55h-119z" />
    <glyph glyph-name="Otilde" unicode="&#xd5;" horiz-adv-x="803" 
d="M402 -15q-149 0 -254 101.5t-105 263.5t105 263.5t254 101.5t253.5 -101.5t104.5 -263.5t-104.5 -263.5t-253.5 -101.5zM175 350q0 -117 63 -187.5t164 -70.5t163.5 70t62.5 188t-62.5 188t-163.5 70t-164 -70.5t-63 -187.5zM185 762q0 60 32 91.5t80 31.5q37 0 81 -24
t59 -24q31 0 33 38h94q0 -60 -32 -91.5t-80 -31.5q-37 0 -82 24.5t-61 24.5q-29 0 -33 -39h-91z" />
    <glyph glyph-name="Odieresis" unicode="&#xd6;" horiz-adv-x="803" 
d="M402 -15q-149 0 -254 101.5t-105 263.5t105 263.5t254 101.5t253.5 -101.5t104.5 -263.5t-104.5 -263.5t-253.5 -101.5zM175 350q0 -117 63 -187.5t164 -70.5t163.5 70t62.5 188t-62.5 188t-163.5 70t-164 -70.5t-63 -187.5zM215 760v124h132v-124h-132zM456 760v124h132
v-124h-132z" />
    <glyph glyph-name="multiply" unicode="&#xd7;" horiz-adv-x="540" 
d="M116 32l-71 74l153 151l-151 151l72 73l151 -151l153 151l71 -74l-151 -150l151 -151l-72 -73l-152 152z" />
    <glyph glyph-name="Oslash" unicode="&#xd8;" horiz-adv-x="807" 
d="M403 -15q-115 0 -206 62l-65 -73l-79 65l69 78q-78 98 -78 233q0 162 105 263.5t254 101.5q109 0 200 -58l69 77l77 -65l-71 -80q83 -97 83 -239q0 -162 -104.5 -263.5t-253.5 -101.5zM176 350q0 -79 30 -139l322 361q-55 36 -125 36q-101 0 -164 -70.5t-63 -187.5z
M272 132q55 -40 131 -40q101 0 163.5 70t62.5 188q0 83 -33 146z" />
    <glyph glyph-name="Ugrave" unicode="&#xd9;" horiz-adv-x="694" 
d="M347 -15q-123 0 -196.5 72.5t-73.5 197.5v445h125v-430q0 -84 37 -129.5t108 -45.5t108.5 45.5t37.5 129.5v430h125v-445q0 -125 -73.5 -197.5t-197.5 -72.5zM148 882h146l107 -122h-107z" />
    <glyph glyph-name="Uacute" unicode="&#xda;" horiz-adv-x="694" 
d="M347 -15q-123 0 -196.5 72.5t-73.5 197.5v445h125v-430q0 -84 37 -129.5t108 -45.5t108.5 45.5t37.5 129.5v430h125v-445q0 -125 -73.5 -197.5t-197.5 -72.5zM291 760l107 122h146l-145 -122h-108z" />
    <glyph glyph-name="Ucircumflex" unicode="&#xdb;" horiz-adv-x="694" 
d="M347 -15q-123 0 -196.5 72.5t-73.5 197.5v445h125v-430q0 -84 37 -129.5t108 -45.5t108.5 45.5t37.5 129.5v430h125v-445q0 -125 -73.5 -197.5t-197.5 -72.5zM165 759l115 122h133l116 -122h-118l-63 55l-64 -55h-119z" />
    <glyph glyph-name="Udieresis" unicode="&#xdc;" horiz-adv-x="694" 
d="M347 -15q-123 0 -196.5 72.5t-73.5 197.5v445h125v-430q0 -84 37 -129.5t108 -45.5t108.5 45.5t37.5 129.5v430h125v-445q0 -125 -73.5 -197.5t-197.5 -72.5zM161 760v124h132v-124h-132zM402 760v124h132v-124h-132z" />
    <glyph glyph-name="Yacute" unicode="&#xdd;" horiz-adv-x="617" 
d="M246 0v293l-249 407h151l97 -170q49 -87 68 -128h2q20 45 67 130l94 168h143l-248 -406v-294h-125zM255 760l107 122h146l-145 -122h-108z" />
    <glyph glyph-name="Thorn" unicode="&#xde;" horiz-adv-x="622" 
d="M84 0v700h125v-122h111q117 0 191 -61t74 -163q0 -103 -74 -164.5t-191 -61.5h-111v-128h-125zM209 234h103q65 0 104.5 29.5t39.5 90.5q0 63 -40 93t-104 30h-103v-243z" />
    <glyph glyph-name="germandbls" unicode="&#xdf;" horiz-adv-x="600" 
d="M330 -4q-40 0 -64 6v95q19 -4 46 -4q59 0 94.5 32.5t35.5 87.5q0 54 -37 86.5t-97 32.5h-42v95h34q52 0 83 27t31 74q0 44 -27 69t-72 25q-59 0 -91.5 -40t-32.5 -118v-464h-119v474q0 111 68.5 176t174.5 65q100 0 160 -51.5t60 -127.5q0 -55 -33 -94t-84 -56
q62 -13 103.5 -62.5t41.5 -120.5q0 -91 -67 -149t-166 -58z" />
    <glyph glyph-name="agrave" unicode="&#xe0;" horiz-adv-x="561" 
d="M215 -14q-77 0 -129 40t-52 115q0 36 14 63t33 42.5t49.5 26.5t52.5 15t53 8l38 5q57 7 80 20.5t23 48.5q0 32 -24.5 50.5t-67.5 18.5q-41 0 -67 -16.5t-33 -43.5h-129q13 65 73 106t158 41q207 0 207 -161v-242q0 -63 16 -123h-118q-8 43 -10 67q-22 -34 -65 -57.5
t-102 -23.5zM88 705h145l107 -132h-107zM159 145q0 -33 25 -50.5t64 -17.5q57 0 93 38t36 95v56q-25 -32 -104 -44q-60 -10 -87 -25t-27 -52z" />
    <glyph glyph-name="aacute" unicode="&#xe1;" horiz-adv-x="561" 
d="M215 -14q-77 0 -129 40t-52 115q0 36 14 63t33 42.5t49.5 26.5t52.5 15t53 8l38 5q57 7 80 20.5t23 48.5q0 32 -24.5 50.5t-67.5 18.5q-41 0 -67 -16.5t-33 -43.5h-129q13 65 73 106t158 41q207 0 207 -161v-242q0 -63 16 -123h-118q-8 43 -10 67q-22 -34 -65 -57.5
t-102 -23.5zM159 145q0 -33 25 -50.5t64 -17.5q57 0 93 38t36 95v56q-25 -32 -104 -44q-60 -10 -87 -25t-27 -52zM231 573l107 132h146l-146 -132h-107z" />
    <glyph glyph-name="acircumflex" unicode="&#xe2;" horiz-adv-x="561" 
d="M215 -14q-77 0 -129 40t-52 115q0 36 14 63t33 42.5t49.5 26.5t52.5 15t53 8l38 5q57 7 80 20.5t23 48.5q0 32 -24.5 50.5t-67.5 18.5q-41 0 -67 -16.5t-33 -43.5h-129q13 65 73 106t158 41q207 0 207 -161v-242q0 -63 16 -123h-118q-8 43 -10 67q-22 -34 -65 -57.5
t-102 -23.5zM109 573l115 132h122l116 -132h-108l-70 60l-70 -60h-105zM159 145q0 -33 25 -50.5t64 -17.5q57 0 93 38t36 95v56q-25 -32 -104 -44q-60 -10 -87 -25t-27 -52z" />
    <glyph glyph-name="atilde" unicode="&#xe3;" horiz-adv-x="561" 
d="M215 -14q-77 0 -129 40t-52 115q0 36 14 63t33 42.5t49.5 26.5t52.5 15t53 8l38 5q57 7 80 20.5t23 48.5q0 32 -24.5 50.5t-67.5 18.5q-41 0 -67 -16.5t-33 -43.5h-129q13 65 73 106t158 41q207 0 207 -161v-242q0 -63 16 -123h-118q-8 43 -10 67q-22 -34 -65 -57.5
t-102 -23.5zM96 573q0 60 32 91.5t80 31.5q37 0 81 -24t59 -24q31 0 33 38h94q0 -60 -32 -91.5t-80 -31.5q-37 0 -82 24.5t-61 24.5q-29 0 -33 -39h-91zM159 145q0 -33 25 -50.5t64 -17.5q57 0 93 38t36 95v56q-25 -32 -104 -44q-60 -10 -87 -25t-27 -52z" />
    <glyph glyph-name="adieresis" unicode="&#xe4;" horiz-adv-x="561" 
d="M215 -14q-77 0 -129 40t-52 115q0 36 14 63t33 42.5t49.5 26.5t52.5 15t53 8l38 5q57 7 80 20.5t23 48.5q0 32 -24.5 50.5t-67.5 18.5q-41 0 -67 -16.5t-33 -43.5h-129q13 65 73 106t158 41q207 0 207 -161v-242q0 -63 16 -123h-118q-8 43 -10 67q-22 -34 -65 -57.5
t-102 -23.5zM129 573v116h123v-116h-123zM159 145q0 -33 25 -50.5t64 -17.5q57 0 93 38t36 95v56q-25 -32 -104 -44q-60 -10 -87 -25t-27 -52zM320 573v116h123v-116h-123z" />
    <glyph glyph-name="aring" unicode="&#xe5;" horiz-adv-x="561" 
d="M215 -14q-77 0 -129 40t-52 115q0 36 14 63t33 42.5t49.5 26.5t52.5 15t53 8l38 5q57 7 80 20.5t23 48.5q0 32 -24.5 50.5t-67.5 18.5q-41 0 -67 -16.5t-33 -43.5h-129q13 65 73 106t158 41q207 0 207 -161v-242q0 -63 16 -123h-118q-8 43 -10 67q-22 -34 -65 -57.5
t-102 -23.5zM159 145q0 -33 25 -50.5t64 -17.5q57 0 93 38t36 95v56q-25 -32 -104 -44q-60 -10 -87 -25t-27 -52zM190 648q0 37 28 61.5t68 24.5t67.5 -24.5t27.5 -61.5t-27.5 -61.5t-67.5 -24.5t-68 24.5t-28 61.5zM250 648q0 -16 9.5 -25t26.5 -9q16 0 26 9t10 25
q0 15 -10 25t-26 10t-26 -10t-10 -25z" />
    <glyph glyph-name="ae" unicode="&#xe6;" horiz-adv-x="926" 
d="M645 -15q-144 0 -214 104q-73 -103 -213 -103q-78 0 -131 40t-53 115q0 43 19 74t53 47t62.5 23t66.5 11l41 5q56 7 78.5 20.5t22.5 48.5q0 32 -24.5 50.5t-67.5 18.5q-82 0 -100 -60h-129q14 66 74 106.5t157 40.5q128 0 178 -74q64 74 172 74q114 0 183.5 -81
t70.5 -224h-391q5 -63 45 -102.5t101 -39.5q78 0 105 54h126q-20 -67 -80.5 -107.5t-151.5 -40.5zM159 145q0 -32 25 -50t64 -18q57 0 93 38t36 95v56q-25 -33 -105 -44q-57 -9 -85 -24.5t-28 -52.5zM501 308h271q-8 57 -43.5 90t-91.5 33q-52 0 -89.5 -34.5t-46.5 -88.5z
" />
    <glyph glyph-name="ccedilla" unicode="&#xe7;" horiz-adv-x="558" 
d="M278 -234q-47 0 -86 12v69q42 -11 74 -11q48 0 48 28q0 24 -41 24q-24 0 -53 -9v58l28 51q-94 15 -152 85.5t-58 180.5q0 122 72.5 196.5t184.5 74.5q96 0 157 -50t72 -126h-117q-27 78 -110 78q-60 0 -97 -45.5t-37 -127.5q0 -81 37 -126t94 -45q85 0 113 78h118
q-10 -67 -62.5 -116t-135.5 -58l-24 -42q42 0 70 -21.5t28 -63.5q0 -46 -35 -70t-88 -24z" />
    <glyph glyph-name="egrave" unicode="&#xe8;" horiz-adv-x="586" 
d="M302 -15q-121 0 -192.5 73.5t-71.5 195.5q0 118 75 195t181 77q116 0 186 -80.5t71 -224.5h-392q4 -64 44.5 -103t100.5 -39q78 0 107 54h126q-21 -67 -82 -107.5t-153 -40.5zM98 705h145l107 -132h-107zM161 308h271q-8 57 -43.5 90t-91.5 33q-52 0 -90 -34.5t-46 -88.5
z" />
    <glyph glyph-name="eacute" unicode="&#xe9;" horiz-adv-x="586" 
d="M302 -15q-121 0 -192.5 73.5t-71.5 195.5q0 118 75 195t181 77q116 0 186 -80.5t71 -224.5h-392q4 -64 44.5 -103t100.5 -39q78 0 107 54h126q-21 -67 -82 -107.5t-153 -40.5zM161 308h271q-8 57 -43.5 90t-91.5 33q-52 0 -90 -34.5t-46 -88.5zM242 573l107 132h146
l-146 -132h-107z" />
    <glyph glyph-name="ecircumflex" unicode="&#xea;" horiz-adv-x="586" 
d="M302 -15q-121 0 -192.5 73.5t-71.5 195.5q0 118 75 195t181 77q116 0 186 -80.5t71 -224.5h-392q4 -64 44.5 -103t100.5 -39q78 0 107 54h126q-21 -67 -82 -107.5t-153 -40.5zM120 573l115 132h122l116 -132h-108l-70 60l-70 -60h-105zM161 308h271q-8 57 -43.5 90
t-91.5 33q-52 0 -90 -34.5t-46 -88.5z" />
    <glyph glyph-name="edieresis" unicode="&#xeb;" horiz-adv-x="586" 
d="M302 -15q-121 0 -192.5 73.5t-71.5 195.5q0 118 75 195t181 77q116 0 186 -80.5t71 -224.5h-392q4 -64 44.5 -103t100.5 -39q78 0 107 54h126q-21 -67 -82 -107.5t-153 -40.5zM140 573v116h123v-116h-123zM161 308h271q-8 57 -43.5 90t-91.5 33q-52 0 -90 -34.5
t-46 -88.5zM331 573v116h123v-116h-123z" />
    <glyph glyph-name="igrave" unicode="&#xec;" horiz-adv-x="261" 
d="M72 0v511h118v-511h-118zM-35 705h138l81 -132h-107z" />
    <glyph glyph-name="iacute" unicode="&#xed;" horiz-adv-x="261" 
d="M72 0v511h118v-511h-118zM76 573l102 132h146l-141 -132h-107z" />
    <glyph glyph-name="icircumflex" unicode="&#xee;" horiz-adv-x="261" 
d="M72 0v511h118v-511h-118zM-46 573l115 132h122l116 -132h-108l-70 60l-70 -60h-105z" />
    <glyph glyph-name="idieresis" unicode="&#xef;" horiz-adv-x="261" 
d="M72 0v511h118v-511h-118zM-26 573v116h123v-116h-123zM165 573v116h123v-116h-123z" />
    <glyph glyph-name="eth" unicode="&#xf0;" horiz-adv-x="605" 
d="M299 -15q-113 0 -187.5 75.5t-74.5 192.5t74 192.5t184 75.5q78 0 122 -40q-24 56 -89 109l-92 -51l-36 65l60 34q-47 29 -94 52l104 45q37 -16 84 -45l89 49l36 -66l-60 -33q141 -130 141 -341q0 -148 -73 -231t-188 -83zM159 253q0 -81 38 -126.5t102 -45.5
q63 0 101 45.5t38 126.5t-38 126.5t-101 45.5q-64 0 -102 -45.5t-38 -126.5z" />
    <glyph glyph-name="ntilde" unicode="&#xf1;" horiz-adv-x="577" 
d="M72 0v511h116v-66q51 81 152 81q78 0 124 -48.5t46 -137.5v-340h-120v330q0 98 -84 98q-49 0 -82 -36t-33 -107v-285h-119zM113 573q0 60 32 91.5t80 31.5q37 0 81 -24t59 -24q31 0 33 38h94q0 -60 -32 -91.5t-80 -31.5q-37 0 -82 24.5t-61 24.5q-29 0 -33 -39h-91z" />
    <glyph glyph-name="ograve" unicode="&#xf2;" horiz-adv-x="597" 
d="M299 -15q-113 0 -187.5 76t-74.5 194t75 194.5t187 76.5t186.5 -76.5t74.5 -194.5t-74.5 -194t-186.5 -76zM100 705h145l107 -132h-107zM159 255q0 -82 38 -128t102 -46q63 0 101 46t38 128q0 83 -38 128.5t-101 45.5q-64 0 -102 -45.5t-38 -128.5z" />
    <glyph glyph-name="oacute" unicode="&#xf3;" horiz-adv-x="597" 
d="M299 -15q-113 0 -187.5 76t-74.5 194t75 194.5t187 76.5t186.5 -76.5t74.5 -194.5t-74.5 -194t-186.5 -76zM159 255q0 -82 38 -128t102 -46q63 0 101 46t38 128q0 83 -38 128.5t-101 45.5q-64 0 -102 -45.5t-38 -128.5zM244 573l107 132h146l-146 -132h-107z" />
    <glyph glyph-name="ocircumflex" unicode="&#xf4;" horiz-adv-x="597" 
d="M299 -15q-113 0 -187.5 76t-74.5 194t75 194.5t187 76.5t186.5 -76.5t74.5 -194.5t-74.5 -194t-186.5 -76zM122 573l115 132h122l116 -132h-108l-70 60l-70 -60h-105zM159 255q0 -82 38 -128t102 -46q63 0 101 46t38 128q0 83 -38 128.5t-101 45.5q-64 0 -102 -45.5
t-38 -128.5z" />
    <glyph glyph-name="otilde" unicode="&#xf5;" horiz-adv-x="597" 
d="M299 -15q-113 0 -187.5 76t-74.5 194t75 194.5t187 76.5t186.5 -76.5t74.5 -194.5t-74.5 -194t-186.5 -76zM109 573q0 60 32 91.5t80 31.5q37 0 81 -24t59 -24q31 0 33 38h94q0 -60 -32 -91.5t-80 -31.5q-37 0 -82 24.5t-61 24.5q-29 0 -33 -39h-91zM159 255
q0 -82 38 -128t102 -46q63 0 101 46t38 128q0 83 -38 128.5t-101 45.5q-64 0 -102 -45.5t-38 -128.5z" />
    <glyph glyph-name="odieresis" unicode="&#xf6;" horiz-adv-x="597" 
d="M299 -15q-113 0 -187.5 76t-74.5 194t75 194.5t187 76.5t186.5 -76.5t74.5 -194.5t-74.5 -194t-186.5 -76zM142 573v116h123v-116h-123zM159 255q0 -82 38 -128t102 -46q63 0 101 46t38 128q0 83 -38 128.5t-101 45.5q-64 0 -102 -45.5t-38 -128.5zM333 573v116h123v-116
h-123z" />
    <glyph glyph-name="divide" unicode="&#xf7;" horiz-adv-x="558" 
d="M38 211v101h482v-101h-482zM217 24v112h124v-112h-124zM217 386v113h124v-113h-124z" />
    <glyph glyph-name="oslash" unicode="&#xf8;" horiz-adv-x="602" 
d="M301 -15q-79 0 -144 41l-41 -44l-76 64l46 49q-47 69 -47 160q0 118 75 194.5t187 76.5q82 0 146 -42l41 44l73 -63l-46 -50q47 -69 47 -160q0 -118 -74.5 -194t-186.5 -76zM161 255q0 -39 9 -69l206 221q-31 22 -75 22q-64 0 -102 -45.5t-38 -128.5zM227 102
q30 -21 74 -21q63 0 101 46t38 128q0 39 -9 69z" />
    <glyph glyph-name="ugrave" unicode="&#xf9;" horiz-adv-x="569" 
d="M237 -15q-77 0 -123.5 48.5t-46.5 139.5v338h119v-320q0 -108 86 -108q44 0 75.5 36.5t31.5 108.5v283h119v-511h-117v63q-43 -78 -144 -78zM84 705h145l107 -132h-107z" />
    <glyph glyph-name="uacute" unicode="&#xfa;" horiz-adv-x="569" 
d="M237 -15q-77 0 -123.5 48.5t-46.5 139.5v338h119v-320q0 -108 86 -108q44 0 75.5 36.5t31.5 108.5v283h119v-511h-117v63q-43 -78 -144 -78zM227 573l107 132h146l-146 -132h-107z" />
    <glyph glyph-name="ucircumflex" unicode="&#xfb;" horiz-adv-x="569" 
d="M237 -15q-77 0 -123.5 48.5t-46.5 139.5v338h119v-320q0 -108 86 -108q44 0 75.5 36.5t31.5 108.5v283h119v-511h-117v63q-43 -78 -144 -78zM106 573l115 132h122l116 -132h-108l-70 60l-70 -60h-105z" />
    <glyph glyph-name="udieresis" unicode="&#xfc;" horiz-adv-x="569" 
d="M237 -15q-77 0 -123.5 48.5t-46.5 139.5v338h119v-320q0 -108 86 -108q44 0 75.5 36.5t31.5 108.5v283h119v-511h-117v63q-43 -78 -144 -78zM125 573v116h123v-116h-123zM316 573v116h123v-116h-123z" />
    <glyph glyph-name="yacute" unicode="&#xfd;" horiz-adv-x="528" 
d="M125 -207q-30 0 -57 4v100q19 -5 42 -5q42 0 66.5 21.5t24.5 62.5q0 24 -17 69l-175 466h135l89 -271q22 -65 38 -134h2q17 68 37 132l82 273h125l-186 -532q-35 -98 -65 -132q-47 -54 -141 -54zM213 573l107 132h146l-146 -132h-107z" />
    <glyph glyph-name="thorn" unicode="&#xfe;" horiz-adv-x="614" 
d="M72 -195v895h119v-254q46 80 156 80q100 0 164 -73.5t64 -197.5t-64 -197t-164 -73q-108 0 -156 81v-261h-119zM189 255q0 -77 37.5 -126t96.5 -49q62 0 96 47t34 128t-34 128t-96 47q-59 0 -96.5 -49.5t-37.5 -125.5z" />
    <glyph glyph-name="ydieresis" unicode="&#xff;" horiz-adv-x="528" 
d="M125 -207q-30 0 -57 4v100q19 -5 42 -5q42 0 66.5 21.5t24.5 62.5q0 24 -17 69l-175 466h135l89 -271q22 -65 38 -134h2q17 68 37 132l82 273h125l-186 -532q-35 -98 -65 -132q-47 -54 -141 -54zM111 573v116h123v-116h-123zM302 573v116h123v-116h-123z" />
    <glyph glyph-name="Amacron" unicode="&#x100;" horiz-adv-x="660" 
d="M1 0l261 700h138l258 -700h-134l-50 146h-292l-50 -146h-131zM145 775v92h373v-92h-373zM219 251h219l-47 138q-6 17 -62 180h-1q-45 -136 -62 -181z" />
    <glyph glyph-name="amacron" unicode="&#x101;" horiz-adv-x="561" 
d="M215 -14q-77 0 -129 40t-52 115q0 36 14 63t33 42.5t49.5 26.5t52.5 15t53 8l38 5q57 7 80 20.5t23 48.5q0 32 -24.5 50.5t-67.5 18.5q-41 0 -67 -16.5t-33 -43.5h-129q13 65 73 106t158 41q207 0 207 -161v-242q0 -63 16 -123h-118q-8 43 -10 67q-22 -34 -65 -57.5
t-102 -23.5zM120 583v91h333v-91h-333zM159 145q0 -33 25 -50.5t64 -17.5q57 0 93 38t36 95v56q-25 -32 -104 -44q-60 -10 -87 -25t-27 -52z" />
    <glyph glyph-name="Abreve" unicode="&#x102;" horiz-adv-x="660" 
d="M1 0l261 700h138l258 -700h-134l-50 146h-292l-50 -146h-131zM160 881h114q5 -51 57 -51t57 51h114q0 -60 -48 -95.5t-123 -35.5q-74 0 -122.5 35.5t-48.5 95.5zM219 251h219l-47 138q-6 17 -62 180h-1q-45 -136 -62 -181z" />
    <glyph glyph-name="abreve" unicode="&#x103;" horiz-adv-x="561" 
d="M215 -14q-77 0 -129 40t-52 115q0 36 14 63t33 42.5t49.5 26.5t52.5 15t53 8l38 5q57 7 80 20.5t23 48.5q0 32 -24.5 50.5t-67.5 18.5q-41 0 -67 -16.5t-33 -43.5h-129q13 65 73 106t158 41q207 0 207 -161v-242q0 -63 16 -123h-118q-8 43 -10 67q-22 -34 -65 -57.5
t-102 -23.5zM120 708h107q3 -61 59 -61q54 0 59 61h106q0 -65 -46 -102.5t-119 -37.5q-74 0 -119.5 37.5t-46.5 102.5zM159 145q0 -33 25 -50.5t64 -17.5q57 0 93 38t36 95v56q-25 -32 -104 -44q-60 -10 -87 -25t-27 -52z" />
    <glyph glyph-name="Aogonek" unicode="&#x104;" horiz-adv-x="660" 
d="M1 0l261 700h138l258 -700h-1q-47 -21 -77 -47.5t-30 -48.5q0 -31 41 -31q28 0 57 13v-76q-35 -15 -87 -15q-49 0 -81 21t-32 61q0 39 33.5 70.5t83.5 52.5h-41l-50 146h-292l-50 -146h-131zM219 251h219l-47 138q-6 17 -62 180h-1q-45 -136 -62 -181z" />
    <glyph glyph-name="aogonek" unicode="&#x105;" horiz-adv-x="561" 
d="M215 -14q-77 0 -129 40t-52 115q0 36 14 63t33 42.5t49.5 26.5t52.5 15t53 8l38 5q57 7 80 20.5t23 48.5q0 32 -24.5 50.5t-67.5 18.5q-41 0 -67 -16.5t-33 -43.5h-129q13 65 73 106t158 41q207 0 207 -161v-242q0 -63 16 -123q-47 -21 -77 -47.5t-30 -48.5q0 -31 41 -31
q28 0 57 13v-76q-35 -15 -87 -15q-49 0 -81 21t-32 61q0 39 33.5 70.5t83.5 52.5h-26q-8 43 -10 67q-22 -34 -65 -57.5t-102 -23.5zM159 145q0 -33 25 -50.5t64 -17.5q57 0 93 38t36 95v56q-25 -32 -104 -44q-60 -10 -87 -25t-27 -52z" />
    <glyph glyph-name="Cacute" unicode="&#x106;" horiz-adv-x="733" 
d="M390 -15q-153 0 -249.5 98.5t-96.5 266.5q0 165 100 265t246 100q68 0 124 -20t92.5 -53.5t59 -72.5t31.5 -82h-129q-14 48 -58.5 83.5t-116.5 35.5q-97 0 -156.5 -68t-59.5 -188t60 -188t156 -68q72 0 116.5 35.5t58.5 83.5h129q-9 -43 -31.5 -82t-59 -72.5t-92.5 -53.5
t-124 -20zM330 760l107 122h146l-145 -122h-108z" />
    <glyph glyph-name="cacute" unicode="&#x107;" horiz-adv-x="558" 
d="M292 -15q-112 0 -183 73t-71 196q0 122 72.5 196.5t184.5 74.5q96 0 157 -50t72 -126h-117q-27 78 -110 78q-60 0 -97 -45.5t-37 -127.5q0 -81 37 -126t94 -45q85 0 113 78h118q-11 -75 -73.5 -125.5t-159.5 -50.5zM236 573l107 132h146l-146 -132h-107z" />
    <glyph glyph-name="Ccircumflex" unicode="&#x108;" horiz-adv-x="733" 
d="M390 -15q-153 0 -249.5 98.5t-96.5 266.5q0 165 100 265t246 100q68 0 124 -20t92.5 -53.5t59 -72.5t31.5 -82h-129q-14 48 -58.5 83.5t-116.5 35.5q-97 0 -156.5 -68t-59.5 -188t60 -188t156 -68q72 0 116.5 35.5t58.5 83.5h129q-9 -43 -31.5 -82t-59 -72.5t-92.5 -53.5
t-124 -20zM204 759l115 122h133l116 -122h-118l-63 55l-64 -55h-119z" />
    <glyph glyph-name="ccircumflex" unicode="&#x109;" horiz-adv-x="558" 
d="M292 -15q-112 0 -183 73t-71 196q0 122 72.5 196.5t184.5 74.5q96 0 157 -50t72 -126h-117q-27 78 -110 78q-60 0 -97 -45.5t-37 -127.5q0 -81 37 -126t94 -45q85 0 113 78h118q-11 -75 -73.5 -125.5t-159.5 -50.5zM114 573l115 132h122l116 -132h-108l-70 60l-70 -60
h-105z" />
    <glyph glyph-name="Cdotaccent" unicode="&#x10a;" horiz-adv-x="733" 
d="M390 -15q-153 0 -249.5 98.5t-96.5 266.5q0 165 100 265t246 100q68 0 124 -20t92.5 -53.5t59 -72.5t31.5 -82h-129q-14 48 -58.5 83.5t-116.5 35.5q-97 0 -156.5 -68t-59.5 -188t60 -188t156 -68q72 0 116.5 35.5t58.5 83.5h129q-9 -43 -31.5 -82t-59 -72.5t-92.5 -53.5
t-124 -20zM319 760v124h132v-124h-132z" />
    <glyph glyph-name="cdotaccent" unicode="&#x10b;" horiz-adv-x="558" 
d="M292 -15q-112 0 -183 73t-71 196q0 122 72.5 196.5t184.5 74.5q96 0 157 -50t72 -126h-117q-27 78 -110 78q-60 0 -97 -45.5t-37 -127.5q0 -81 37 -126t94 -45q85 0 113 78h118q-11 -75 -73.5 -125.5t-159.5 -50.5zM223 573v124h136v-124h-136z" />
    <glyph glyph-name="Ccaron" unicode="&#x10c;" horiz-adv-x="733" 
d="M390 -15q-153 0 -249.5 98.5t-96.5 266.5q0 165 100 265t246 100q68 0 124 -20t92.5 -53.5t59 -72.5t31.5 -82h-129q-14 48 -58.5 83.5t-116.5 35.5q-97 0 -156.5 -68t-59.5 -188t60 -188t156 -68q72 0 116.5 35.5t58.5 83.5h129q-9 -43 -31.5 -82t-59 -72.5t-92.5 -53.5
t-124 -20zM175 883h118l64 -55l63 55h119l-115 -122h-133z" />
    <glyph glyph-name="ccaron" unicode="&#x10d;" horiz-adv-x="558" 
d="M292 -15q-112 0 -183 73t-71 196q0 122 72.5 196.5t184.5 74.5q96 0 157 -50t72 -126h-117q-27 78 -110 78q-60 0 -97 -45.5t-37 -127.5q0 -81 37 -126t94 -45q85 0 113 78h118q-11 -75 -73.5 -125.5t-159.5 -50.5zM115 705h108l70 -60l70 60h105l-115 -132h-122z" />
    <glyph glyph-name="Dcaron" unicode="&#x10e;" horiz-adv-x="725" 
d="M84 0v700h229q160 0 264 -97t104 -253t-104 -253t-264 -97h-229zM130 883h118l64 -55l63 55h119l-115 -122h-133zM209 107h94q119 0 185 63.5t66 179.5t-66 179.5t-185 63.5h-94v-486z" />
    <glyph glyph-name="dcaron" unicode="&#x10f;" horiz-adv-x="652" 
d="M268 -15q-100 0 -164.5 73.5t-64.5 197.5q0 123 64.5 196.5t164.5 73.5q107 0 155 -81v255h120v-700h-120v64q-21 -36 -61 -57.5t-94 -21.5zM161 256q0 -81 34 -128.5t96 -47.5q59 0 96.5 49.5t37.5 126.5q0 76 -37.5 125t-96.5 49q-62 0 -96 -46.5t-34 -127.5zM577 476
q54 63 55 116h-54v108h110v-75q0 -91 -49 -149h-62z" />
    <glyph glyph-name="Dcroat" unicode="&#x110;" horiz-adv-x="774" 
d="M133 0v299h-116v106h116v295h229q160 0 264 -97t104 -253t-104 -253t-264 -97h-229zM258 107h94q119 0 185 63.5t66 179.5t-66 179.5t-185 63.5h-94v-188h130v-106h-130v-192z" />
    <glyph glyph-name="dcroat" unicode="&#x111;" horiz-adv-x="614" 
d="M268 -15q-100 0 -164.5 73.5t-64.5 197.5q0 123 64.5 196.5t164.5 73.5q107 0 155 -81v124h-94v73h94v58h120v-58h53v-73h-53v-569h-120v64q-21 -36 -61 -57.5t-94 -21.5zM161 256q0 -81 34 -128.5t96 -47.5q59 0 96.5 49.5t37.5 126.5q0 76 -37.5 125t-96.5 49
q-62 0 -96 -46.5t-34 -127.5z" />
    <glyph glyph-name="Emacron" unicode="&#x112;" horiz-adv-x="626" 
d="M84 0v700h489v-107h-364v-181h309v-105h-309v-200h369v-107h-494zM142 775v92h373v-92h-373z" />
    <glyph glyph-name="emacron" unicode="&#x113;" horiz-adv-x="586" 
d="M302 -15q-121 0 -192.5 73.5t-71.5 195.5q0 118 75 195t181 77q116 0 186 -80.5t71 -224.5h-392q4 -64 44.5 -103t100.5 -39q78 0 107 54h126q-21 -67 -82 -107.5t-153 -40.5zM131 583v91h333v-91h-333zM161 308h271q-8 57 -43.5 90t-91.5 33q-52 0 -90 -34.5t-46 -88.5z
" />
    <glyph glyph-name="Ebreve" unicode="&#x114;" horiz-adv-x="626" 
d="M84 0v700h489v-107h-364v-181h309v-105h-309v-200h369v-107h-494zM157 881h114q5 -51 57 -51t57 51h114q0 -60 -48 -95.5t-123 -35.5q-74 0 -122.5 35.5t-48.5 95.5z" />
    <glyph glyph-name="ebreve" unicode="&#x115;" horiz-adv-x="586" 
d="M302 -15q-121 0 -192.5 73.5t-71.5 195.5q0 118 75 195t181 77q116 0 186 -80.5t71 -224.5h-392q4 -64 44.5 -103t100.5 -39q78 0 107 54h126q-21 -67 -82 -107.5t-153 -40.5zM131 708h107q3 -61 59 -61q54 0 59 61h106q0 -65 -46 -102.5t-119 -37.5q-74 0 -119.5 37.5
t-46.5 102.5zM161 308h271q-8 57 -43.5 90t-91.5 33q-52 0 -90 -34.5t-46 -88.5z" />
    <glyph glyph-name="Edotaccent" unicode="&#x116;" horiz-adv-x="626" 
d="M84 0v700h489v-107h-364v-181h309v-105h-309v-200h369v-107h-494zM262 760v124h132v-124h-132z" />
    <glyph glyph-name="edotaccent" unicode="&#x117;" horiz-adv-x="586" 
d="M302 -15q-121 0 -192.5 73.5t-71.5 195.5q0 118 75 195t181 77q116 0 186 -80.5t71 -224.5h-392q4 -64 44.5 -103t100.5 -39q78 0 107 54h126q-21 -67 -82 -107.5t-153 -40.5zM161 308h271q-8 57 -43.5 90t-91.5 33q-52 0 -90 -34.5t-46 -88.5zM229 573v124h136v-124
h-136z" />
    <glyph glyph-name="Eogonek" unicode="&#x118;" horiz-adv-x="626" 
d="M84 0v700h489v-107h-364v-181h309v-105h-309v-200h369v-107q-47 -21 -77 -47.5t-30 -48.5q0 -31 41 -31q28 0 57 13v-76q-35 -15 -87 -15q-49 0 -81 21t-32 61q0 39 33.5 70.5t83.5 52.5h-402z" />
    <glyph glyph-name="eogonek" unicode="&#x119;" horiz-adv-x="586" 
d="M302 -15q-121 0 -192.5 73.5t-71.5 195.5q0 118 75 195t181 77q116 0 186 -80.5t71 -224.5h-392q4 -64 44.5 -103t100.5 -39q78 0 107 54h126q-25 -79 -100 -118q-105 -63 -105 -110q0 -32 40 -32q27 0 57 13v-76q-35 -15 -87 -15q-49 0 -81 21t-32 61q0 59 74 108h-1z
M161 308h271q-8 57 -43.5 90t-91.5 33q-52 0 -90 -34.5t-46 -88.5z" />
    <glyph glyph-name="Ecaron" unicode="&#x11a;" horiz-adv-x="626" 
d="M84 0v700h489v-107h-364v-181h309v-105h-309v-200h369v-107h-494zM118 883h118l64 -55l63 55h119l-115 -122h-133z" />
    <glyph glyph-name="ecaron" unicode="&#x11b;" horiz-adv-x="586" 
d="M302 -15q-121 0 -192.5 73.5t-71.5 195.5q0 118 75 195t181 77q116 0 186 -80.5t71 -224.5h-392q4 -64 44.5 -103t100.5 -39q78 0 107 54h126q-21 -67 -82 -107.5t-153 -40.5zM121 705h108l70 -60l70 60h105l-115 -132h-122zM161 308h271q-8 57 -43.5 90t-91.5 33
q-52 0 -90 -34.5t-46 -88.5z" />
    <glyph glyph-name="Gcircumflex" unicode="&#x11c;" horiz-adv-x="788" 
d="M382 -15q-147 0 -242.5 100.5t-95.5 258.5q0 164 102.5 267.5t260.5 103.5q132 0 212 -64.5t100 -151.5h-129q-50 109 -185 109q-101 0 -165.5 -70t-64.5 -193q0 -119 63 -187t170 -68q84 0 140 50.5t62 145.5h-241v100h349v-386h-116v84q-30 -45 -86.5 -72t-133.5 -27z
M236 759l115 122h133l116 -122h-118l-63 55l-64 -55h-119z" />
    <glyph glyph-name="gcircumflex" unicode="&#x11d;" horiz-adv-x="609" 
d="M288 -210q-101 0 -158.5 40t-68.5 116h124q17 -64 107 -64q127 0 127 125v86q-19 -36 -58.5 -58.5t-93.5 -22.5q-98 0 -162.5 67.5t-64.5 188.5t64.5 189t162.5 68q52 0 92.5 -22.5t59.5 -57.5v66h119v-499q0 -99 -62 -160.5t-188 -61.5zM115 573l115 132h122l116 -132
h-108l-70 60l-70 -60h-105zM162 269q0 -78 33 -121t95 -43q59 0 95 45.5t36 118.5t-36 118.5t-95 45.5q-60 0 -94 -44t-34 -120z" />
    <glyph glyph-name="Gbreve" unicode="&#x11e;" horiz-adv-x="788" 
d="M382 -15q-147 0 -242.5 100.5t-95.5 258.5q0 164 102.5 267.5t260.5 103.5q132 0 212 -64.5t100 -151.5h-129q-50 109 -185 109q-101 0 -165.5 -70t-64.5 -193q0 -119 63 -187t170 -68q84 0 140 50.5t62 145.5h-241v100h349v-386h-116v84q-30 -45 -86.5 -72t-133.5 -27z
M247 881h114q5 -51 57 -51t57 51h114q0 -60 -48 -95.5t-123 -35.5q-74 0 -122.5 35.5t-48.5 95.5z" />
    <glyph glyph-name="gbreve" unicode="&#x11f;" horiz-adv-x="609" 
d="M288 -210q-101 0 -158.5 40t-68.5 116h124q17 -64 107 -64q127 0 127 125v86q-19 -36 -58.5 -58.5t-93.5 -22.5q-98 0 -162.5 67.5t-64.5 188.5t64.5 189t162.5 68q52 0 92.5 -22.5t59.5 -57.5v66h119v-499q0 -99 -62 -160.5t-188 -61.5zM126 708h107q3 -61 59 -61
q54 0 59 61h106q0 -65 -46 -102.5t-119 -37.5q-74 0 -119.5 37.5t-46.5 102.5zM162 269q0 -78 33 -121t95 -43q59 0 95 45.5t36 118.5t-36 118.5t-95 45.5q-60 0 -94 -44t-34 -120z" />
    <glyph glyph-name="Gdotaccent" unicode="&#x120;" horiz-adv-x="788" 
d="M382 -15q-147 0 -242.5 100.5t-95.5 258.5q0 164 102.5 267.5t260.5 103.5q132 0 212 -64.5t100 -151.5h-129q-50 109 -185 109q-101 0 -165.5 -70t-64.5 -193q0 -119 63 -187t170 -68q84 0 140 50.5t62 145.5h-241v100h349v-386h-116v84q-30 -45 -86.5 -72t-133.5 -27z
M351 760v124h132v-124h-132z" />
    <glyph glyph-name="gdotaccent" unicode="&#x121;" horiz-adv-x="609" 
d="M288 -210q-101 0 -158.5 40t-68.5 116h124q17 -64 107 -64q127 0 127 125v86q-19 -36 -58.5 -58.5t-93.5 -22.5q-98 0 -162.5 67.5t-64.5 188.5t64.5 189t162.5 68q52 0 92.5 -22.5t59.5 -57.5v66h119v-499q0 -99 -62 -160.5t-188 -61.5zM162 269q0 -78 33 -121t95 -43
q59 0 95 45.5t36 118.5t-36 118.5t-95 45.5q-60 0 -94 -44t-34 -120zM224 573v124h136v-124h-136z" />
    <glyph glyph-name="uni0122" unicode="&#x122;" horiz-adv-x="788" 
d="M382 -15q-147 0 -242.5 100.5t-95.5 258.5q0 164 102.5 267.5t260.5 103.5q132 0 212 -64.5t100 -151.5h-129q-50 109 -185 109q-101 0 -165.5 -70t-64.5 -193q0 -119 63 -187t170 -68q84 0 140 50.5t62 145.5h-241v100h349v-386h-116v84q-30 -45 -86.5 -72t-133.5 -27z
M343 -299q57 66 58 124h-57v115h117v-80q0 -98 -52 -159h-66z" />
    <glyph glyph-name="uni0123" unicode="&#x123;" horiz-adv-x="609" 
d="M288 -210q-101 0 -158.5 40t-68.5 116h124q17 -64 107 -64q127 0 127 125v86q-19 -36 -58.5 -58.5t-93.5 -22.5q-98 0 -162.5 67.5t-64.5 188.5t64.5 189t162.5 68q52 0 92.5 -22.5t59.5 -57.5v66h119v-499q0 -99 -62 -160.5t-188 -61.5zM162 269q0 -78 33 -121t95 -43
q59 0 95 45.5t36 118.5t-36 118.5t-95 45.5q-60 0 -94 -44t-34 -120zM233 573v80q0 98 52 159h66q-57 -66 -58 -124h57v-115h-117z" />
    <glyph glyph-name="Hcircumflex" unicode="&#x124;" horiz-adv-x="724" 
d="M84 0v700h125v-293h306v293h125v-700h-125v300h-306v-300h-125zM181 759l115 122h133l116 -122h-118l-63 55l-64 -55h-119z" />
    <glyph glyph-name="hcircumflex" unicode="&#x125;" horiz-adv-x="577" 
d="M72 0v700h119v-251q51 77 149 77q78 0 124 -48.5t46 -137.5v-340h-120v330q0 98 -84 98q-49 0 -82 -36t-33 -107v-285h-119zM109 759l115 122h133l116 -122h-118l-63 55l-64 -55h-119z" />
    <glyph glyph-name="Hbar" unicode="&#x126;" horiz-adv-x="737" 
d="M90 0v499h-61v99h61v102h125v-102h306v102h125v-102h63v-99h-63v-499h-125v300h-306v-300h-125zM215 407h306v92h-306v-92z" />
    <glyph glyph-name="hbar" unicode="&#x127;" horiz-adv-x="577" 
d="M72 0v569h-63v73h63v58h119v-58h85v-73h-85v-120q51 77 149 77q78 0 124 -48.5t46 -137.5v-340h-120v330q0 98 -84 98q-49 0 -82 -36t-33 -107v-285h-119z" />
    <glyph glyph-name="Itilde" unicode="&#x128;" horiz-adv-x="292" 
d="M84 0v700h125v-700h-125zM-21 762q0 55 30 87t72 32q30 0 66.5 -18t49.5 -18q26 0 28 30h89q0 -55 -30 -87t-71 -32q-30 0 -67 18.5t-51 18.5q-26 0 -29 -31h-87z" />
    <glyph glyph-name="itilde" unicode="&#x129;" horiz-adv-x="261" 
d="M72 0v511h118v-511h-118zM-37 573q0 55 30 87t72 32q30 0 66.5 -18t49.5 -18q26 0 28 30h89q0 -55 -30 -87t-71 -32q-30 0 -67 18.5t-51 18.5q-26 0 -29 -31h-87z" />
    <glyph glyph-name="Imacron" unicode="&#x12a;" horiz-adv-x="292" 
d="M84 0v700h125v-700h-125zM-40 775v92h373v-92h-373z" />
    <glyph glyph-name="imacron" unicode="&#x12b;" horiz-adv-x="261" 
d="M72 0v511h118v-511h-118zM-36 583v91h333v-91h-333z" />
    <glyph glyph-name="Ibreve" unicode="&#x12c;" horiz-adv-x="292" 
d="M84 0v700h125v-700h-125zM-25 881h114q5 -51 57 -51t57 51h114q0 -60 -48 -95.5t-123 -35.5q-74 0 -122.5 35.5t-48.5 95.5z" />
    <glyph glyph-name="ibreve" unicode="&#x12d;" horiz-adv-x="261" 
d="M72 0v511h118v-511h-118zM-35 708h107q3 -61 59 -61q54 0 59 61h106q0 -65 -46 -102.5t-119 -37.5q-74 0 -119.5 37.5t-46.5 102.5z" />
    <glyph glyph-name="Iogonek" unicode="&#x12e;" horiz-adv-x="292" 
d="M84 0v700h125v-700h-1q-47 -21 -77 -47.5t-30 -48.5q0 -31 41 -31q28 0 57 13v-76q-35 -15 -87 -15q-49 0 -81 21t-32 61q0 39 33.5 70.5t83.5 52.5h-32z" />
    <glyph glyph-name="iogonek" unicode="&#x12f;" horiz-adv-x="261" 
d="M72 0v511h118v-511q-47 -21 -77 -47.5t-30 -48.5q0 -31 41 -31q28 0 57 13v-76q-35 -15 -87 -15q-49 0 -81 21t-32 61q0 39 33.5 70.5t83.5 52.5h-26zM63 573v124h136v-124h-136z" />
    <glyph glyph-name="Idotaccent" unicode="&#x130;" horiz-adv-x="292" 
d="M84 0v700h125v-700h-125zM80 760v124h132v-124h-132z" />
    <glyph glyph-name="dotlessi" unicode="&#x131;" horiz-adv-x="261" 
d="M72 0v511h118v-511h-118z" />
    <glyph glyph-name="IJ" unicode="&#x132;" horiz-adv-x="842" 
d="M84 0v700h125v-700h-125zM317 209v37h123v-25q0 -129 101 -129q50 0 73.5 33.5t23.5 103.5v471h125v-489q0 -99 -57 -162.5t-165 -63.5q-111 0 -167.5 60t-56.5 164z" />
    <glyph glyph-name="ij" unicode="&#x133;" horiz-adv-x="522" 
d="M72 0v511h118v-511h-118zM63 573v124h136v-124h-136zM256 -183v86q10 -2 20 -2q33 0 45 21t12 63v526h118v-536q0 -161 -151 -161q-24 0 -44 3zM324 573v124h136v-124h-136z" />
    <glyph glyph-name="Jcircumflex" unicode="&#x134;" horiz-adv-x="549" 
d="M249 -15q-111 0 -167.5 60t-56.5 164v37h123v-25q0 -129 101 -129q50 0 73.5 33.5t23.5 103.5v471h125v-489q0 -99 -57 -162.5t-165 -63.5zM227 759l115 122h133l116 -122h-118l-63 55l-64 -55h-119z" />
    <glyph glyph-name="jcircumflex" unicode="&#x135;" horiz-adv-x="261" 
d="M39 -186q-25 0 -44 3v86q10 -2 20 -2q33 0 45 21t12 63v526h118v-536q0 -161 -151 -161zM-46 573l115 132h122l116 -132h-108l-70 60l-70 -60h-105z" />
    <glyph glyph-name="uni0136" unicode="&#x136;" horiz-adv-x="690" 
d="M84 0v700h125v-329l320 329h155l-278 -288l280 -412h-154l-215 327l-108 -111v-216h-125zM300 -299q57 66 58 124h-57v115h117v-80q0 -98 -52 -159h-66z" />
    <glyph glyph-name="uni0137" unicode="&#x137;" horiz-adv-x="565" 
d="M72 0v700h119v-403l216 214h151l-213 -205l219 -306h-143l-158 226l-72 -69v-157h-119zM243 -299q57 66 58 124h-57v115h117v-80q0 -98 -52 -159h-66z" />
    <glyph glyph-name="Lacute" unicode="&#x139;" horiz-adv-x="523" 
d="M84 0v700h125v-586h292v-114h-417zM91 760l107 122h146l-145 -122h-108z" />
    <glyph glyph-name="lacute" unicode="&#x13a;" horiz-adv-x="263" 
d="M72 0v700h119v-700h-119zM75 760l107 122h146l-145 -122h-108z" />
    <glyph glyph-name="uni013B" unicode="&#x13b;" horiz-adv-x="523" 
d="M84 0v700h125v-586h292v-114h-417zM233 -299q57 66 58 124h-57v115h117v-80q0 -98 -52 -159h-66z" />
    <glyph glyph-name="uni013C" unicode="&#x13c;" horiz-adv-x="263" 
d="M72 0v700h119v-700h-119zM72 -299q57 66 58 124h-57v115h117v-80q0 -98 -52 -159h-66z" />
    <glyph glyph-name="Lcaron" unicode="&#x13d;" horiz-adv-x="524" 
d="M84 0v700h125v-586h292v-114h-417zM269 476q53 64 54 116h-54v108h110v-75q0 -91 -49 -149h-61z" />
    <glyph glyph-name="lcaron" unicode="&#x13e;" horiz-adv-x="301" 
d="M72 0v700h119v-700h-119zM226 476q53 61 54 116h-53v108h109v-75q0 -90 -48 -149h-62z" />
    <glyph glyph-name="Ldot" unicode="&#x13f;" horiz-adv-x="542" 
d="M84 0v700h125v-586h292v-114h-417zM336 282v137h136v-137h-136z" />
    <glyph glyph-name="ldot" unicode="&#x140;" horiz-adv-x="392" 
d="M72 0v700h119v-700h-119zM259 285v137h136v-137h-136z" />
    <glyph glyph-name="Lslash" unicode="&#x141;" horiz-adv-x="558" 
d="M119 0v250l-80 -52v113l80 52v337h125v-255l99 64v-113l-99 -64v-218h292v-114h-417z" />
    <glyph glyph-name="lslash" unicode="&#x142;" horiz-adv-x="352" 
d="M116 0v259l-82 -53v114l82 52v328h119v-252l80 51v-113l-80 -51v-335h-119z" />
    <glyph glyph-name="Nacute" unicode="&#x143;" horiz-adv-x="755" 
d="M84 0v700h164l301 -541q-2 124 -2 223v318h124v-700h-164l-303 543q3 -92 3 -221v-322h-123zM322 760l107 122h146l-145 -122h-108z" />
    <glyph glyph-name="nacute" unicode="&#x144;" horiz-adv-x="577" 
d="M72 0v511h116v-66q51 81 152 81q78 0 124 -48.5t46 -137.5v-340h-120v330q0 98 -84 98q-49 0 -82 -36t-33 -107v-285h-119zM247 573l107 132h146l-146 -132h-107z" />
    <glyph glyph-name="uni0145" unicode="&#x145;" horiz-adv-x="755" 
d="M84 0v700h164l301 -541q-2 124 -2 223v318h124v-700h-164l-303 543q3 -92 3 -221v-322h-123zM319 -299q57 66 58 124h-57v115h117v-80q0 -98 -52 -159h-66z" />
    <glyph glyph-name="uni0146" unicode="&#x146;" horiz-adv-x="577" 
d="M72 0v511h116v-66q51 81 152 81q78 0 124 -48.5t46 -137.5v-340h-120v330q0 98 -84 98q-49 0 -82 -36t-33 -107v-285h-119zM239 -299q57 66 58 124h-57v115h117v-80q0 -98 -52 -159h-66z" />
    <glyph glyph-name="Ncaron" unicode="&#x147;" horiz-adv-x="755" 
d="M84 0v700h164l301 -541q-2 124 -2 223v318h124v-700h-164l-303 543q3 -92 3 -221v-322h-123zM168 883h118l64 -55l63 55h119l-115 -122h-133z" />
    <glyph glyph-name="ncaron" unicode="&#x148;" horiz-adv-x="577" 
d="M72 0v511h116v-66q51 81 152 81q78 0 124 -48.5t46 -137.5v-340h-120v330q0 98 -84 98q-49 0 -82 -36t-33 -107v-285h-119zM126 705h108l70 -60l70 60h105l-115 -132h-122z" />
    <glyph glyph-name="Eng" unicode="&#x14a;" horiz-adv-x="755" 
d="M84 0v700h164l300 -473v155v318h123v-650h1v-63q0 -79 -44 -121.5t-121 -42.5q-26 0 -49 4v100q18 -2 24 -2q69 0 69 69v11l-347 542q4 -124 4 -225v-322h-124z" />
    <glyph glyph-name="eng" unicode="&#x14b;" horiz-adv-x="577" 
d="M72 0v511h116v-66q51 81 152 81q78 0 124 -48.5t46 -137.5v-353q0 -79 -43 -121.5t-120 -42.5q-26 0 -49 4v100q18 -2 24 -2q69 0 69 69v6h-1v330q0 98 -84 98q-49 0 -82 -36t-33 -107v-285h-119z" />
    <glyph glyph-name="Omacron" unicode="&#x14c;" horiz-adv-x="803" 
d="M402 -15q-149 0 -254 101.5t-105 263.5t105 263.5t254 101.5t253.5 -101.5t104.5 -263.5t-104.5 -263.5t-253.5 -101.5zM175 350q0 -117 63 -187.5t164 -70.5t163.5 70t62.5 188t-62.5 188t-163.5 70t-164 -70.5t-63 -187.5zM215 775v92h373v-92h-373z" />
    <glyph glyph-name="omacron" unicode="&#x14d;" horiz-adv-x="597" 
d="M299 -15q-113 0 -187.5 76t-74.5 194t75 194.5t187 76.5t186.5 -76.5t74.5 -194.5t-74.5 -194t-186.5 -76zM132 583v91h333v-91h-333zM159 255q0 -82 38 -128t102 -46q63 0 101 46t38 128q0 83 -38 128.5t-101 45.5q-64 0 -102 -45.5t-38 -128.5z" />
    <glyph glyph-name="Obreve" unicode="&#x14e;" horiz-adv-x="803" 
d="M402 -15q-149 0 -254 101.5t-105 263.5t105 263.5t254 101.5t253.5 -101.5t104.5 -263.5t-104.5 -263.5t-253.5 -101.5zM175 350q0 -117 63 -187.5t164 -70.5t163.5 70t62.5 188t-62.5 188t-163.5 70t-164 -70.5t-63 -187.5zM231 881h114q5 -51 57 -51t57 51h114
q0 -60 -48 -95.5t-123 -35.5q-74 0 -122.5 35.5t-48.5 95.5z" />
    <glyph glyph-name="obreve" unicode="&#x14f;" horiz-adv-x="597" 
d="M299 -15q-113 0 -187.5 76t-74.5 194t75 194.5t187 76.5t186.5 -76.5t74.5 -194.5t-74.5 -194t-186.5 -76zM133 708h107q3 -61 59 -61q54 0 59 61h106q0 -65 -46 -102.5t-119 -37.5q-74 0 -119.5 37.5t-46.5 102.5zM159 255q0 -82 38 -128t102 -46q63 0 101 46t38 128
q0 83 -38 128.5t-101 45.5q-64 0 -102 -45.5t-38 -128.5z" />
    <glyph glyph-name="Ohungarumlaut" unicode="&#x150;" horiz-adv-x="803" 
d="M402 -15q-149 0 -254 101.5t-105 263.5t105 263.5t254 101.5t253.5 -101.5t104.5 -263.5t-104.5 -263.5t-253.5 -101.5zM175 350q0 -117 63 -187.5t164 -70.5t163.5 70t62.5 188t-62.5 188t-163.5 70t-164 -70.5t-63 -187.5zM254 760l101 122h138l-137 -122h-102z
M459 760l101 122h138l-137 -122h-102z" />
    <glyph glyph-name="ohungarumlaut" unicode="&#x151;" horiz-adv-x="597" 
d="M299 -15q-113 0 -187.5 76t-74.5 194t75 194.5t187 76.5t186.5 -76.5t74.5 -194.5t-74.5 -194t-186.5 -76zM156 573l102 132h139l-139 -132h-102zM159 255q0 -82 38 -128t102 -46q63 0 101 46t38 128q0 83 -38 128.5t-101 45.5q-64 0 -102 -45.5t-38 -128.5zM358 573
l102 132h138l-138 -132h-102z" />
    <glyph glyph-name="OE" unicode="&#x152;" horiz-adv-x="1171" 
d="M394 -15q-146 0 -248 101t-102 264q0 162 102 263.5t248 101.5q147 0 235 -97v82h489v-107h-364v-181h309v-105h-309v-200h369v-107h-494v84q-89 -99 -235 -99zM176 350q0 -117 62.5 -187.5t163.5 -70.5t164 70.5t63 187.5t-63 187.5t-164 70.5t-163.5 -70.5
t-62.5 -187.5z" />
    <glyph glyph-name="oe" unicode="&#x153;" horiz-adv-x="987" 
d="M299 -15q-113 0 -187.5 76t-74.5 194t75 194.5t187 76.5q127 0 201 -100q35 47 86 73.5t109 26.5q116 0 186 -81t71 -224h-392q5 -64 44.5 -103t100.5 -39q78 0 107 54h126q-21 -67 -82.5 -107.5t-152.5 -40.5q-136 0 -206 96q-74 -96 -198 -96zM159 255q0 -82 38 -128
t102 -46q63 0 101 46t38 128q0 83 -38 128.5t-101 45.5q-64 0 -102 -45.5t-38 -128.5zM562 308h271q-9 57 -44 90t-91 33q-52 0 -90 -34.5t-46 -88.5z" />
    <glyph glyph-name="Racute" unicode="&#x154;" horiz-adv-x="662" 
d="M84 0v700h266q117 0 187 -56t70 -153q0 -78 -49 -129t-131 -69l205 -293h-148l-189 285h-86v-285h-125zM209 385h131q64 0 102 26t38 80q0 53 -37.5 80.5t-99.5 27.5h-134v-214zM272 760l107 122h146l-145 -122h-108z" />
    <glyph glyph-name="racute" unicode="&#x155;" horiz-adv-x="388" 
d="M72 0v511h116v-105q46 128 182 120v-114q-56 5 -91 -8q-88 -31 -88 -173v-231h-119zM160 573l107 132h146l-146 -132h-107z" />
    <glyph glyph-name="uni0156" unicode="&#x156;" horiz-adv-x="662" 
d="M84 0v700h266q117 0 187 -56t70 -153q0 -78 -49 -129t-131 -69l205 -293h-148l-189 285h-86v-285h-125zM209 385h131q64 0 102 26t38 80q0 53 -37.5 80.5t-99.5 27.5h-134v-214zM287 -299q57 66 58 124h-57v115h117v-80q0 -98 -52 -159h-66z" />
    <glyph glyph-name="uni0157" unicode="&#x157;" horiz-adv-x="388" 
d="M72 0v511h116v-105q46 128 182 120v-114q-56 5 -91 -8q-88 -31 -88 -173v-231h-119zM72 -299q57 66 58 124h-57v115h117v-80q0 -98 -52 -159h-66z" />
    <glyph glyph-name="Rcaron" unicode="&#x158;" horiz-adv-x="662" 
d="M84 0v700h266q117 0 187 -56t70 -153q0 -78 -49 -129t-131 -69l205 -293h-148l-189 285h-86v-285h-125zM118 883h118l64 -55l63 55h119l-115 -122h-133zM209 385h131q64 0 102 26t38 80q0 53 -37.5 80.5t-99.5 27.5h-134v-214z" />
    <glyph glyph-name="rcaron" unicode="&#x159;" horiz-adv-x="388" 
d="M72 0v511h116v-105q46 128 182 120v-114q-56 5 -91 -8q-88 -31 -88 -173v-231h-119zM39 705h108l70 -60l70 60h105l-115 -132h-122z" />
    <glyph glyph-name="Sacute" unicode="&#x15a;" horiz-adv-x="669" 
d="M339 -15q-131 0 -213 65.5t-91 170.5h131q11 -63 57.5 -98t123.5 -35q68 0 111 29.5t43 74.5q0 39 -29.5 60.5t-100.5 37.5l-95 22q-112 26 -166 72t-54 122q0 92 78 150.5t194 58.5q123 0 196 -54.5t87 -136.5h-125q-13 42 -54 66.5t-105 24.5q-63 0 -103 -27t-40 -71
q0 -34 26.5 -52.5t95.5 -35.5l84 -20q127 -30 184.5 -76.5t57.5 -125.5q0 -98 -82 -160t-211 -62zM278 760l107 122h146l-145 -122h-108z" />
    <glyph glyph-name="sacute" unicode="&#x15b;" horiz-adv-x="531" 
d="M273 -15q-109 0 -173 48t-70 126h128q7 -40 37.5 -63t83.5 -23q44 0 71.5 17.5t27.5 48.5q0 26 -22 41t-76 26l-60 13q-86 19 -129 54.5t-43 97.5q0 68 58.5 111t151.5 43q97 0 155 -43t68 -109h-119q-19 65 -105 65q-39 0 -63.5 -16.5t-24.5 -43.5q0 -24 18.5 -37
t62.5 -22l62 -14q92 -20 139.5 -55.5t47.5 -98.5q0 -75 -63.5 -120.5t-162.5 -45.5zM208 573l107 132h146l-146 -132h-107z" />
    <glyph glyph-name="Scircumflex" unicode="&#x15c;" horiz-adv-x="669" 
d="M339 -15q-131 0 -213 65.5t-91 170.5h131q11 -63 57.5 -98t123.5 -35q68 0 111 29.5t43 74.5q0 39 -29.5 60.5t-100.5 37.5l-95 22q-112 26 -166 72t-54 122q0 92 78 150.5t194 58.5q123 0 196 -54.5t87 -136.5h-125q-13 42 -54 66.5t-105 24.5q-63 0 -103 -27t-40 -71
q0 -34 26.5 -52.5t95.5 -35.5l84 -20q127 -30 184.5 -76.5t57.5 -125.5q0 -98 -82 -160t-211 -62zM152 759l115 122h133l116 -122h-118l-63 55l-64 -55h-119z" />
    <glyph glyph-name="scircumflex" unicode="&#x15d;" horiz-adv-x="531" 
d="M273 -15q-109 0 -173 48t-70 126h128q7 -40 37.5 -63t83.5 -23q44 0 71.5 17.5t27.5 48.5q0 26 -22 41t-76 26l-60 13q-86 19 -129 54.5t-43 97.5q0 68 58.5 111t151.5 43q97 0 155 -43t68 -109h-119q-19 65 -105 65q-39 0 -63.5 -16.5t-24.5 -43.5q0 -24 18.5 -37
t62.5 -22l62 -14q92 -20 139.5 -55.5t47.5 -98.5q0 -75 -63.5 -120.5t-162.5 -45.5zM86 573l115 132h122l116 -132h-108l-70 60l-70 -60h-105z" />
    <glyph glyph-name="Scedilla" unicode="&#x15e;" horiz-adv-x="669" 
d="M320 -234q-47 0 -86 12v69q42 -11 74 -11q48 0 48 28q0 24 -41 24q-24 0 -53 -9v58l28 51q-111 12 -179 75t-76 158h131q11 -63 57.5 -98t123.5 -35q68 0 111 29.5t43 74.5q0 39 -29.5 60.5t-100.5 37.5l-95 22q-112 26 -166 72t-54 122q0 92 78 150.5t194 58.5
q123 0 196 -54.5t87 -136.5h-125q-13 42 -54 66.5t-105 24.5q-63 0 -103 -27t-40 -71q0 -34 26.5 -52.5t95.5 -35.5l84 -20q127 -30 184.5 -76.5t57.5 -125.5q0 -91 -72.5 -152t-190.5 -69l-24 -41q42 0 70 -21.5t28 -63.5q0 -46 -35 -70t-88 -24z" />
    <glyph glyph-name="scedilla" unicode="&#x15f;" horiz-adv-x="531" 
d="M255 -234q-47 0 -86 12v69q42 -11 74 -11q48 0 48 28q0 24 -41 24q-24 0 -53 -9v58l28 51q-88 10 -139 56t-56 115h128q7 -40 37.5 -63t83.5 -23q44 0 71.5 17.5t27.5 48.5q0 26 -22 41t-76 26l-60 13q-86 19 -129 54.5t-43 97.5q0 68 58.5 111t151.5 43q97 0 155 -43
t68 -109h-119q-19 65 -105 65q-39 0 -63.5 -16.5t-24.5 -43.5q0 -24 18.5 -37t62.5 -22l62 -14q92 -20 139.5 -55.5t47.5 -98.5q0 -69 -54 -113t-141 -52l-24 -41q42 0 70 -21.5t28 -63.5q0 -46 -35 -70t-88 -24z" />
    <glyph glyph-name="Scaron" unicode="&#x160;" horiz-adv-x="669" 
d="M339 -15q-131 0 -213 65.5t-91 170.5h131q11 -63 57.5 -98t123.5 -35q68 0 111 29.5t43 74.5q0 39 -29.5 60.5t-100.5 37.5l-95 22q-112 26 -166 72t-54 122q0 92 78 150.5t194 58.5q123 0 196 -54.5t87 -136.5h-125q-13 42 -54 66.5t-105 24.5q-63 0 -103 -27t-40 -71
q0 -34 26.5 -52.5t95.5 -35.5l84 -20q127 -30 184.5 -76.5t57.5 -125.5q0 -98 -82 -160t-211 -62zM123 883h118l64 -55l63 55h119l-115 -122h-133z" />
    <glyph glyph-name="scaron" unicode="&#x161;" horiz-adv-x="531" 
d="M273 -15q-109 0 -173 48t-70 126h128q7 -40 37.5 -63t83.5 -23q44 0 71.5 17.5t27.5 48.5q0 26 -22 41t-76 26l-60 13q-86 19 -129 54.5t-43 97.5q0 68 58.5 111t151.5 43q97 0 155 -43t68 -109h-119q-19 65 -105 65q-39 0 -63.5 -16.5t-24.5 -43.5q0 -24 18.5 -37
t62.5 -22l62 -14q92 -20 139.5 -55.5t47.5 -98.5q0 -75 -63.5 -120.5t-162.5 -45.5zM87 705h108l70 -60l70 60h105l-115 -132h-122z" />
    <glyph glyph-name="uni0162" unicode="&#x162;" horiz-adv-x="546" 
d="M211 0v589h-189v111h502v-111h-188v-589h-19l-32 -55q42 0 70 -21.5t28 -63.5q0 -46 -35 -70t-88 -24q-47 0 -86 12v69q42 -11 74 -11q48 0 48 28q0 24 -41 24q-24 0 -53 -9v58l35 63h-26z" />
    <glyph glyph-name="uni0163" unicode="&#x163;" horiz-adv-x="361" 
d="M255 -5l-29 -50q42 0 70 -21.5t28 -63.5q0 -46 -35 -70t-88 -24q-47 0 -86 12v69q42 -11 74 -11q48 0 48 28q0 24 -41 24q-24 0 -53 -9v58l39 71q-79 32 -79 138v272h-87v93h87v150h116v-150h102v-93h-102v-250q0 -41 16 -61t52 -20q16 0 44 5v-87q-28 -10 -76 -10z" />
    <glyph glyph-name="Tcaron" unicode="&#x164;" horiz-adv-x="546" 
d="M211 0v589h-189v111h502v-111h-188v-589h-125zM63 883h118l64 -55l63 55h119l-115 -122h-133z" />
    <glyph glyph-name="tcaron" unicode="&#x165;" horiz-adv-x="361" 
d="M255 -5q-68 0 -110 36t-42 115v272h-87v93h87v150h116v-150h102v-93h-102v-250q0 -41 16 -61t52 -20q16 0 44 5v-87q-28 -10 -76 -10zM250 547q53 61 54 116h-54v108h110v-75q0 -91 -49 -149h-61z" />
    <glyph glyph-name="Tbar" unicode="&#x166;" horiz-adv-x="562" 
d="M219 0v299h-125v106h125v184h-189v111h502v-111h-188v-184h121v-106h-121v-299h-125z" />
    <glyph glyph-name="tbar" unicode="&#x167;" horiz-adv-x="372" 
d="M263 -5q-68 0 -110 36t-42 115v89h-87v87h87v96h-87v93h87v150h116v-150h102v-93h-102v-96h102v-87h-102v-67q0 -41 16 -61t52 -20q16 0 44 5v-87q-28 -10 -76 -10z" />
    <glyph glyph-name="Utilde" unicode="&#x168;" horiz-adv-x="694" 
d="M347 -15q-123 0 -196.5 72.5t-73.5 197.5v445h125v-430q0 -84 37 -129.5t108 -45.5t108.5 45.5t37.5 129.5v430h125v-445q0 -125 -73.5 -197.5t-197.5 -72.5zM158 762q0 60 32 91.5t80 31.5q37 0 81 -24t59 -24q31 0 33 38h94q0 -60 -32 -91.5t-80 -31.5q-37 0 -82 24.5
t-61 24.5q-29 0 -33 -39h-91z" />
    <glyph glyph-name="utilde" unicode="&#x169;" horiz-adv-x="569" 
d="M237 -15q-77 0 -123.5 48.5t-46.5 139.5v338h119v-320q0 -108 86 -108q44 0 75.5 36.5t31.5 108.5v283h119v-511h-117v63q-43 -78 -144 -78zM93 573q0 60 32 91.5t80 31.5q37 0 81 -24t59 -24q31 0 33 38h94q0 -60 -32 -91.5t-80 -31.5q-37 0 -82 24.5t-61 24.5
q-29 0 -33 -39h-91z" />
    <glyph glyph-name="Umacron" unicode="&#x16a;" horiz-adv-x="694" 
d="M347 -15q-123 0 -196.5 72.5t-73.5 197.5v445h125v-430q0 -84 37 -129.5t108 -45.5t108.5 45.5t37.5 129.5v430h125v-445q0 -125 -73.5 -197.5t-197.5 -72.5zM160 775v92h373v-92h-373z" />
    <glyph glyph-name="umacron" unicode="&#x16b;" horiz-adv-x="569" 
d="M237 -15q-77 0 -123.5 48.5t-46.5 139.5v338h119v-320q0 -108 86 -108q44 0 75.5 36.5t31.5 108.5v283h119v-511h-117v63q-43 -78 -144 -78zM116 583v91h333v-91h-333z" />
    <glyph glyph-name="Ubreve" unicode="&#x16c;" horiz-adv-x="694" 
d="M347 -15q-123 0 -196.5 72.5t-73.5 197.5v445h125v-430q0 -84 37 -129.5t108 -45.5t108.5 45.5t37.5 129.5v430h125v-445q0 -125 -73.5 -197.5t-197.5 -72.5zM176 881h114q5 -51 57 -51t57 51h114q0 -60 -48 -95.5t-123 -35.5q-74 0 -122.5 35.5t-48.5 95.5z" />
    <glyph glyph-name="ubreve" unicode="&#x16d;" horiz-adv-x="569" 
d="M237 -15q-77 0 -123.5 48.5t-46.5 139.5v338h119v-320q0 -108 86 -108q44 0 75.5 36.5t31.5 108.5v283h119v-511h-117v63q-43 -78 -144 -78zM117 708h107q3 -61 59 -61q54 0 59 61h106q0 -65 -46 -102.5t-119 -37.5q-74 0 -119.5 37.5t-46.5 102.5z" />
    <glyph glyph-name="Uring" unicode="&#x16e;" horiz-adv-x="694" 
d="M347 -15q-123 0 -196.5 72.5t-73.5 197.5v445h125v-430q0 -84 37 -129.5t108 -45.5t108.5 45.5t37.5 129.5v430h125v-445q0 -125 -73.5 -197.5t-197.5 -72.5zM251 830q0 38 28 63.5t69 25.5q40 0 68 -25.5t28 -63.5q0 -39 -28 -64t-68 -25q-41 0 -69 25t-28 64zM312 830
q0 -16 10 -26t26 -10q15 0 25 10t10 26t-10 26t-25 10q-16 0 -26 -10t-10 -26z" />
    <glyph glyph-name="uring" unicode="&#x16f;" horiz-adv-x="569" 
d="M237 -15q-77 0 -123.5 48.5t-46.5 139.5v338h119v-320q0 -108 86 -108q44 0 75.5 36.5t31.5 108.5v283h119v-511h-117v63q-43 -78 -144 -78zM187 648q0 37 28 61.5t68 24.5t67.5 -24.5t27.5 -61.5t-27.5 -61.5t-67.5 -24.5t-68 24.5t-28 61.5zM247 648q0 -16 9.5 -25
t26.5 -9q16 0 26 9t10 25q0 15 -10 25t-26 10t-26 -10t-10 -25z" />
    <glyph glyph-name="Uhungarumlaut" unicode="&#x170;" horiz-adv-x="694" 
d="M347 -15q-123 0 -196.5 72.5t-73.5 197.5v445h125v-430q0 -84 37 -129.5t108 -45.5t108.5 45.5t37.5 129.5v430h125v-445q0 -125 -73.5 -197.5t-197.5 -72.5zM200 760l101 122h138l-137 -122h-102zM405 760l101 122h138l-137 -122h-102z" />
    <glyph glyph-name="uhungarumlaut" unicode="&#x171;" horiz-adv-x="569" 
d="M237 -15q-77 0 -123.5 48.5t-46.5 139.5v338h119v-320q0 -108 86 -108q44 0 75.5 36.5t31.5 108.5v283h119v-511h-117v63q-43 -78 -144 -78zM139 573l102 132h139l-139 -132h-102zM341 573l102 132h138l-138 -132h-102z" />
    <glyph glyph-name="Uogonek" unicode="&#x172;" horiz-adv-x="694" 
d="M77 255v445h125v-430q0 -84 37 -129.5t108 -45.5t108.5 45.5t37.5 129.5v430h125v-445q0 -146 -117 -239q-54 -42 -74.5 -65t-20.5 -46q0 -34 39 -34q27 0 59 16v-74q-41 -18 -91 -18q-46 0 -77.5 21.5t-31.5 63.5q0 65 90 109q-20 -4 -47 -4q-123 0 -196.5 72.5
t-73.5 197.5z" />
    <glyph glyph-name="uogonek" unicode="&#x173;" horiz-adv-x="569" 
d="M237 -15q-77 0 -123.5 48.5t-46.5 139.5v338h119v-320q0 -108 86 -108q44 0 75.5 36.5t31.5 108.5v283h119v-511q-47 -21 -77 -47.5t-30 -48.5q0 -31 41 -31q28 0 57 13v-76q-35 -15 -87 -15q-49 0 -81 21t-32 61q0 39 33.5 70.5t83.5 52.5h-25v63q-43 -78 -144 -78z" />
    <glyph glyph-name="Wcircumflex" unicode="&#x174;" horiz-adv-x="935" 
d="M190 0l-163 700h132l120 -558l116 558h155l113 -552l117 552h127l-162 -700h-158l-119 537l-118 -537h-160zM288 759l115 122h133l116 -122h-118l-63 55l-64 -55h-119z" />
    <glyph glyph-name="wcircumflex" unicode="&#x175;" horiz-adv-x="796" 
d="M158 0l-137 511h129l89 -388l96 388h134l95 -387l88 387h122l-135 -511h-147l-96 363l-92 -363h-146zM225 573l115 132h122l116 -132h-108l-70 60l-70 -60h-105z" />
    <glyph glyph-name="Ycircumflex" unicode="&#x176;" horiz-adv-x="617" 
d="M246 0v293l-249 407h151l97 -170q49 -87 68 -128h2q20 45 67 130l94 168h143l-248 -406v-294h-125zM129 759l115 122h133l116 -122h-118l-63 55l-64 -55h-119z" />
    <glyph glyph-name="ycircumflex" unicode="&#x177;" horiz-adv-x="528" 
d="M125 -207q-30 0 -57 4v100q19 -5 42 -5q42 0 66.5 21.5t24.5 62.5q0 24 -17 69l-175 466h135l89 -271q22 -65 38 -134h2q17 68 37 132l82 273h125l-186 -532q-35 -98 -65 -132q-47 -54 -141 -54zM91 573l115 132h122l116 -132h-108l-70 60l-70 -60h-105z" />
    <glyph glyph-name="Ydieresis" unicode="&#x178;" horiz-adv-x="617" 
d="M246 0v293l-249 407h151l97 -170q49 -87 68 -128h2q20 45 67 130l94 168h143l-248 -406v-294h-125zM125 760v124h132v-124h-132zM366 760v124h132v-124h-132z" />
    <glyph glyph-name="Zacute" unicode="&#x179;" horiz-adv-x="608" 
d="M40 0v111l380 483h-370v106h508v-111l-380 -483h390v-106h-528zM246 760l107 122h146l-145 -122h-108z" />
    <glyph glyph-name="zacute" unicode="&#x17a;" horiz-adv-x="485" 
d="M43 0v103l266 310h-266v98h397v-104l-268 -310h273v-97h-402zM187 573l107 132h146l-146 -132h-107z" />
    <glyph glyph-name="Zdotaccent" unicode="&#x17b;" horiz-adv-x="608" 
d="M40 0v111l380 483h-370v106h508v-111l-380 -483h390v-106h-528zM235 760v124h132v-124h-132z" />
    <glyph glyph-name="zdotaccent" unicode="&#x17c;" horiz-adv-x="485" 
d="M43 0v103l266 310h-266v98h397v-104l-268 -310h273v-97h-402zM174 573v124h136v-124h-136z" />
    <glyph glyph-name="Zcaron" unicode="&#x17d;" horiz-adv-x="608" 
d="M40 0v111l380 483h-370v106h508v-111l-380 -483h390v-106h-528zM91 883h118l64 -55l63 55h119l-115 -122h-133z" />
    <glyph glyph-name="zcaron" unicode="&#x17e;" horiz-adv-x="485" 
d="M43 0v103l266 310h-266v98h397v-104l-268 -310h273v-97h-402zM66 705h108l70 -60l70 60h105l-115 -132h-122z" />
    <glyph glyph-name="florin" unicode="&#x192;" horiz-adv-x="459" 
d="M85 -196q-32 0 -59 4v96q21 -3 38 -3q60 0 83.5 24.5t24.5 84.5l6 354h-109v91h110l1 62q3 187 201 187q26 0 51 -4v-96q-20 2 -31 2q-58 0 -78.5 -24t-21.5 -85l-1 -42h122v-91h-123l-7 -376q-3 -184 -207 -184z" />
    <glyph glyph-name="Ohorn" unicode="&#x1a0;" horiz-adv-x="803" 
d="M402 -15q-149 0 -254 101.5t-105 263.5t105 263.5t254 101.5q54 0 104 -15q55 3 77.5 27t19.5 77h101q9 -114 -89 -156q67 -49 106 -125.5t39 -172.5q0 -162 -104.5 -263.5t-253.5 -101.5zM175 350q0 -117 63 -187.5t164 -70.5t163.5 70t62.5 188t-62.5 188t-163.5 70
t-164 -70.5t-63 -187.5z" />
    <glyph glyph-name="ohorn" unicode="&#x1a1;" horiz-adv-x="600" 
d="M299 -15q-113 0 -187.5 76t-74.5 194t75 194.5t187 76.5q49 0 89 -15q43 2 59.5 28t12.5 86h101q11 -126 -82 -169q81 -78 81 -201q0 -118 -74.5 -194t-186.5 -76zM159 255q0 -82 38 -128t102 -46q63 0 101 46t38 128q0 83 -38 128.5t-101 45.5q-64 0 -102 -45.5
t-38 -128.5z" />
    <glyph glyph-name="Uhorn" unicode="&#x1af;" horiz-adv-x="715" 
d="M347 -15q-123 0 -196.5 72.5t-73.5 197.5v445h125v-430q0 -84 37 -129.5t108 -45.5t108.5 45.5t37.5 129.5v430h40q48 0 67 23.5t15 80.5h101q11 -129 -98 -165v-384q0 -125 -73.5 -197.5t-197.5 -72.5z" />
    <glyph glyph-name="uhorn" unicode="&#x1b0;" horiz-adv-x="589" 
d="M237 -15q-77 0 -123.5 48.5t-46.5 139.5v338h119v-320q0 -108 86 -108q44 0 75.5 36.5t31.5 108.5v283h35q49 0 67.5 25t14.5 89h101q12 -138 -99 -176v-449h-117v63q-43 -78 -144 -78z" />
    <glyph glyph-name="uni0218" unicode="&#x218;" horiz-adv-x="669" 
d="M339 -15q-131 0 -213 65.5t-91 170.5h131q11 -63 57.5 -98t123.5 -35q68 0 111 29.5t43 74.5q0 39 -29.5 60.5t-100.5 37.5l-95 22q-112 26 -166 72t-54 122q0 92 78 150.5t194 58.5q123 0 196 -54.5t87 -136.5h-125q-13 42 -54 66.5t-105 24.5q-63 0 -103 -27t-40 -71
q0 -34 26.5 -52.5t95.5 -35.5l84 -20q127 -30 184.5 -76.5t57.5 -125.5q0 -98 -82 -160t-211 -62zM274 -299q57 66 58 124h-57v115h117v-80q0 -98 -52 -159h-66z" />
    <glyph glyph-name="uni0219" unicode="&#x219;" horiz-adv-x="531" 
d="M273 -15q-109 0 -173 48t-70 126h128q7 -40 37.5 -63t83.5 -23q44 0 71.5 17.5t27.5 48.5q0 26 -22 41t-76 26l-60 13q-86 19 -129 54.5t-43 97.5q0 68 58.5 111t151.5 43q97 0 155 -43t68 -109h-119q-19 65 -105 65q-39 0 -63.5 -16.5t-24.5 -43.5q0 -24 18.5 -37
t62.5 -22l62 -14q92 -20 139.5 -55.5t47.5 -98.5q0 -75 -63.5 -120.5t-162.5 -45.5zM210 -299q57 66 58 124h-57v115h117v-80q0 -98 -52 -159h-66z" />
    <glyph glyph-name="uni021A" unicode="&#x21a;" horiz-adv-x="546" 
d="M211 0v589h-189v111h502v-111h-188v-589h-125zM214 -299q57 66 58 124h-57v115h117v-80q0 -98 -52 -159h-66z" />
    <glyph glyph-name="uni021B" unicode="&#x21b;" horiz-adv-x="361" 
d="M255 -5q-68 0 -110 36t-42 115v272h-87v93h87v150h116v-150h102v-93h-102v-250q0 -41 16 -61t52 -20q16 0 44 5v-87q-28 -10 -76 -10zM156 -299q57 66 58 124h-57v115h117v-80q0 -98 -52 -159h-66z" />
    <glyph glyph-name="uni0232" unicode="&#x232;" horiz-adv-x="617" 
d="M246 0v293l-249 407h151l97 -170q49 -87 68 -128h2q20 45 67 130l94 168h143l-248 -406v-294h-125zM124 775v92h373v-92h-373z" />
    <glyph glyph-name="uni0233" unicode="&#x233;" horiz-adv-x="528" 
d="M125 -207q-30 0 -57 4v100q19 -5 42 -5q42 0 66.5 21.5t24.5 62.5q0 24 -17 69l-175 466h135l89 -271q22 -65 38 -134h2q17 68 37 132l82 273h125l-186 -532q-35 -98 -65 -132q-47 -54 -141 -54zM102 583v91h333v-91h-333z" />
    <glyph glyph-name="uni0237" unicode="&#x237;" horiz-adv-x="261" 
d="M39 -186q-25 0 -44 3v86q10 -2 20 -2q33 0 45 21t12 63v526h118v-536q0 -161 -151 -161z" />
    <glyph glyph-name="circumflex" unicode="&#x2c6;" horiz-adv-x="600" 
d="M21 573l115 132h122l116 -132h-108l-70 60l-70 -60h-105z" />
    <glyph glyph-name="caron" unicode="&#x2c7;" horiz-adv-x="600" 
d="M374 705l-115 -132h-122l-116 132h108l70 -60l70 60h105z" />
    <glyph glyph-name="breve" unicode="&#x2d8;" horiz-adv-x="600" 
d="M187 568q-74 0 -119.5 37.5t-46.5 102.5h107q3 -61 59 -61q54 0 59 61h106q0 -65 -46 -102.5t-119 -37.5z" />
    <glyph glyph-name="dotaccent" unicode="&#x2d9;" horiz-adv-x="600" 
d="M18 573v124h136v-124h-136z" />
    <glyph glyph-name="ring" unicode="&#x2da;" horiz-adv-x="600" 
d="M114 562q-40 0 -68 24.5t-28 61.5t28 61.5t68 24.5t67.5 -24.5t27.5 -61.5t-27.5 -61.5t-67.5 -24.5zM78 648q0 -16 9.5 -25t26.5 -9q16 0 26 9t10 25q0 15 -10 25t-26 10t-26 -10t-10 -25z" />
    <glyph glyph-name="ogonek" unicode="&#x2db;" horiz-adv-x="600" 
d="M150 -205q-49 0 -81 21t-32 61q0 51 55 89t115 51l39 -17q-47 -21 -77 -47.5t-30 -48.5q0 -31 41 -31q28 0 57 13v-76q-35 -15 -87 -15z" />
    <glyph glyph-name="tilde" unicode="&#x2dc;" horiz-adv-x="600" 
d="M20 573q0 60 32 91.5t80 31.5q37 0 81 -24t59 -24q31 0 33 38h94q0 -60 -32 -91.5t-80 -31.5q-37 0 -82 24.5t-61 24.5q-29 0 -33 -39h-91z" />
    <glyph glyph-name="hungarumlaut" unicode="&#x2dd;" horiz-adv-x="600" 
d="M221 573l102 132h138l-138 -132h-102zM19 573l102 132h139l-139 -132h-102z" />
    <glyph glyph-name="uni0394" unicode="&#x394;" horiz-adv-x="695" 
d="M21 0v118l256 582h140l257 -582v-118h-653zM137 105h421l-209 487z" />
    <glyph glyph-name="uni03A9" unicode="&#x3a9;" horiz-adv-x="815" 
d="M71 0v105h118q-138 95 -138 269q0 145 103 243t254 98t253.5 -98t102.5 -243q0 -174 -137 -269h117v-105h-294v92q82 19 134 88.5t52 176.5q0 113 -62.5 183t-165.5 70q-104 0 -166.5 -70t-62.5 -183q0 -107 52 -176.5t135 -88.5v-92h-295z" />
    <glyph glyph-name="uni03BC" unicode="&#x3bc;" horiz-adv-x="574" 
d="M72 -195v706h119v-320q0 -108 86 -108q44 0 75.5 36.5t31.5 108.5v283h119v-511h-117v63q-43 -78 -144 -78q-27 0 -51 6v-186h-119z" />
    <glyph glyph-name="pi" unicode="&#x3c0;" horiz-adv-x="658" 
d="M537 -5q-61 0 -101 36.5t-40 115.5v271h-160v-418h-117v418h-104v92h606v-92h-109v-245q0 -53 21.5 -70.5t80.5 -10.5v-88q-38 -9 -77 -9z" />
    <glyph glyph-name="uni0E3F" unicode="&#xe3f;" horiz-adv-x="625" 
d="M86 0v700h184v95h96v-97q90 -10 143 -57.5t53 -124.5q0 -56 -33 -97t-84 -56q60 -13 98.5 -56t38.5 -108q0 -84 -59.5 -136t-156.5 -61v-97h-96v95h-184zM210 101h60v208h-60v-208zM210 403h60v196h-60v-196zM366 106q89 17 89 98q0 83 -89 101v-199zM366 409
q70 20 70 94q0 73 -70 90v-184z" />
    <glyph glyph-name="Wgrave" unicode="&#x1e80;" horiz-adv-x="935" 
d="M190 0l-163 700h132l120 -558l116 558h155l113 -552l117 552h127l-162 -700h-158l-119 537l-118 -537h-160zM271 882h146l107 -122h-107z" />
    <glyph glyph-name="wgrave" unicode="&#x1e81;" horiz-adv-x="796" 
d="M158 0l-137 511h129l89 -388l96 388h134l95 -387l88 387h122l-135 -511h-147l-96 363l-92 -363h-146zM204 705h145l107 -132h-107z" />
    <glyph glyph-name="Wacute" unicode="&#x1e82;" horiz-adv-x="935" 
d="M190 0l-163 700h132l120 -558l116 558h155l113 -552l117 552h127l-162 -700h-158l-119 537l-118 -537h-160zM414 760l107 122h146l-145 -122h-108z" />
    <glyph glyph-name="wacute" unicode="&#x1e83;" horiz-adv-x="796" 
d="M158 0l-137 511h129l89 -388l96 388h134l95 -387l88 387h122l-135 -511h-147l-96 363l-92 -363h-146zM347 573l107 132h146l-146 -132h-107z" />
    <glyph glyph-name="Wdieresis" unicode="&#x1e84;" horiz-adv-x="935" 
d="M190 0l-163 700h132l120 -558l116 558h155l113 -552l117 552h127l-162 -700h-158l-119 537l-118 -537h-160zM284 760v124h132v-124h-132zM525 760v124h132v-124h-132z" />
    <glyph glyph-name="wdieresis" unicode="&#x1e85;" horiz-adv-x="796" 
d="M158 0l-137 511h129l89 -388l96 388h134l95 -387l88 387h122l-135 -511h-147l-96 363l-92 -363h-146zM245 573v116h123v-116h-123zM436 573v116h123v-116h-123z" />
    <glyph glyph-name="uni1E9E" unicode="&#x1e9e;" horiz-adv-x="658" 
d="M84 0v700h256q113 0 181 -49t68 -136q0 -57 -33 -98.5t-83 -57.5q60 -10 99 -53t39 -108q0 -96 -68 -149.5t-177 -53.5q-45 0 -80 7v98q27 -6 62 -6q65 0 101 28t36 81q0 47 -35.5 73.5t-102.5 26.5h-57v96h53q58 0 89 26t31 73q0 101 -133 101h-122v-599h-124z" />
    <glyph glyph-name="uni1EA0" unicode="&#x1ea0;" horiz-adv-x="660" 
d="M1 0l261 700h138l258 -700h-134l-50 146h-292l-50 -146h-131zM219 251h219l-47 138q-6 17 -62 180h-1q-45 -136 -62 -181zM269 -179v113h125v-113h-125z" />
    <glyph glyph-name="uni1EA1" unicode="&#x1ea1;" horiz-adv-x="561" 
d="M215 -14q-77 0 -129 40t-52 115q0 36 14 63t33 42.5t49.5 26.5t52.5 15t53 8l38 5q57 7 80 20.5t23 48.5q0 32 -24.5 50.5t-67.5 18.5q-41 0 -67 -16.5t-33 -43.5h-129q13 65 73 106t158 41q207 0 207 -161v-242q0 -63 16 -123h-118q-8 43 -10 67q-22 -34 -65 -57.5
t-102 -23.5zM159 145q0 -33 25 -50.5t64 -17.5q57 0 93 38t36 95v56q-25 -32 -104 -44q-60 -10 -87 -25t-27 -52zM224 -179v113h125v-113h-125z" />
    <glyph glyph-name="uni1EA2" unicode="&#x1ea2;" horiz-adv-x="660" 
d="M1 0l261 700h138l258 -700h-134l-50 146h-292l-50 -146h-131zM219 251h219l-47 138q-6 17 -62 180h-1q-45 -136 -62 -181zM257 826v80q52 21 89 21q48 0 77 -23t29 -64q0 -89 -139 -111l-42 46q92 23 92 50q0 24 -32 24q-33 0 -74 -23z" />
    <glyph glyph-name="uni1EA3" unicode="&#x1ea3;" horiz-adv-x="561" 
d="M215 -14q-77 0 -129 40t-52 115q0 36 14 63t33 42.5t49.5 26.5t52.5 15t53 8l38 5q57 7 80 20.5t23 48.5q0 32 -24.5 50.5t-67.5 18.5q-41 0 -67 -16.5t-33 -43.5h-129q13 65 73 106t158 41q207 0 207 -161v-242q0 -63 16 -123h-118q-8 43 -10 67q-22 -34 -65 -57.5
t-102 -23.5zM159 145q0 -33 25 -50.5t64 -17.5q57 0 93 38t36 95v56q-25 -32 -104 -44q-60 -10 -87 -25t-27 -52zM211 649v79q44 21 92 21q46 0 74 -23t28 -65q0 -48 -33.5 -75.5t-103.5 -42.5l-44 49q50 13 71.5 25.5t21.5 29.5q0 23 -33 23q-31 0 -73 -21z" />
    <glyph glyph-name="uni1EA4" unicode="&#x1ea4;" horiz-adv-x="660" 
d="M1 0l261 700h138l258 -700h-134l-50 146h-292l-50 -146h-131zM150 759l115 122h133l116 -122h-118l-63 55l-64 -55h-119zM219 251h219l-47 138q-6 17 -62 180h-1q-45 -136 -62 -181zM438 880l107 122h146l-145 -122h-108z" />
    <glyph glyph-name="uni1EA5" unicode="&#x1ea5;" horiz-adv-x="561" 
d="M215 -14q-77 0 -129 40t-52 115q0 36 14 63t33 42.5t49.5 26.5t52.5 15t53 8l38 5q57 7 80 20.5t23 48.5q0 32 -24.5 50.5t-67.5 18.5q-41 0 -67 -16.5t-33 -43.5h-129q13 65 73 106t158 41q207 0 207 -161v-242q0 -63 16 -123h-118q-8 43 -10 67q-22 -34 -65 -57.5
t-102 -23.5zM109 573l115 132h122l116 -132h-108l-70 60l-70 -60h-105zM159 145q0 -33 25 -50.5t64 -17.5q57 0 93 38t36 95v56q-25 -32 -104 -44q-60 -10 -87 -25t-27 -52zM388 708l107 132h146l-146 -132h-107z" />
    <glyph glyph-name="uni1EA6" unicode="&#x1ea6;" horiz-adv-x="660" 
d="M1 0l261 700h138l258 -700h-134l-50 146h-292l-50 -146h-131zM150 759l115 122h133l116 -122h-118l-63 55l-64 -55h-119zM219 251h219l-47 138q-6 17 -62 180h-1q-45 -136 -62 -181zM295 1002h146l107 -122h-107z" />
    <glyph glyph-name="uni1EA7" unicode="&#x1ea7;" horiz-adv-x="561" 
d="M215 -14q-77 0 -129 40t-52 115q0 36 14 63t33 42.5t49.5 26.5t52.5 15t53 8l38 5q57 7 80 20.5t23 48.5q0 32 -24.5 50.5t-67.5 18.5q-41 0 -67 -16.5t-33 -43.5h-129q13 65 73 106t158 41q207 0 207 -161v-242q0 -63 16 -123h-118q-8 43 -10 67q-22 -34 -65 -57.5
t-102 -23.5zM109 573l115 132h122l116 -132h-108l-70 60l-70 -60h-105zM159 145q0 -33 25 -50.5t64 -17.5q57 0 93 38t36 95v56q-25 -32 -104 -44q-60 -10 -87 -25t-27 -52zM244 840h145l107 -132h-107z" />
    <glyph glyph-name="uni1EA8" unicode="&#x1ea8;" horiz-adv-x="660" 
d="M1 0l261 700h138l258 -700h-134l-50 146h-292l-50 -146h-131zM150 759l115 122h133l116 -122h-118l-63 55l-64 -55h-119zM219 251h219l-47 138q-6 17 -62 180h-1q-45 -136 -62 -181zM420 946v80q52 21 89 21q48 0 77 -23t29 -64q0 -89 -139 -111l-42 46q92 23 92 50
q0 24 -32 24q-33 0 -74 -23z" />
    <glyph glyph-name="uni1EA9" unicode="&#x1ea9;" horiz-adv-x="561" 
d="M215 -14q-77 0 -129 40t-52 115q0 36 14 63t33 42.5t49.5 26.5t52.5 15t53 8l38 5q57 7 80 20.5t23 48.5q0 32 -24.5 50.5t-67.5 18.5q-41 0 -67 -16.5t-33 -43.5h-129q13 65 73 106t158 41q207 0 207 -161v-242q0 -63 16 -123h-118q-8 43 -10 67q-22 -34 -65 -57.5
t-102 -23.5zM109 573l115 132h122l116 -132h-108l-70 60l-70 -60h-105zM159 145q0 -33 25 -50.5t64 -17.5q57 0 93 38t36 95v56q-25 -32 -104 -44q-60 -10 -87 -25t-27 -52zM368 784v79q44 21 92 21q46 0 74 -23t28 -65q0 -48 -33.5 -75.5t-103.5 -42.5l-44 49
q50 13 71.5 25.5t21.5 29.5q0 23 -33 23q-31 0 -73 -21z" />
    <glyph glyph-name="uni1EAA" unicode="&#x1eaa;" horiz-adv-x="660" 
d="M1 0l261 700h138l258 -700h-134l-50 146h-292l-50 -146h-131zM142 929q0 60 32 91.5t80 31.5q37 0 81 -24t59 -24q31 0 33 38h94q0 -60 -32 -91.5t-80 -31.5q-37 0 -82 24.5t-61 24.5q-29 0 -33 -39h-91zM149 759l115 122h133l116 -122h-118l-63 55l-64 -55h-119z
M219 251h219l-47 138q-6 17 -62 180h-1q-45 -136 -62 -181z" />
    <glyph glyph-name="uni1EAB" unicode="&#x1eab;" horiz-adv-x="561" 
d="M215 -14q-77 0 -129 40t-52 115q0 36 14 63t33 42.5t49.5 26.5t52.5 15t53 8l38 5q57 7 80 20.5t23 48.5q0 32 -24.5 50.5t-67.5 18.5q-41 0 -67 -16.5t-33 -43.5h-129q13 65 73 106t158 41q207 0 207 -161v-242q0 -63 16 -123h-118q-8 43 -10 67q-22 -34 -65 -57.5
t-102 -23.5zM96 754q0 60 32 91.5t80 31.5q37 0 81 -24t59 -24q31 0 33 38h94q0 -60 -32 -91.5t-80 -31.5q-37 0 -82 24.5t-61 24.5q-29 0 -33 -39h-91zM109 573l115 132h122l116 -132h-108l-70 60l-70 -60h-105zM159 145q0 -33 25 -50.5t64 -17.5q57 0 93 38t36 95v56
q-25 -32 -104 -44q-60 -10 -87 -25t-27 -52z" />
    <glyph glyph-name="uni1EAC" unicode="&#x1eac;" horiz-adv-x="660" 
d="M1 0l261 700h138l258 -700h-134l-50 146h-292l-50 -146h-131zM150 759l115 122h133l116 -122h-118l-63 55l-64 -55h-119zM219 251h219l-47 138q-6 17 -62 180h-1q-45 -136 -62 -181zM269 -179v113h125v-113h-125z" />
    <glyph glyph-name="uni1EAD" unicode="&#x1ead;" horiz-adv-x="561" 
d="M215 -14q-77 0 -129 40t-52 115q0 36 14 63t33 42.5t49.5 26.5t52.5 15t53 8l38 5q57 7 80 20.5t23 48.5q0 32 -24.5 50.5t-67.5 18.5q-41 0 -67 -16.5t-33 -43.5h-129q13 65 73 106t158 41q207 0 207 -161v-242q0 -63 16 -123h-118q-8 43 -10 67q-22 -34 -65 -57.5
t-102 -23.5zM109 573l115 132h122l116 -132h-108l-70 60l-70 -60h-105zM159 145q0 -33 25 -50.5t64 -17.5q57 0 93 38t36 95v56q-25 -32 -104 -44q-60 -10 -87 -25t-27 -52zM224 -179v113h125v-113h-125z" />
    <glyph glyph-name="uni1EAE" unicode="&#x1eae;" horiz-adv-x="660" 
d="M1 0l261 700h138l258 -700h-134l-50 146h-292l-50 -146h-131zM160 881h114q5 -51 57 -51t57 51h114q0 -60 -48 -95.5t-123 -35.5q-74 0 -122.5 35.5t-48.5 95.5zM219 251h219l-47 138q-6 17 -62 180h-1q-45 -136 -62 -181zM275 920l107 122h146l-145 -122h-108z" />
    <glyph glyph-name="uni1EAF" unicode="&#x1eaf;" horiz-adv-x="561" 
d="M215 -14q-77 0 -129 40t-52 115q0 36 14 63t33 42.5t49.5 26.5t52.5 15t53 8l38 5q57 7 80 20.5t23 48.5q0 32 -24.5 50.5t-67.5 18.5q-41 0 -67 -16.5t-33 -43.5h-129q13 65 73 106t158 41q207 0 207 -161v-242q0 -63 16 -123h-118q-8 43 -10 67q-22 -34 -65 -57.5
t-102 -23.5zM121 708h107q3 -61 59 -61q54 0 59 61h106q0 -65 -46 -102.5t-119 -37.5q-74 0 -119.5 37.5t-46.5 102.5zM159 145q0 -33 25 -50.5t64 -17.5q57 0 93 38t36 95v56q-25 -32 -104 -44q-60 -10 -87 -25t-27 -52zM231 748l107 132h146l-146 -132h-107z" />
    <glyph glyph-name="uni1EB0" unicode="&#x1eb0;" horiz-adv-x="660" 
d="M1 0l261 700h138l258 -700h-134l-50 146h-292l-50 -146h-131zM132 1040h146l107 -122h-107zM161 881h114q5 -51 57 -51t57 51h114q0 -60 -48 -95.5t-123 -35.5q-74 0 -122.5 35.5t-48.5 95.5zM219 251h219l-47 138q-6 17 -62 180h-1q-45 -136 -62 -181z" />
    <glyph glyph-name="uni1EB1" unicode="&#x1eb1;" horiz-adv-x="561" 
d="M215 -14q-77 0 -129 40t-52 115q0 36 14 63t33 42.5t49.5 26.5t52.5 15t53 8l38 5q57 7 80 20.5t23 48.5q0 32 -24.5 50.5t-67.5 18.5q-41 0 -67 -16.5t-33 -43.5h-129q13 65 73 106t158 41q207 0 207 -161v-242q0 -63 16 -123h-118q-8 43 -10 67q-22 -34 -65 -57.5
t-102 -23.5zM87 880h145l107 -132h-107zM120 708h107q3 -61 59 -61q54 0 59 61h106q0 -65 -46 -102.5t-119 -37.5q-74 0 -119.5 37.5t-46.5 102.5zM159 145q0 -33 25 -50.5t64 -17.5q57 0 93 38t36 95v56q-25 -32 -104 -44q-60 -10 -87 -25t-27 -52z" />
    <glyph glyph-name="uni1EB2" unicode="&#x1eb2;" horiz-adv-x="660" 
d="M1 0l261 700h138l258 -700h-134l-50 146h-292l-50 -146h-131zM160 881h114q5 -51 57 -51t57 51h114q0 -60 -48 -95.5t-123 -35.5q-74 0 -122.5 35.5t-48.5 95.5zM219 251h219l-47 138q-6 17 -62 180h-1q-45 -136 -62 -181zM257 984v80q52 21 89 21q48 0 77 -23t29 -64
q0 -89 -139 -111l-42 46q92 23 92 50q0 24 -32 24q-33 0 -74 -23z" />
    <glyph glyph-name="uni1EB3" unicode="&#x1eb3;" horiz-adv-x="561" 
d="M215 -14q-77 0 -129 40t-52 115q0 36 14 63t33 42.5t49.5 26.5t52.5 15t53 8l38 5q57 7 80 20.5t23 48.5q0 32 -24.5 50.5t-67.5 18.5q-41 0 -67 -16.5t-33 -43.5h-129q13 65 73 106t158 41q207 0 207 -161v-242q0 -63 16 -123h-118q-8 43 -10 67q-22 -34 -65 -57.5
t-102 -23.5zM121 708h107q3 -61 59 -61q54 0 59 61h106q0 -65 -46 -102.5t-119 -37.5q-74 0 -119.5 37.5t-46.5 102.5zM159 145q0 -33 25 -50.5t64 -17.5q57 0 93 38t36 95v56q-25 -32 -104 -44q-60 -10 -87 -25t-27 -52zM212 824v79q44 21 92 21q46 0 74 -23t28 -65
q0 -48 -33.5 -75.5t-103.5 -42.5l-44 49q50 13 71.5 25.5t21.5 29.5q0 23 -33 23q-31 0 -73 -21z" />
    <glyph glyph-name="uni1EB4" unicode="&#x1eb4;" horiz-adv-x="660" 
d="M1 0l261 700h138l258 -700h-134l-50 146h-292l-50 -146h-131zM142 925q0 60 32 91.5t80 31.5q37 0 81 -24t59 -24q31 0 33 38h94q0 -60 -32 -91.5t-80 -31.5q-37 0 -82 24.5t-61 24.5q-29 0 -33 -39h-91zM160 881h114q5 -51 57 -51t57 51h114q0 -60 -48 -95.5t-123 -35.5
q-74 0 -122.5 35.5t-48.5 95.5zM219 251h219l-47 138q-6 17 -62 180h-1q-45 -136 -62 -181z" />
    <glyph glyph-name="uni1EB5" unicode="&#x1eb5;" horiz-adv-x="561" 
d="M215 -14q-77 0 -129 40t-52 115q0 36 14 63t33 42.5t49.5 26.5t52.5 15t53 8l38 5q57 7 80 20.5t23 48.5q0 32 -24.5 50.5t-67.5 18.5q-41 0 -67 -16.5t-33 -43.5h-129q13 65 73 106t158 41q207 0 207 -161v-242q0 -63 16 -123h-118q-8 43 -10 67q-22 -34 -65 -57.5
t-102 -23.5zM96 758q0 60 32 91.5t80 31.5q37 0 81 -24t59 -24q31 0 33 38h94q0 -60 -32 -91.5t-80 -31.5q-37 0 -82 24.5t-61 24.5q-29 0 -33 -39h-91zM120 708h107q3 -61 59 -61q54 0 59 61h106q0 -65 -46 -102.5t-119 -37.5q-74 0 -119.5 37.5t-46.5 102.5zM159 145
q0 -33 25 -50.5t64 -17.5q57 0 93 38t36 95v56q-25 -32 -104 -44q-60 -10 -87 -25t-27 -52z" />
    <glyph glyph-name="uni1EB6" unicode="&#x1eb6;" horiz-adv-x="660" 
d="M1 0l261 700h138l258 -700h-134l-50 146h-292l-50 -146h-131zM160 881h114q5 -51 57 -51t57 51h114q0 -60 -48 -95.5t-123 -35.5q-74 0 -122.5 35.5t-48.5 95.5zM219 251h219l-47 138q-6 17 -62 180h-1q-45 -136 -62 -181zM269 -179v113h125v-113h-125z" />
    <glyph glyph-name="uni1EB7" unicode="&#x1eb7;" horiz-adv-x="561" 
d="M215 -14q-77 0 -129 40t-52 115q0 36 14 63t33 42.5t49.5 26.5t52.5 15t53 8l38 5q57 7 80 20.5t23 48.5q0 32 -24.5 50.5t-67.5 18.5q-41 0 -67 -16.5t-33 -43.5h-129q13 65 73 106t158 41q207 0 207 -161v-242q0 -63 16 -123h-118q-8 43 -10 67q-22 -34 -65 -57.5
t-102 -23.5zM120 708h107q3 -61 59 -61q54 0 59 61h106q0 -65 -46 -102.5t-119 -37.5q-74 0 -119.5 37.5t-46.5 102.5zM159 145q0 -33 25 -50.5t64 -17.5q57 0 93 38t36 95v56q-25 -32 -104 -44q-60 -10 -87 -25t-27 -52zM224 -179v113h125v-113h-125z" />
    <glyph glyph-name="uni1EB8" unicode="&#x1eb8;" horiz-adv-x="626" 
d="M84 0v700h489v-107h-364v-181h309v-105h-309v-200h369v-107h-494zM267 -179v113h125v-113h-125z" />
    <glyph glyph-name="uni1EB9" unicode="&#x1eb9;" horiz-adv-x="586" 
d="M302 -15q-121 0 -192.5 73.5t-71.5 195.5q0 118 75 195t181 77q116 0 186 -80.5t71 -224.5h-392q4 -64 44.5 -103t100.5 -39q78 0 107 54h126q-21 -67 -82 -107.5t-153 -40.5zM161 308h271q-8 57 -43.5 90t-91.5 33q-52 0 -90 -34.5t-46 -88.5zM238 -179v113h125v-113
h-125z" />
    <glyph glyph-name="uni1EBA" unicode="&#x1eba;" horiz-adv-x="626" 
d="M84 0v700h489v-107h-364v-181h309v-105h-309v-200h369v-107h-494zM254 826v80q52 21 89 21q48 0 77 -23t29 -64q0 -89 -139 -111l-42 46q92 23 92 50q0 24 -32 24q-33 0 -74 -23z" />
    <glyph glyph-name="uni1EBB" unicode="&#x1ebb;" horiz-adv-x="586" 
d="M302 -15q-121 0 -192.5 73.5t-71.5 195.5q0 118 75 195t181 77q116 0 186 -80.5t71 -224.5h-392q4 -64 44.5 -103t100.5 -39q78 0 107 54h126q-21 -67 -82 -107.5t-153 -40.5zM161 308h271q-8 57 -43.5 90t-91.5 33q-52 0 -90 -34.5t-46 -88.5zM222 649v79q44 21 92 21
q46 0 74 -23t28 -65q0 -48 -33.5 -75.5t-103.5 -42.5l-44 49q50 13 71.5 25.5t21.5 29.5q0 23 -33 23q-31 0 -73 -21z" />
    <glyph glyph-name="uni1EBC" unicode="&#x1ebc;" horiz-adv-x="626" 
d="M84 0v700h489v-107h-364v-181h309v-105h-309v-200h369v-107h-494zM139 762q0 60 32 91.5t80 31.5q37 0 81 -24t59 -24q31 0 33 38h94q0 -60 -32 -91.5t-80 -31.5q-37 0 -82 24.5t-61 24.5q-29 0 -33 -39h-91z" />
    <glyph glyph-name="uni1EBD" unicode="&#x1ebd;" horiz-adv-x="586" 
d="M302 -15q-121 0 -192.5 73.5t-71.5 195.5q0 118 75 195t181 77q116 0 186 -80.5t71 -224.5h-392q4 -64 44.5 -103t100.5 -39q78 0 107 54h126q-21 -67 -82 -107.5t-153 -40.5zM107 573q0 60 32 91.5t80 31.5q37 0 81 -24t59 -24q31 0 33 38h94q0 -60 -32 -91.5t-80 -31.5
q-37 0 -82 24.5t-61 24.5q-29 0 -33 -39h-91zM161 308h271q-8 57 -43.5 90t-91.5 33q-52 0 -90 -34.5t-46 -88.5z" />
    <glyph glyph-name="uni1EBE" unicode="&#x1ebe;" horiz-adv-x="626" 
d="M84 0v700h489v-107h-364v-181h309v-105h-309v-200h369v-107h-494zM147 759l115 122h133l116 -122h-118l-63 55l-64 -55h-119zM435 880l107 122h146l-145 -122h-108z" />
    <glyph glyph-name="uni1EBF" unicode="&#x1ebf;" horiz-adv-x="586" 
d="M302 -15q-121 0 -192.5 73.5t-71.5 195.5q0 118 75 195t181 77q116 0 186 -80.5t71 -224.5h-392q4 -64 44.5 -103t100.5 -39q78 0 107 54h126q-21 -67 -82 -107.5t-153 -40.5zM120 573l115 132h122l116 -132h-108l-70 60l-70 -60h-105zM161 308h271q-8 57 -43.5 90
t-91.5 33q-52 0 -90 -34.5t-46 -88.5zM399 708l107 132h146l-146 -132h-107z" />
    <glyph glyph-name="uni1EC0" unicode="&#x1ec0;" horiz-adv-x="626" 
d="M84 0v700h489v-107h-364v-181h309v-105h-309v-200h369v-107h-494zM147 759l115 122h133l116 -122h-118l-63 55l-64 -55h-119zM292 1002h146l107 -122h-107z" />
    <glyph glyph-name="uni1EC1" unicode="&#x1ec1;" horiz-adv-x="586" 
d="M302 -15q-121 0 -192.5 73.5t-71.5 195.5q0 118 75 195t181 77q116 0 186 -80.5t71 -224.5h-392q4 -64 44.5 -103t100.5 -39q78 0 107 54h126q-21 -67 -82 -107.5t-153 -40.5zM120 573l115 132h122l116 -132h-108l-70 60l-70 -60h-105zM161 308h271q-8 57 -43.5 90
t-91.5 33q-52 0 -90 -34.5t-46 -88.5zM255 840h145l107 -132h-107z" />
    <glyph glyph-name="uni1EC2" unicode="&#x1ec2;" horiz-adv-x="626" 
d="M84 0v700h489v-107h-364v-181h309v-105h-309v-200h369v-107h-494zM147 759l115 122h133l116 -122h-118l-63 55l-64 -55h-119zM417 946v80q52 21 89 21q48 0 77 -23t29 -64q0 -89 -139 -111l-42 46q92 23 92 50q0 24 -32 24q-33 0 -74 -23z" />
    <glyph glyph-name="uni1EC3" unicode="&#x1ec3;" horiz-adv-x="586" 
d="M302 -15q-121 0 -192.5 73.5t-71.5 195.5q0 118 75 195t181 77q116 0 186 -80.5t71 -224.5h-392q4 -64 44.5 -103t100.5 -39q78 0 107 54h126q-21 -67 -82 -107.5t-153 -40.5zM120 573l115 132h122l116 -132h-108l-70 60l-70 -60h-105zM161 308h271q-8 57 -43.5 90
t-91.5 33q-52 0 -90 -34.5t-46 -88.5zM379 784v79q44 21 92 21q46 0 74 -23t28 -65q0 -48 -33.5 -75.5t-103.5 -42.5l-44 49q50 13 71.5 25.5t21.5 29.5q0 23 -33 23q-31 0 -73 -21z" />
    <glyph glyph-name="uni1EC4" unicode="&#x1ec4;" horiz-adv-x="626" 
d="M84 0v700h489v-107h-364v-181h309v-105h-309v-200h369v-107h-494zM139 929q0 60 32 91.5t80 31.5q37 0 81 -24t59 -24q31 0 33 38h94q0 -60 -32 -91.5t-80 -31.5q-37 0 -82 24.5t-61 24.5q-29 0 -33 -39h-91zM146 759l115 122h133l116 -122h-118l-63 55l-64 -55h-119z
" />
    <glyph glyph-name="uni1EC5" unicode="&#x1ec5;" horiz-adv-x="586" 
d="M302 -15q-121 0 -192.5 73.5t-71.5 195.5q0 118 75 195t181 77q116 0 186 -80.5t71 -224.5h-392q4 -64 44.5 -103t100.5 -39q78 0 107 54h126q-21 -67 -82 -107.5t-153 -40.5zM107 754q0 60 32 91.5t80 31.5q37 0 81 -24t59 -24q31 0 33 38h94q0 -60 -32 -91.5t-80 -31.5
q-37 0 -82 24.5t-61 24.5q-29 0 -33 -39h-91zM120 573l115 132h122l116 -132h-108l-70 60l-70 -60h-105zM161 308h271q-8 57 -43.5 90t-91.5 33q-52 0 -90 -34.5t-46 -88.5z" />
    <glyph glyph-name="uni1EC6" unicode="&#x1ec6;" horiz-adv-x="626" 
d="M84 0v700h489v-107h-364v-181h309v-105h-309v-200h369v-107h-494zM147 759l115 122h133l116 -122h-118l-63 55l-64 -55h-119zM267 -179v113h125v-113h-125z" />
    <glyph glyph-name="uni1EC7" unicode="&#x1ec7;" horiz-adv-x="586" 
d="M302 -15q-121 0 -192.5 73.5t-71.5 195.5q0 118 75 195t181 77q116 0 186 -80.5t71 -224.5h-392q4 -64 44.5 -103t100.5 -39q78 0 107 54h126q-21 -67 -82 -107.5t-153 -40.5zM120 573l115 132h122l116 -132h-108l-70 60l-70 -60h-105zM161 308h271q-8 57 -43.5 90
t-91.5 33q-52 0 -90 -34.5t-46 -88.5zM238 -179v113h125v-113h-125z" />
    <glyph glyph-name="uni1EC8" unicode="&#x1ec8;" horiz-adv-x="292" 
d="M84 0v700h125v-700h-125zM72 826v80q52 21 89 21q48 0 77 -23t29 -64q0 -89 -139 -111l-42 46q92 23 92 50q0 24 -32 24q-33 0 -74 -23z" />
    <glyph glyph-name="uni1EC9" unicode="&#x1ec9;" horiz-adv-x="261" 
d="M72 0v511h118v-511h-118zM56 649v79q44 21 92 21q46 0 74 -23t28 -65q0 -48 -33.5 -75.5t-103.5 -42.5l-44 49q50 13 71.5 25.5t21.5 29.5q0 23 -33 23q-31 0 -73 -21z" />
    <glyph glyph-name="uni1ECA" unicode="&#x1eca;" horiz-adv-x="292" 
d="M84 0v700h125v-700h-125zM84 -179v113h125v-113h-125z" />
    <glyph glyph-name="uni1ECB" unicode="&#x1ecb;" horiz-adv-x="261" 
d="M72 0v511h118v-511h-118zM63 573v124h136v-124h-136zM68 -179v113h125v-113h-125z" />
    <glyph glyph-name="uni1ECC" unicode="&#x1ecc;" horiz-adv-x="803" 
d="M402 -15q-149 0 -254 101.5t-105 263.5t105 263.5t254 101.5t253.5 -101.5t104.5 -263.5t-104.5 -263.5t-253.5 -101.5zM175 350q0 -117 63 -187.5t164 -70.5t163.5 70t62.5 188t-62.5 188t-163.5 70t-164 -70.5t-63 -187.5zM339 -179v113h125v-113h-125z" />
    <glyph glyph-name="uni1ECD" unicode="&#x1ecd;" horiz-adv-x="597" 
d="M299 -15q-113 0 -187.5 76t-74.5 194t75 194.5t187 76.5t186.5 -76.5t74.5 -194.5t-74.5 -194t-186.5 -76zM159 255q0 -82 38 -128t102 -46q63 0 101 46t38 128q0 83 -38 128.5t-101 45.5q-64 0 -102 -45.5t-38 -128.5zM236 -179v113h125v-113h-125z" />
    <glyph glyph-name="uni1ECE" unicode="&#x1ece;" horiz-adv-x="803" 
d="M402 -15q-149 0 -254 101.5t-105 263.5t105 263.5t254 101.5t253.5 -101.5t104.5 -263.5t-104.5 -263.5t-253.5 -101.5zM175 350q0 -117 63 -187.5t164 -70.5t163.5 70t62.5 188t-62.5 188t-163.5 70t-164 -70.5t-63 -187.5zM327 826v80q52 21 89 21q48 0 77 -23t29 -64
q0 -89 -139 -111l-42 46q92 23 92 50q0 24 -32 24q-33 0 -74 -23z" />
    <glyph glyph-name="uni1ECF" unicode="&#x1ecf;" horiz-adv-x="597" 
d="M299 -15q-113 0 -187.5 76t-74.5 194t75 194.5t187 76.5t186.5 -76.5t74.5 -194.5t-74.5 -194t-186.5 -76zM159 255q0 -82 38 -128t102 -46q63 0 101 46t38 128q0 83 -38 128.5t-101 45.5q-64 0 -102 -45.5t-38 -128.5zM224 649v79q44 21 92 21q46 0 74 -23t28 -65
q0 -48 -33.5 -75.5t-103.5 -42.5l-44 49q50 13 71.5 25.5t21.5 29.5q0 23 -33 23q-31 0 -73 -21z" />
    <glyph glyph-name="uni1ED0" unicode="&#x1ed0;" horiz-adv-x="803" 
d="M402 -15q-149 0 -254 101.5t-105 263.5t105 263.5t254 101.5t253.5 -101.5t104.5 -263.5t-104.5 -263.5t-253.5 -101.5zM175 350q0 -117 63 -187.5t164 -70.5t163.5 70t62.5 188t-62.5 188t-163.5 70t-164 -70.5t-63 -187.5zM220 759l115 122h133l116 -122h-118l-63 55
l-64 -55h-119zM508 880l107 122h146l-145 -122h-108z" />
    <glyph glyph-name="uni1ED1" unicode="&#x1ed1;" horiz-adv-x="597" 
d="M299 -15q-113 0 -187.5 76t-74.5 194t75 194.5t187 76.5t186.5 -76.5t74.5 -194.5t-74.5 -194t-186.5 -76zM122 573l115 132h122l116 -132h-108l-70 60l-70 -60h-105zM159 255q0 -82 38 -128t102 -46q63 0 101 46t38 128q0 83 -38 128.5t-101 45.5q-64 0 -102 -45.5
t-38 -128.5zM401 708l107 132h146l-146 -132h-107z" />
    <glyph glyph-name="uni1ED2" unicode="&#x1ed2;" horiz-adv-x="803" 
d="M402 -15q-149 0 -254 101.5t-105 263.5t105 263.5t254 101.5t253.5 -101.5t104.5 -263.5t-104.5 -263.5t-253.5 -101.5zM175 350q0 -117 63 -187.5t164 -70.5t163.5 70t62.5 188t-62.5 188t-163.5 70t-164 -70.5t-63 -187.5zM220 759l115 122h133l116 -122h-118l-63 55
l-64 -55h-119zM365 1002h146l107 -122h-107z" />
    <glyph glyph-name="uni1ED3" unicode="&#x1ed3;" horiz-adv-x="597" 
d="M299 -15q-113 0 -187.5 76t-74.5 194t75 194.5t187 76.5t186.5 -76.5t74.5 -194.5t-74.5 -194t-186.5 -76zM122 573l115 132h122l116 -132h-108l-70 60l-70 -60h-105zM159 255q0 -82 38 -128t102 -46q63 0 101 46t38 128q0 83 -38 128.5t-101 45.5q-64 0 -102 -45.5
t-38 -128.5zM257 840h145l107 -132h-107z" />
    <glyph glyph-name="uni1ED4" unicode="&#x1ed4;" horiz-adv-x="803" 
d="M402 -15q-149 0 -254 101.5t-105 263.5t105 263.5t254 101.5t253.5 -101.5t104.5 -263.5t-104.5 -263.5t-253.5 -101.5zM175 350q0 -117 63 -187.5t164 -70.5t163.5 70t62.5 188t-62.5 188t-163.5 70t-164 -70.5t-63 -187.5zM220 759l115 122h133l116 -122h-118l-63 55
l-64 -55h-119zM490 946v80q52 21 89 21q48 0 77 -23t29 -64q0 -89 -139 -111l-42 46q92 23 92 50q0 24 -32 24q-33 0 -74 -23z" />
    <glyph glyph-name="uni1ED5" unicode="&#x1ed5;" horiz-adv-x="597" 
d="M299 -15q-113 0 -187.5 76t-74.5 194t75 194.5t187 76.5t186.5 -76.5t74.5 -194.5t-74.5 -194t-186.5 -76zM122 573l115 132h122l116 -132h-108l-70 60l-70 -60h-105zM159 255q0 -82 38 -128t102 -46q63 0 101 46t38 128q0 83 -38 128.5t-101 45.5q-64 0 -102 -45.5
t-38 -128.5zM381 784v79q44 21 92 21q46 0 74 -23t28 -65q0 -48 -33.5 -75.5t-103.5 -42.5l-44 49q50 13 71.5 25.5t21.5 29.5q0 23 -33 23q-31 0 -73 -21z" />
    <glyph glyph-name="uni1ED6" unicode="&#x1ed6;" horiz-adv-x="803" 
d="M402 -15q-149 0 -254 101.5t-105 263.5t105 263.5t254 101.5t253.5 -101.5t104.5 -263.5t-104.5 -263.5t-253.5 -101.5zM175 350q0 -117 63 -187.5t164 -70.5t163.5 70t62.5 188t-62.5 188t-163.5 70t-164 -70.5t-63 -187.5zM213 929q0 60 32 91.5t80 31.5q37 0 81 -24
t59 -24q31 0 33 38h94q0 -60 -32 -91.5t-80 -31.5q-37 0 -82 24.5t-61 24.5q-29 0 -33 -39h-91zM220 759l115 122h133l116 -122h-118l-63 55l-64 -55h-119z" />
    <glyph glyph-name="uni1ED7" unicode="&#x1ed7;" horiz-adv-x="597" 
d="M299 -15q-113 0 -187.5 76t-74.5 194t75 194.5t187 76.5t186.5 -76.5t74.5 -194.5t-74.5 -194t-186.5 -76zM108 754q0 60 32 91.5t80 31.5q37 0 81 -24t59 -24q31 0 33 38h94q0 -60 -32 -91.5t-80 -31.5q-37 0 -82 24.5t-61 24.5q-29 0 -33 -39h-91zM121 573l115 132h122
l116 -132h-108l-70 60l-70 -60h-105zM159 255q0 -82 38 -128t102 -46q63 0 101 46t38 128q0 83 -38 128.5t-101 45.5q-64 0 -102 -45.5t-38 -128.5z" />
    <glyph glyph-name="uni1ED8" unicode="&#x1ed8;" horiz-adv-x="803" 
d="M402 -15q-149 0 -254 101.5t-105 263.5t105 263.5t254 101.5t253.5 -101.5t104.5 -263.5t-104.5 -263.5t-253.5 -101.5zM175 350q0 -117 63 -187.5t164 -70.5t163.5 70t62.5 188t-62.5 188t-163.5 70t-164 -70.5t-63 -187.5zM220 759l115 122h133l116 -122h-118l-63 55
l-64 -55h-119zM339 -179v113h125v-113h-125z" />
    <glyph glyph-name="uni1ED9" unicode="&#x1ed9;" horiz-adv-x="597" 
d="M299 -15q-113 0 -187.5 76t-74.5 194t75 194.5t187 76.5t186.5 -76.5t74.5 -194.5t-74.5 -194t-186.5 -76zM122 573l115 132h122l116 -132h-108l-70 60l-70 -60h-105zM159 255q0 -82 38 -128t102 -46q63 0 101 46t38 128q0 83 -38 128.5t-101 45.5q-64 0 -102 -45.5
t-38 -128.5zM236 -179v113h125v-113h-125z" />
    <glyph glyph-name="uni1EDA" unicode="&#x1eda;" horiz-adv-x="803" 
d="M402 -15q-149 0 -254 101.5t-105 263.5t105 263.5t254 101.5q54 0 104 -15q55 3 77.5 27t19.5 77h101q9 -114 -89 -156q67 -49 106 -125.5t39 -172.5q0 -162 -104.5 -263.5t-253.5 -101.5zM175 350q0 -117 63 -187.5t164 -70.5t163.5 70t62.5 188t-62.5 188t-163.5 70
t-164 -70.5t-63 -187.5zM346 760l107 122h146l-145 -122h-108z" />
    <glyph glyph-name="uni1EDB" unicode="&#x1edb;" horiz-adv-x="600" 
d="M299 -15q-113 0 -187.5 76t-74.5 194t75 194.5t187 76.5q49 0 89 -15q43 2 59.5 28t12.5 86h101q11 -126 -82 -169q81 -78 81 -201q0 -118 -74.5 -194t-186.5 -76zM159 255q0 -82 38 -128t102 -46q63 0 101 46t38 128q0 83 -38 128.5t-101 45.5q-64 0 -102 -45.5
t-38 -128.5zM244 573l107 132h146l-146 -132h-107z" />
    <glyph glyph-name="uni1EDC" unicode="&#x1edc;" horiz-adv-x="803" 
d="M402 -15q-149 0 -254 101.5t-105 263.5t105 263.5t254 101.5q54 0 104 -15q55 3 77.5 27t19.5 77h101q9 -114 -89 -156q67 -49 106 -125.5t39 -172.5q0 -162 -104.5 -263.5t-253.5 -101.5zM175 350q0 -117 63 -187.5t164 -70.5t163.5 70t62.5 188t-62.5 188t-163.5 70
t-164 -70.5t-63 -187.5zM202 882h146l107 -122h-107z" />
    <glyph glyph-name="uni1EDD" unicode="&#x1edd;" horiz-adv-x="600" 
d="M299 -15q-113 0 -187.5 76t-74.5 194t75 194.5t187 76.5q49 0 89 -15q43 2 59.5 28t12.5 86h101q11 -126 -82 -169q81 -78 81 -201q0 -118 -74.5 -194t-186.5 -76zM100 705h145l107 -132h-107zM159 255q0 -82 38 -128t102 -46q63 0 101 46t38 128q0 83 -38 128.5
t-101 45.5q-64 0 -102 -45.5t-38 -128.5z" />
    <glyph glyph-name="uni1EDE" unicode="&#x1ede;" horiz-adv-x="803" 
d="M402 -15q-149 0 -254 101.5t-105 263.5t105 263.5t254 101.5q54 0 104 -15q55 3 77.5 27t19.5 77h101q9 -114 -89 -156q67 -49 106 -125.5t39 -172.5q0 -162 -104.5 -263.5t-253.5 -101.5zM175 350q0 -117 63 -187.5t164 -70.5t163.5 70t62.5 188t-62.5 188t-163.5 70
t-164 -70.5t-63 -187.5zM327 826v80q52 21 89 21q48 0 77 -23t29 -64q0 -89 -139 -111l-42 46q92 23 92 50q0 24 -32 24q-33 0 -74 -23z" />
    <glyph glyph-name="uni1EDF" unicode="&#x1edf;" horiz-adv-x="600" 
d="M299 -15q-113 0 -187.5 76t-74.5 194t75 194.5t187 76.5q49 0 89 -15q43 2 59.5 28t12.5 86h101q11 -126 -82 -169q81 -78 81 -201q0 -118 -74.5 -194t-186.5 -76zM159 255q0 -82 38 -128t102 -46q63 0 101 46t38 128q0 83 -38 128.5t-101 45.5q-64 0 -102 -45.5
t-38 -128.5zM224 649v79q44 21 92 21q46 0 74 -23t28 -65q0 -48 -33.5 -75.5t-103.5 -42.5l-44 49q50 13 71.5 25.5t21.5 29.5q0 23 -33 23q-31 0 -73 -21z" />
    <glyph glyph-name="uni1EE0" unicode="&#x1ee0;" horiz-adv-x="803" 
d="M402 -15q-149 0 -254 101.5t-105 263.5t105 263.5t254 101.5q54 0 104 -15q55 3 77.5 27t19.5 77h101q9 -114 -89 -156q67 -49 106 -125.5t39 -172.5q0 -162 -104.5 -263.5t-253.5 -101.5zM175 350q0 -117 63 -187.5t164 -70.5t163.5 70t62.5 188t-62.5 188t-163.5 70
t-164 -70.5t-63 -187.5zM185 762q0 60 32 91.5t80 31.5q37 0 81 -24t59 -24q31 0 33 38h94q0 -60 -32 -91.5t-80 -31.5q-37 0 -82 24.5t-61 24.5q-29 0 -33 -39h-91z" />
    <glyph glyph-name="uni1EE1" unicode="&#x1ee1;" horiz-adv-x="600" 
d="M299 -15q-113 0 -187.5 76t-74.5 194t75 194.5t187 76.5q49 0 89 -15q43 2 59.5 28t12.5 86h101q11 -126 -82 -169q81 -78 81 -201q0 -118 -74.5 -194t-186.5 -76zM111 573q0 55 30 87t72 32q30 0 66.5 -18t49.5 -18q26 0 28 30h89q0 -55 -30 -87t-71 -32q-30 0 -67 18.5
t-51 18.5q-26 0 -29 -31h-87zM159 255q0 -82 38 -128t102 -46q63 0 101 46t38 128q0 83 -38 128.5t-101 45.5q-64 0 -102 -45.5t-38 -128.5z" />
    <glyph glyph-name="uni1EE2" unicode="&#x1ee2;" horiz-adv-x="803" 
d="M402 -15q-149 0 -254 101.5t-105 263.5t105 263.5t254 101.5q54 0 104 -15q55 3 77.5 27t19.5 77h101q9 -114 -89 -156q67 -49 106 -125.5t39 -172.5q0 -162 -104.5 -263.5t-253.5 -101.5zM175 350q0 -117 63 -187.5t164 -70.5t163.5 70t62.5 188t-62.5 188t-163.5 70
t-164 -70.5t-63 -187.5zM339 -179v113h125v-113h-125z" />
    <glyph glyph-name="uni1EE3" unicode="&#x1ee3;" horiz-adv-x="600" 
d="M299 -15q-113 0 -187.5 76t-74.5 194t75 194.5t187 76.5q49 0 89 -15q43 2 59.5 28t12.5 86h101q11 -126 -82 -169q81 -78 81 -201q0 -118 -74.5 -194t-186.5 -76zM159 255q0 -82 38 -128t102 -46q63 0 101 46t38 128q0 83 -38 128.5t-101 45.5q-64 0 -102 -45.5
t-38 -128.5zM236 -179v113h125v-113h-125z" />
    <glyph glyph-name="uni1EE4" unicode="&#x1ee4;" horiz-adv-x="694" 
d="M347 -15q-123 0 -196.5 72.5t-73.5 197.5v445h125v-430q0 -84 37 -129.5t108 -45.5t108.5 45.5t37.5 129.5v430h125v-445q0 -125 -73.5 -197.5t-197.5 -72.5zM285 -179v113h125v-113h-125z" />
    <glyph glyph-name="uni1EE5" unicode="&#x1ee5;" horiz-adv-x="569" 
d="M237 -15q-77 0 -123.5 48.5t-46.5 139.5v338h119v-320q0 -108 86 -108q44 0 75.5 36.5t31.5 108.5v283h119v-511h-117v63q-43 -78 -144 -78zM220 -179v113h125v-113h-125z" />
    <glyph glyph-name="uni1EE6" unicode="&#x1ee6;" horiz-adv-x="694" 
d="M347 -15q-123 0 -196.5 72.5t-73.5 197.5v445h125v-430q0 -84 37 -129.5t108 -45.5t108.5 45.5t37.5 129.5v430h125v-445q0 -125 -73.5 -197.5t-197.5 -72.5zM273 826v80q52 21 89 21q48 0 77 -23t29 -64q0 -89 -139 -111l-42 46q92 23 92 50q0 24 -32 24q-33 0 -74 -23z
" />
    <glyph glyph-name="uni1EE7" unicode="&#x1ee7;" horiz-adv-x="569" 
d="M237 -15q-77 0 -123.5 48.5t-46.5 139.5v338h119v-320q0 -108 86 -108q44 0 75.5 36.5t31.5 108.5v283h119v-511h-117v63q-43 -78 -144 -78zM208 649v79q44 21 92 21q46 0 74 -23t28 -65q0 -48 -33.5 -75.5t-103.5 -42.5l-44 49q50 13 71.5 25.5t21.5 29.5q0 23 -33 23
q-31 0 -73 -21z" />
    <glyph glyph-name="uni1EE8" unicode="&#x1ee8;" horiz-adv-x="715" 
d="M347 -15q-123 0 -196.5 72.5t-73.5 197.5v445h125v-430q0 -84 37 -129.5t108 -45.5t108.5 45.5t37.5 129.5v430h40q48 0 67 23.5t15 80.5h101q11 -129 -98 -165v-384q0 -125 -73.5 -197.5t-197.5 -72.5zM291 760l107 122h146l-145 -122h-108z" />
    <glyph glyph-name="uni1EE9" unicode="&#x1ee9;" horiz-adv-x="589" 
d="M237 -15q-77 0 -123.5 48.5t-46.5 139.5v338h119v-320q0 -108 86 -108q44 0 75.5 36.5t31.5 108.5v283h35q49 0 67.5 25t14.5 89h101q12 -138 -99 -176v-449h-117v63q-43 -78 -144 -78zM227 573l107 132h146l-146 -132h-107z" />
    <glyph glyph-name="uni1EEA" unicode="&#x1eea;" horiz-adv-x="715" 
d="M347 -15q-123 0 -196.5 72.5t-73.5 197.5v445h125v-430q0 -84 37 -129.5t108 -45.5t108.5 45.5t37.5 129.5v430h40q48 0 67 23.5t15 80.5h101q11 -129 -98 -165v-384q0 -125 -73.5 -197.5t-197.5 -72.5zM148 882h146l107 -122h-107z" />
    <glyph glyph-name="uni1EEB" unicode="&#x1eeb;" horiz-adv-x="589" 
d="M237 -15q-77 0 -123.5 48.5t-46.5 139.5v338h119v-320q0 -108 86 -108q44 0 75.5 36.5t31.5 108.5v283h35q49 0 67.5 25t14.5 89h101q12 -138 -99 -176v-449h-117v63q-43 -78 -144 -78zM84 705h145l107 -132h-107z" />
    <glyph glyph-name="uni1EEC" unicode="&#x1eec;" horiz-adv-x="715" 
d="M347 -15q-123 0 -196.5 72.5t-73.5 197.5v445h125v-430q0 -84 37 -129.5t108 -45.5t108.5 45.5t37.5 129.5v430h40q48 0 67 23.5t15 80.5h101q11 -129 -98 -165v-384q0 -125 -73.5 -197.5t-197.5 -72.5zM273 826v80q52 21 89 21q48 0 77 -23t29 -64q0 -89 -139 -111
l-42 46q92 23 92 50q0 24 -32 24q-33 0 -74 -23z" />
    <glyph glyph-name="uni1EED" unicode="&#x1eed;" horiz-adv-x="589" 
d="M237 -15q-77 0 -123.5 48.5t-46.5 139.5v338h119v-320q0 -108 86 -108q44 0 75.5 36.5t31.5 108.5v283h35q49 0 67.5 25t14.5 89h101q12 -138 -99 -176v-449h-117v63q-43 -78 -144 -78zM208 649v79q44 21 92 21q46 0 74 -23t28 -65q0 -48 -33.5 -75.5t-103.5 -42.5
l-44 49q50 13 71.5 25.5t21.5 29.5q0 23 -33 23q-31 0 -73 -21z" />
    <glyph glyph-name="uni1EEE" unicode="&#x1eee;" horiz-adv-x="715" 
d="M347 -15q-123 0 -196.5 72.5t-73.5 197.5v445h125v-430q0 -84 37 -129.5t108 -45.5t108.5 45.5t37.5 129.5v430h40q48 0 67 23.5t15 80.5h101q11 -129 -98 -165v-384q0 -125 -73.5 -197.5t-197.5 -72.5zM158 762q0 60 32 91.5t80 31.5q37 0 81 -24t59 -24q31 0 33 38h94
q0 -60 -32 -91.5t-80 -31.5q-37 0 -82 24.5t-61 24.5q-29 0 -33 -39h-91z" />
    <glyph glyph-name="uni1EEF" unicode="&#x1eef;" horiz-adv-x="589" 
d="M237 -15q-77 0 -123.5 48.5t-46.5 139.5v338h119v-320q0 -108 86 -108q44 0 75.5 36.5t31.5 108.5v283h35q49 0 67.5 25t14.5 89h101q12 -138 -99 -176v-449h-117v63q-43 -78 -144 -78zM114 573q0 55 30 87t72 32q30 0 66.5 -18t49.5 -18q26 0 28 30h89q0 -55 -30 -87
t-71 -32q-30 0 -67 18.5t-51 18.5q-26 0 -29 -31h-87z" />
    <glyph glyph-name="uni1EF0" unicode="&#x1ef0;" horiz-adv-x="715" 
d="M347 -15q-123 0 -196.5 72.5t-73.5 197.5v445h125v-430q0 -84 37 -129.5t108 -45.5t108.5 45.5t37.5 129.5v430h40q48 0 67 23.5t15 80.5h101q11 -129 -98 -165v-384q0 -125 -73.5 -197.5t-197.5 -72.5zM285 -179v113h125v-113h-125z" />
    <glyph glyph-name="uni1EF1" unicode="&#x1ef1;" horiz-adv-x="589" 
d="M237 -15q-77 0 -123.5 48.5t-46.5 139.5v338h119v-320q0 -108 86 -108q44 0 75.5 36.5t31.5 108.5v283h35q49 0 67.5 25t14.5 89h101q12 -138 -99 -176v-449h-117v63q-43 -78 -144 -78zM220 -179v113h125v-113h-125z" />
    <glyph glyph-name="Ygrave" unicode="&#x1ef2;" horiz-adv-x="617" 
d="M246 0v293l-249 407h151l97 -170q49 -87 68 -128h2q20 45 67 130l94 168h143l-248 -406v-294h-125zM112 882h146l107 -122h-107z" />
    <glyph glyph-name="ygrave" unicode="&#x1ef3;" horiz-adv-x="528" 
d="M125 -207q-30 0 -57 4v100q19 -5 42 -5q42 0 66.5 21.5t24.5 62.5q0 24 -17 69l-175 466h135l89 -271q22 -65 38 -134h2q17 68 37 132l82 273h125l-186 -532q-35 -98 -65 -132q-47 -54 -141 -54zM69 705h145l107 -132h-107z" />
    <glyph glyph-name="uni1EF4" unicode="&#x1ef4;" horiz-adv-x="617" 
d="M246 0v293l-249 407h151l97 -170q49 -87 68 -128h2q20 45 67 130l94 168h143l-248 -406v-294h-125zM246 -179v113h125v-113h-125z" />
    <glyph glyph-name="uni1EF5" unicode="&#x1ef5;" horiz-adv-x="528" 
d="M125 -207q-30 0 -57 4v100q19 -5 42 -5q42 0 66.5 21.5t24.5 62.5q0 24 -17 69l-175 466h135l89 -271q22 -65 38 -134h2q17 68 37 132l82 273h125l-186 -532q-35 -98 -65 -132q-47 -54 -141 -54zM355 -179v113h125v-113h-125z" />
    <glyph glyph-name="uni1EF6" unicode="&#x1ef6;" horiz-adv-x="617" 
d="M246 0v293l-249 407h151l97 -170q49 -87 68 -128h2q20 45 67 130l94 168h143l-248 -406v-294h-125zM236 826v80q52 21 89 21q48 0 77 -23t29 -64q0 -89 -139 -111l-42 46q92 23 92 50q0 24 -32 24q-33 0 -74 -23z" />
    <glyph glyph-name="uni1EF7" unicode="&#x1ef7;" horiz-adv-x="528" 
d="M125 -207q-30 0 -57 4v100q19 -5 42 -5q42 0 66.5 21.5t24.5 62.5q0 24 -17 69l-175 466h135l89 -271q22 -65 38 -134h2q17 68 37 132l82 273h125l-186 -532q-35 -98 -65 -132q-47 -54 -141 -54zM193 649v79q44 21 92 21q46 0 74 -23t28 -65q0 -48 -33.5 -75.5
t-103.5 -42.5l-44 49q50 13 71.5 25.5t21.5 29.5q0 23 -33 23q-31 0 -73 -21z" />
    <glyph glyph-name="uni1EF8" unicode="&#x1ef8;" horiz-adv-x="617" 
d="M246 0v293l-249 407h151l97 -170q49 -87 68 -128h2q20 45 67 130l94 168h143l-248 -406v-294h-125zM122 762q0 60 32 91.5t80 31.5q37 0 81 -24t59 -24q31 0 33 38h94q0 -60 -32 -91.5t-80 -31.5q-37 0 -82 24.5t-61 24.5q-29 0 -33 -39h-91z" />
    <glyph glyph-name="uni1EF9" unicode="&#x1ef9;" horiz-adv-x="528" 
d="M125 -207q-30 0 -57 4v100q19 -5 42 -5q42 0 66.5 21.5t24.5 62.5q0 24 -17 69l-175 466h135l89 -271q22 -65 38 -134h2q17 68 37 132l82 273h125l-186 -532q-35 -98 -65 -132q-47 -54 -141 -54zM78 573q0 60 32 91.5t80 31.5q37 0 81 -24t59 -24q31 0 33 38h94
q0 -60 -32 -91.5t-80 -31.5q-37 0 -82 24.5t-61 24.5q-29 0 -33 -39h-91z" />
    <glyph glyph-name="uni2002" unicode="&#x2002;" horiz-adv-x="500" 
 />
    <glyph glyph-name="uni2003" unicode="&#x2003;" horiz-adv-x="1000" 
 />
    <glyph glyph-name="uni2009" unicode="&#x2009;" horiz-adv-x="125" 
 />
    <glyph glyph-name="uni200A" unicode="&#x200a;" horiz-adv-x="42" 
 />
    <glyph glyph-name="endash" unicode="&#x2013;" horiz-adv-x="612" 
d="M53 209v105h505v-105h-505z" />
    <glyph glyph-name="emdash" unicode="&#x2014;" horiz-adv-x="887" 
d="M53 209v105h780v-105h-780z" />
    <glyph glyph-name="quoteleft" unicode="&#x2018;" horiz-adv-x="256" 
d="M208 700q-75 -85 -81 -164h66v-138h-136v98q0 124 71 204h80z" />
    <glyph glyph-name="quoteright" unicode="&#x2019;" horiz-adv-x="252" 
d="M54 398q75 85 81 164h-66v138h136v-98q0 -124 -71 -204h-80z" />
    <glyph glyph-name="quotesinglbase" unicode="&#x201a;" horiz-adv-x="268" 
d="M52 -164q75 85 81 164h-66v138h136v-98q0 -124 -71 -204h-80z" />
    <glyph glyph-name="quotedblleft" unicode="&#x201c;" horiz-adv-x="447" 
d="M398 700q-75 -85 -81 -164h66v-138h-136v98q0 124 71 204h80zM57 398v98q0 124 71 204h80q-75 -85 -81 -164h66v-138h-136z" />
    <glyph glyph-name="quotedblright" unicode="&#x201d;" horiz-adv-x="443" 
d="M54 398q75 85 81 164h-66v138h136v-98q0 -124 -71 -204h-80zM244 398q75 85 81 164h-66v138h136v-98q0 -124 -71 -204h-80z" />
    <glyph glyph-name="quotedblbase" unicode="&#x201e;" horiz-adv-x="458" 
d="M52 -164q75 85 81 164h-66v138h136v-98q0 -124 -71 -204h-80zM242 -164q75 85 81 164h-66v138h136v-98q0 -124 -71 -204h-80z" />
    <glyph glyph-name="dagger" unicode="&#x2020;" horiz-adv-x="434" 
d="M156 -120v539h-137v92h137v189h122v-189h137v-92h-137v-539h-122z" />
    <glyph glyph-name="daggerdbl" unicode="&#x2021;" horiz-adv-x="484" 
d="M180 -120v189h-136v92h136v258h-137v92h137v189h123v-189h137v-92h-137v-258h137v-92h-137v-189h-123z" />
    <glyph glyph-name="bullet" unicode="&#x2022;" horiz-adv-x="513" 
d="M257 98q-84 0 -142.5 59t-58.5 143t58.5 143t142.5 59t142.5 -59t58.5 -143t-58.5 -143t-142.5 -59z" />
    <glyph glyph-name="ellipsis" unicode="&#x2026;" horiz-adv-x="879" 
d="M62 0v138h136v-138h-136zM372 0v138h136v-138h-136zM682 0v138h136v-138h-136z" />
    <glyph glyph-name="perthousand" unicode="&#x2030;" horiz-adv-x="1324" 
d="M160 0l497 700h115l-498 -700h-114zM31 504q0 100 47.5 155.5t120.5 55.5t120.5 -55.5t47.5 -155.5q0 -102 -44.5 -156.5t-123.5 -54.5q-73 0 -120.5 55.5t-47.5 155.5zM124 504q0 -136 75 -136q74 0 74 136t-74 136q-75 0 -75 -136zM560 200q0 100 47.5 155.5
t120.5 55.5t120.5 -55.5t47.5 -155.5q0 -102 -44.5 -156.5t-123.5 -54.5q-73 0 -120.5 55.5t-47.5 155.5zM653 200q0 -136 75 -136q74 0 74 136t-74 136q-75 0 -75 -136zM957 200q0 100 47.5 155.5t120.5 55.5t120.5 -55.5t47.5 -155.5q0 -102 -44.5 -156.5t-123.5 -54.5
q-73 0 -120.5 55.5t-47.5 155.5zM1050 200q0 -136 75 -136q74 0 74 136t-74 136q-75 0 -75 -136z" />
    <glyph glyph-name="uni2032" unicode="&#x2032;" horiz-adv-x="261" 
d="M46 435l63 265h119l-62 -265h-120z" />
    <glyph glyph-name="uni2033" unicode="&#x2033;" horiz-adv-x="443" 
d="M228 435l63 265h119l-62 -265h-120zM46 435l63 265h119l-62 -265h-120z" />
    <glyph glyph-name="guilsinglleft" unicode="&#x2039;" horiz-adv-x="325" 
d="M265 42l-209 149v190l209 149v-139l-159 -101l159 -107v-141z" />
    <glyph glyph-name="guilsinglright" unicode="&#x203a;" horiz-adv-x="321" 
d="M56 530l209 -149v-190l-209 -149v139l159 101l-159 107v141z" />
    <glyph glyph-name="exclamdbl" unicode="&#x203c;" horiz-adv-x="471" 
d="M90 195l-24 195v310h120v-310l-25 -195h-71zM58 0v138h136v-138h-136zM280 87v138h136v-138h-136zM287 477v310h120v-310l-25 -195h-71z" />
    <glyph glyph-name="uni203D" unicode="&#x203d;" horiz-adv-x="539" 
d="M188 198l39 415q-86 -24 -86 -134h-120q0 103 58 164t158 70l8 85h113l-9 -92q73 -17 116 -67t43 -118q0 -89 -99 -168l-28 -22q-40 -32 -56.5 -58t-16.5 -75h-120zM182 0v134h132v-134h-132zM322 417q34 26 50 50.5t16 58.5q0 51 -49 77z" />
    <glyph glyph-name="uni2042" unicode="&#x2042;" horiz-adv-x="987" 
d="M693 5q0 45 2 70q-23 -15 -61 -37l-76 -44l-44 78l82 48q36 20 55 30q-6 3 -27.5 14.5t-33.5 18.5l-77 46l45 81l81 -47q25 -14 56 -34q-2 21 -2 59v97h91v-94q0 -41 -2 -64q11 7 29 18t21 13l88 50l44 -77l-84 -50q-23 -13 -54 -29q17 -8 49 -26l89 -52l-46 -81l-87 51
q-32 18 -49 30q2 -24 2 -67v-91h-91v89zM23 229l45 81l81 -47q25 -14 56 -34q-2 21 -2 59v97h91v-94q0 -41 -2 -64q11 7 29 18t21 13l88 50l44 -77l-84 -50q-23 -13 -54 -29q17 -8 49 -26l89 -52l-46 -81l-87 51q-32 18 -49 30q2 -24 2 -67v-91h-91v89q0 45 2 70
q-23 -15 -61 -37l-76 -44l-44 78l82 48q36 20 55 30q-6 3 -27.5 14.5t-33.5 18.5zM267 633l45 81l81 -47q25 -14 56 -34q-2 21 -2 59v97h91v-94q0 -41 -2 -64q11 7 29 18t21 13l88 50l44 -77l-84 -50q-23 -13 -54 -29q17 -8 49 -26l89 -52l-46 -81l-87 51q-32 18 -49 30
q2 -24 2 -67v-91h-91v89q0 45 2 70q-23 -15 -61 -37l-76 -44l-44 78l82 48q36 20 55 30q-6 3 -27.5 14.5t-33.5 18.5z" />
    <glyph glyph-name="fraction" unicode="&#x2044;" horiz-adv-x="287" 
d="M-192 -100l542 800h129l-542 -800h-129z" />
    <glyph glyph-name="uni2051" unicode="&#x2051;" horiz-adv-x="562" 
d="M235 5q0 45 2 70q-23 -15 -61 -37l-76 -44l-44 78l82 48q36 20 55 30q-6 3 -27.5 14.5t-33.5 18.5l-77 46l45 81l81 -47q25 -14 56 -34q-2 21 -2 59v115q0 45 2 70q-23 -15 -61 -37l-76 -44l-44 78l82 48q36 20 55 30q-6 3 -27.5 14.5t-33.5 18.5l-77 46l45 81l81 -47
q25 -14 56 -34q-2 21 -2 59v97h91v-94q0 -41 -2 -64q11 7 29 18t21 13l88 50l44 -77l-84 -50q-23 -13 -54 -29q17 -8 49 -26l89 -52l-46 -81l-87 51q-32 18 -49 30q2 -24 2 -67v-114q0 -41 -2 -64q11 7 29 18t21 13l88 50l44 -77l-84 -50q-23 -13 -54 -29q17 -8 49 -26
l89 -52l-46 -81l-87 51q-32 18 -49 30q2 -24 2 -67v-91h-91v89z" />
    <glyph glyph-name="uni2070" unicode="&#x2070;" horiz-adv-x="504" 
d="M252 275q-93 0 -154 71t-61 199t61 199t154 71q94 0 154.5 -70.5t60.5 -199.5q0 -131 -57 -200.5t-158 -69.5zM155 545q0 -178 97 -178t97 178q0 92 -23.5 135t-73.5 43q-97 0 -97 -178z" />
    <glyph glyph-name="uni2074" unicode="&#x2074;" horiz-adv-x="494" 
d="M286 290v98h-261v107l253 306h120v-323h65v-91h-65v-97h-112zM123 479h163v193z" />
    <glyph glyph-name="uni2075" unicode="&#x2075;" horiz-adv-x="465" 
d="M233 275q-84 0 -139.5 40t-65.5 108h120q7 -26 30 -41t55 -15q37 0 60 23.5t23 59.5q0 40 -22 63.5t-58 23.5q-51 0 -81 -43h-111l37 307h321v-92h-232l-16 -135q36 44 109 44q74 0 121.5 -45t47.5 -123t-55.5 -126.5t-143.5 -48.5z" />
    <glyph glyph-name="uni2076" unicode="&#x2076;" horiz-adv-x="484" 
d="M254 275q-101 0 -159 71t-58 195q0 126 59.5 200.5t160.5 74.5q75 0 123.5 -37t57.5 -102h-113q-5 23 -24.5 37.5t-47.5 14.5q-51 0 -78.5 -44.5t-27.5 -126.5q17 30 50 48t74 18q78 0 128 -47.5t50 -122.5q0 -79 -54.5 -129t-140.5 -50zM164 454q0 -40 24 -65.5
t62 -25.5q37 0 60.5 25t23.5 66q0 40 -23 64.5t-61 24.5q-36 0 -61 -26t-25 -63z" />
    <glyph glyph-name="uni2077" unicode="&#x2077;" horiz-adv-x="398" 
d="M70 290l196 415h-251v96h359v-100l-189 -411h-115z" />
    <glyph glyph-name="uni2078" unicode="&#x2078;" horiz-adv-x="486" 
d="M243 275q-93 0 -151 45t-58 112q0 47 30 82t74 46q-39 14 -62 44t-23 70q0 57 53 99t137 42q85 0 137.5 -42t52.5 -99q0 -40 -23 -70t-62 -44q45 -11 74.5 -46t29.5 -82q0 -67 -58 -112t-151 -45zM149 445q0 -35 26.5 -58.5t67.5 -23.5q42 0 68 23t26 59t-26 57.5
t-68 21.5t-68 -21.5t-26 -57.5zM168 665q0 -28 21 -47t54 -19t54 19t21 47q0 27 -21 44.5t-54 17.5t-54 -17.5t-21 -44.5z" />
    <glyph glyph-name="uni2079" unicode="&#x2079;" horiz-adv-x="484" 
d="M230 816q101 0 159 -71t58 -195q0 -126 -59.5 -200.5t-160.5 -74.5q-75 0 -123.5 37t-57.5 102h113q5 -23 24.5 -37.5t47.5 -14.5q51 0 78.5 44.5t27.5 126.5q-17 -30 -50 -48t-74 -18q-78 0 -128 47.5t-50 122.5q0 79 54.5 129t140.5 50zM150 637q0 -40 23 -64.5
t61 -24.5q36 0 61 26t25 63q0 40 -24 65.5t-62 25.5q-37 0 -60.5 -25t-23.5 -66z" />
    <glyph glyph-name="uni20A6" unicode="&#x20a6;" horiz-adv-x="869" 
d="M61 228v87h80v70h-80v88h80v227h176l117 -227h171v227h123v-227h80v-88h-80v-70h80v-87h-80v-228h-175l-119 228h-169v-228h-124v228h-80zM260 563l3 -90h44zM265 385v-63v-7h124l-36 70h-88zM480 385l36 -70h89v67v3h-125zM561 228l46 -89q-1 14 -1.5 44t-0.5 45h-44z
" />
    <glyph glyph-name="uni20A8" unicode="&#x20a8;" horiz-adv-x="576" 
d="M289 0l-224 299v88h113q108 0 134 66h-247v91h243q-32 65 -130 65h-113v91h490v-91h-157q28 -28 40 -65h87v-91h-82q-13 -73 -75 -114.5t-156 -45.5l229 -293h-152z" />
    <glyph glyph-name="uni20A9" unicode="&#x20a9;" horiz-adv-x="1012" 
d="M240 0l-69 308h-120v89h100l-68 303h127l62 -303h104l60 303h149l59 -303h99l62 303h122l-67 -303h100v-89h-120l-68 -308h-152l-65 308h-97l-65 -308h-153zM291 308l34 -166l33 166h-67zM477 397h59l-30 139zM661 308l32 -160l32 160h-64z" />
    <glyph glyph-name="uni20AA" unicode="&#x20aa;" horiz-adv-x="818" 
d="M84 0v700h221q122 0 186 -66.5t64 -192.5v-213h-104v205q0 83 -37 122t-117 39h-98v-594h-115zM269 0v472h104v-366h98q80 0 117 39t37 122v433h115v-441q0 -127 -64 -193t-187 -66h-220z" />
    <glyph glyph-name="dong" unicode="&#x20ab;" horiz-adv-x="513" 
d="M224 93q-85 0 -139.5 62.5t-54.5 167.5t54.5 167t139.5 62q91 0 132 -69v106h-80v62h80v49h102v-49h45v-62h-45v-484h-102v55q-40 -67 -132 -67zM30 -60v90h473v-90h-473zM133 323q0 -69 29 -109.5t82 -40.5q50 0 82 42.5t32 107.5t-32 106.5t-82 41.5q-53 0 -82 -39.5
t-29 -108.5z" />
    <glyph glyph-name="Euro" unicode="&#x20ac;" horiz-adv-x="692" 
d="M394 -15q-98 0 -168.5 58.5t-96.5 170.5h-68v91h55q-1 15 -1 45q0 24 1 36h-55v92h67q26 116 97 176.5t171 60.5q99 0 163.5 -51.5t86.5 -147.5h-123q-32 100 -126 100q-116 0 -149 -138h178v-92h-190q-1 -12 -1 -36q0 -31 1 -45h160v-91h-146q36 -130 147 -130
q94 0 125 95h124q-22 -94 -86.5 -144t-165.5 -50z" />
    <glyph glyph-name="uni20B4" unicode="&#x20b4;" horiz-adv-x="732" 
d="M364 -15q-108 0 -174 49.5t-66 125.5q0 37 14 64h-77v91h610v-91h-414q-15 -18 -15 -47q0 -42 33 -68t90 -26q97 0 124 78h126q-15 -80 -80 -128t-171 -48zM61 376v92h400q24 18 24 58q0 41 -30.5 66t-82.5 25q-50 0 -82.5 -23.5t-44.5 -63.5h-120q12 83 78 134t169 51
q101 0 167 -51.5t66 -124.5q0 -44 -23 -71h89v-92h-610z" />
    <glyph glyph-name="uni20B8" unicode="&#x20b8;" horiz-adv-x="563" 
d="M219 0v455h-188v91h502v-91h-189v-455h-125zM31 609v91h502v-91h-502z" />
    <glyph glyph-name="uni20BA" unicode="&#x20ba;" horiz-adv-x="621" 
d="M134 0v233l-72 -31v100l72 31v76l-72 -31v100l72 31v191h125v-137l190 82v-100l-190 -82v-76l190 82v-99l-190 -82v-178h11q86 0 133.5 44.5t63.5 110.5h130q-22 -117 -106 -191t-225 -74h-132z" />
    <glyph glyph-name="uni20BD" unicode="&#x20bd;" horiz-adv-x="663" 
d="M52 270v97h80v333h236q116 0 190.5 -59t74.5 -156q0 -98 -74.5 -159t-190.5 -61h-111v-71h172v-91h-172v-103h-125v103h-80v91h80v76h-80zM257 371h103q63 0 103.5 29t40.5 85q0 57 -40.5 85.5t-103.5 28.5h-103v-228z" />
    <glyph glyph-name="uni20BF" unicode="&#x20bf;" horiz-adv-x="627" 
d="M86 0v700h106v95h95v-95h33q20 0 30 -1v96h95v-116q117 -45 117 -163q0 -56 -33 -97t-84 -56q60 -13 98.5 -56t38.5 -108t-36.5 -111.5t-100.5 -68.5v-114h-95v96q-9 -1 -26 -1h-37v-95h-95v95h-106zM210 101h104q141 0 141 103q0 49 -34 77t-101 28h-110v-208zM210 403
h110q55 0 85.5 27t30.5 73q0 96 -127 96h-99v-196z" />
    <glyph glyph-name="uni2105" unicode="&#x2105;" horiz-adv-x="1423" 
d="M512 -90l315 810h114l-315 -810h-114zM38 254q0 122 72.5 196.5t184.5 74.5q96 0 157 -50t72 -126h-117q-27 78 -110 78q-60 0 -97 -45.5t-37 -127.5q0 -81 37 -126t94 -45q85 0 113 78h118q-11 -75 -73.5 -125.5t-159.5 -50.5q-112 0 -183 73t-71 196zM863 255
q0 118 75 194.5t187 76.5t186.5 -76.5t74.5 -194.5t-74.5 -194t-186.5 -76q-113 0 -187.5 76t-74.5 194zM985 255q0 -82 38 -128t102 -46q63 0 101 46t38 128q0 83 -38 128.5t-101 45.5q-64 0 -102 -45.5t-38 -128.5z" />
    <glyph glyph-name="uni2113" unicode="&#x2113;" horiz-adv-x="556" 
d="M328 -15q-145 0 -197 159q-43 -6 -90 -6v104q26 1 69 5q-5 40 -5 95q0 50 5 96.5t19.5 98.5t38 90t64 63t93.5 25q79 0 125.5 -56t46.5 -146q0 -116 -67.5 -207t-186.5 -134q23 -90 88 -90q60 0 77 73h119q-19 -84 -73.5 -127t-125.5 -43zM229 336q0 -38 1 -56
q141 65 141 239q0 95 -51 95q-48 0 -69.5 -82t-21.5 -196z" />
    <glyph glyph-name="uni2116" unicode="&#x2116;" horiz-adv-x="1225" 
d="M87 0v700h164l301 -541q-2 124 -2 223v318h124v-700h-164l-303 541q3 -91 3 -219v-322h-123zM741 485q0 100 63.5 165t161.5 65t162 -65t64 -165t-64 -165t-162 -65t-161.5 65t-63.5 165zM854 485q0 -68 30 -105.5t82 -37.5q53 0 83 37.5t30 105.5q0 67 -30.5 105
t-82.5 38t-82 -38t-30 -105z" />
    <glyph glyph-name="uni2117" unicode="&#x2117;" horiz-adv-x="848" 
d="M424 -18q-153 0 -260 105.5t-107 261.5t107 262.5t260 106.5t260 -106.5t107 -262.5t-107 -261.5t-260 -105.5zM136 349q0 -129 83 -213t205 -84t205.5 84.5t83.5 212.5q0 129 -83.5 214t-205.5 85t-205 -85t-83 -214zM298 164v370h150q64 0 105 -34.5t41 -88.5
q0 -56 -41 -89.5t-105 -33.5h-66v-124h-84zM382 358h58q68 0 68 53q0 26 -19.5 39.5t-48.5 13.5h-58v-106z" />
    <glyph glyph-name="trademark" unicode="&#x2122;" horiz-adv-x="1013" 
d="M448 264v436h150l97 -308l95 308h150v-436h-101l3 303l-100 -303h-94l-101 307l3 -307h-102zM24 602v98h377v-98h-132v-338h-113v338h-132z" />
    <glyph glyph-name="uni2126" unicode="&#x2126;" horiz-adv-x="827" 
d="M77 0v105h118q-138 95 -138 269q0 145 103 243t254 98t253.5 -98t102.5 -243q0 -174 -137 -269h117v-105h-294v92q82 19 134 88.5t52 176.5q0 113 -62.5 183t-165.5 70q-104 0 -166.5 -70t-62.5 -183q0 -107 52 -176.5t135 -88.5v-92h-295z" />
    <glyph glyph-name="uni2153" unicode="&#x2153;" horiz-adv-x="1076" 
d="M160 189v306h-146v77q69 0 108 30.5t51 97.5h101v-511h-114zM143 -100l542 800h129l-542 -800h-129zM637 46h115q5 -34 29 -52.5t62 -18.5q36 0 59.5 20.5t23.5 49.5q0 34 -29 54t-79 20h-42v85h41q43 0 68 19.5t25 50.5q0 28 -20 45.5t-50 17.5q-32 0 -54 -18.5
t-27 -51.5h-113q5 70 61.5 114.5t135.5 44.5q80 0 130.5 -40.5t50.5 -99.5q0 -84 -89 -115q106 -30 106 -130q0 -63 -54 -109.5t-142 -46.5q-89 0 -145.5 42.5t-62.5 118.5z" />
    <glyph glyph-name="uni2154" unicode="&#x2154;" horiz-adv-x="1215" 
d="M28 191q4 88 43 144.5t127 104.5l34 18q48 27 68.5 48.5t20.5 51.5t-20.5 48.5t-53.5 18.5q-41 0 -63.5 -25.5t-22.5 -71.5h-119q0 87 57 137t151 50q84 0 135.5 -45.5t51.5 -112.5q0 -52 -31.5 -90.5t-93.5 -73.5l-43 -23q-57 -31 -78.5 -48t-26.5 -36h267v-95h-403z
M282 -100l542 800h129l-542 -800h-129zM776 46h115q5 -34 29 -52.5t62 -18.5q36 0 59.5 20.5t23.5 49.5q0 34 -29 54t-79 20h-42v85h41q43 0 68 19.5t25 50.5q0 28 -20 45.5t-50 17.5q-32 0 -54 -18.5t-27 -51.5h-113q5 70 61.5 114.5t135.5 44.5q80 0 130.5 -40.5
t50.5 -99.5q0 -84 -89 -115q106 -30 106 -130q0 -63 -54 -109.5t-142 -46.5q-89 0 -145.5 42.5t-62.5 118.5z" />
    <glyph glyph-name="uni2155" unicode="&#x2155;" horiz-adv-x="1070" 
d="M160 189v306h-146v77q69 0 108 30.5t51 97.5h101v-511h-114zM143 -100l542 800h129l-542 -800h-129zM633 33h120q7 -26 30 -41t55 -15q37 0 60 23.5t23 59.5q0 40 -22 63.5t-58 23.5q-51 0 -81 -43h-111l37 307h321v-92h-232l-16 -135q36 44 109 44q74 0 121.5 -45
t47.5 -123t-55.5 -126.5t-143.5 -48.5q-84 0 -139.5 40t-65.5 108z" />
    <glyph glyph-name="uni2156" unicode="&#x2156;" horiz-adv-x="1209" 
d="M28 191q4 88 43 144.5t127 104.5l34 18q48 27 68.5 48.5t20.5 51.5t-20.5 48.5t-53.5 18.5q-41 0 -63.5 -25.5t-22.5 -71.5h-119q0 87 57 137t151 50q84 0 135.5 -45.5t51.5 -112.5q0 -52 -31.5 -90.5t-93.5 -73.5l-43 -23q-57 -31 -78.5 -48t-26.5 -36h267v-95h-403z
M282 -100l542 800h129l-542 -800h-129zM772 33h120q7 -26 30 -41t55 -15q37 0 60 23.5t23 59.5q0 40 -22 63.5t-58 23.5q-51 0 -81 -43h-111l37 307h321v-92h-232l-16 -135q36 44 109 44q74 0 121.5 -45t47.5 -123t-55.5 -126.5t-143.5 -48.5q-84 0 -139.5 40t-65.5 108z
" />
    <glyph glyph-name="uni2157" unicode="&#x2157;" horiz-adv-x="1185" 
d="M236 174q-89 0 -145.5 42.5t-62.5 118.5h115q5 -34 29 -52.5t62 -18.5q36 0 59.5 20.5t23.5 49.5q0 34 -29 54t-79 20h-42v85h41q43 0 68 19.5t25 50.5q0 28 -20 45.5t-50 17.5q-32 0 -54 -18.5t-27 -51.5h-113q5 70 61.5 114.5t135.5 44.5q80 0 130.5 -40.5t50.5 -99.5
q0 -84 -89 -115q106 -30 106 -130q0 -63 -54 -109.5t-142 -46.5zM258 -100l542 800h129l-542 -800h-129zM749 33h120q7 -26 30 -41t55 -15q37 0 60 23.5t23 59.5q0 40 -22 63.5t-58 23.5q-51 0 -81 -43h-111l37 307h321v-92h-232l-16 -135q36 44 109 44q74 0 121.5 -45
t47.5 -123t-55.5 -126.5t-143.5 -48.5q-84 0 -139.5 40t-65.5 108z" />
    <glyph glyph-name="uni2158" unicode="&#x2158;" horiz-adv-x="1219" 
d="M288 189v98h-261v107l253 306h120v-323h65v-91h-65v-97h-112zM125 378h163v193zM292 -100l542 800h129l-542 -800h-129zM782 33h120q7 -26 30 -41t55 -15q37 0 60 23.5t23 59.5q0 40 -22 63.5t-58 23.5q-51 0 -81 -43h-111l37 307h321v-92h-232l-16 -135q36 44 109 44
q74 0 121.5 -45t47.5 -123t-55.5 -126.5t-143.5 -48.5q-84 0 -139.5 40t-65.5 108z" />
    <glyph glyph-name="uni2159" unicode="&#x2159;" horiz-adv-x="1077" 
d="M160 189v306h-146v77q69 0 108 30.5t51 97.5h101v-511h-114zM143 -100l542 800h129l-542 -800h-129zM630 151q0 126 59.5 200.5t160.5 74.5q75 0 123.5 -37t57.5 -102h-113q-5 23 -24.5 37.5t-47.5 14.5q-51 0 -78.5 -44.5t-27.5 -126.5q17 30 50 48t74 18
q78 0 128 -47.5t50 -122.5q0 -79 -54.5 -129t-140.5 -50q-101 0 -159 71t-58 195zM757 64q0 -40 24 -65.5t62 -25.5q37 0 60.5 25t23.5 66q0 40 -23 64.5t-61 24.5q-36 0 -61 -26t-25 -63z" />
    <glyph glyph-name="uni215A" unicode="&#x215a;" horiz-adv-x="1190" 
d="M234 174q-84 0 -139.5 40t-65.5 108h120q7 -26 30 -41t55 -15q37 0 60 23.5t23 59.5q0 40 -22 63.5t-58 23.5q-51 0 -81 -43h-111l37 307h321v-92h-232l-16 -135q36 44 109 44q74 0 121.5 -45t47.5 -123t-55.5 -126.5t-143.5 -48.5zM256 -100l542 800h129l-542 -800h-129
zM743 151q0 126 59.5 200.5t160.5 74.5q75 0 123.5 -37t57.5 -102h-113q-5 23 -24.5 37.5t-47.5 14.5q-51 0 -78.5 -44.5t-27.5 -126.5q17 30 50 48t74 18q78 0 128 -47.5t50 -122.5q0 -79 -54.5 -129t-140.5 -50q-101 0 -159 71t-58 195zM870 64q0 -40 24 -65.5t62 -25.5
q37 0 60.5 25t23.5 66q0 40 -23 64.5t-61 24.5q-36 0 -61 -26t-25 -63z" />
    <glyph glyph-name="oneeighth" unicode="&#x215b;" horiz-adv-x="1079" 
d="M160 189v306h-146v77q69 0 108 30.5t51 97.5h101v-511h-114zM143 -100l542 800h129l-542 -800h-129zM627 42q0 47 30 82t74 46q-39 14 -62 44t-23 70q0 57 53 99t137 42q85 0 137.5 -42t52.5 -99q0 -40 -23 -70t-62 -44q45 -11 74.5 -46t29.5 -82q0 -67 -58 -112
t-151 -45t-151 45t-58 112zM742 55q0 -35 26.5 -58.5t67.5 -23.5q42 0 68 23t26 59t-26 57.5t-68 21.5t-68 -21.5t-26 -57.5zM761 275q0 -28 21 -47t54 -19t54 19t21 47q0 27 -21 44.5t-54 17.5t-54 -17.5t-21 -44.5z" />
    <glyph glyph-name="threeeighths" unicode="&#x215c;" horiz-adv-x="1195" 
d="M236 174q-89 0 -145.5 42.5t-62.5 118.5h115q5 -34 29 -52.5t62 -18.5q36 0 59.5 20.5t23.5 49.5q0 34 -29 54t-79 20h-42v85h41q43 0 68 19.5t25 50.5q0 28 -20 45.5t-50 17.5q-32 0 -54 -18.5t-27 -51.5h-113q5 70 61.5 114.5t135.5 44.5q80 0 130.5 -40.5t50.5 -99.5
q0 -84 -89 -115q106 -30 106 -130q0 -63 -54 -109.5t-142 -46.5zM258 -100l542 800h129l-542 -800h-129zM743 42q0 47 30 82t74 46q-39 14 -62 44t-23 70q0 57 53 99t137 42q85 0 137.5 -42t52.5 -99q0 -40 -23 -70t-62 -44q45 -11 74.5 -46t29.5 -82q0 -67 -58 -112
t-151 -45t-151 45t-58 112zM858 55q0 -35 26.5 -58.5t67.5 -23.5q42 0 68 23t26 59t-26 57.5t-68 21.5t-68 -21.5t-26 -57.5zM877 275q0 -28 21 -47t54 -19t54 19t21 47q0 27 -21 44.5t-54 17.5t-54 -17.5t-21 -44.5z" />
    <glyph glyph-name="fiveeighths" unicode="&#x215d;" horiz-adv-x="1192" 
d="M234 174q-84 0 -139.5 40t-65.5 108h120q7 -26 30 -41t55 -15q37 0 60 23.5t23 59.5q0 40 -22 63.5t-58 23.5q-51 0 -81 -43h-111l37 307h321v-92h-232l-16 -135q36 44 109 44q74 0 121.5 -45t47.5 -123t-55.5 -126.5t-143.5 -48.5zM256 -100l542 800h129l-542 -800h-129
zM740 42q0 47 30 82t74 46q-39 14 -62 44t-23 70q0 57 53 99t137 42q85 0 137.5 -42t52.5 -99q0 -40 -23 -70t-62 -44q45 -11 74.5 -46t29.5 -82q0 -67 -58 -112t-151 -45t-151 45t-58 112zM855 55q0 -35 26.5 -58.5t67.5 -23.5q42 0 68 23t26 59t-26 57.5t-68 21.5
t-68 -21.5t-26 -57.5zM874 275q0 -28 21 -47t54 -19t54 19t21 47q0 27 -21 44.5t-54 17.5t-54 -17.5t-21 -44.5z" />
    <glyph glyph-name="seveneighths" unicode="&#x215e;" horiz-adv-x="1081" 
d="M72 189l196 415h-251v96h359v-100l-189 -411h-115zM145 -100l542 800h129l-542 -800h-129zM629 42q0 47 30 82t74 46q-39 14 -62 44t-23 70q0 57 53 99t137 42q85 0 137.5 -42t52.5 -99q0 -40 -23 -70t-62 -44q45 -11 74.5 -46t29.5 -82q0 -67 -58 -112t-151 -45t-151 45
t-58 112zM744 55q0 -35 26.5 -58.5t67.5 -23.5q42 0 68 23t26 59t-26 57.5t-68 21.5t-68 -21.5t-26 -57.5zM763 275q0 -28 21 -47t54 -19t54 19t21 47q0 27 -21 44.5t-54 17.5t-54 -17.5t-21 -44.5z" />
    <glyph glyph-name="uni2160" unicode="&#x2160;" horiz-adv-x="507" 
d="M44 0v108h149v484h-149v108h419v-108h-149v-484h149v-108h-419z" />
    <glyph glyph-name="uni2161" unicode="&#x2161;" horiz-adv-x="799" 
d="M44 0v108h149v484h-149v108h712v-108h-149v-484h149v-108h-712zM314 108h172v484h-172v-484z" />
    <glyph glyph-name="uni2162" unicode="&#x2162;" horiz-adv-x="1092" 
d="M44 0v108h149v484h-149v108h1004v-108h-149v-484h149v-108h-1004zM314 108h172v484h-172v-484zM607 108h171v484h-171v-484z" />
    <glyph glyph-name="uni2163" unicode="&#x2163;" horiz-adv-x="1096" 
d="M44 0v108h149v484h-149v108h613v-108h-86l78 -282q5 -20 23.5 -88t28.5 -106q40 145 55 195l79 281h-90v108h331v-108h-119l-147 -484h148v-108h-914zM314 108h271l-142 484h-129v-484z" />
    <glyph glyph-name="uni2164" unicode="&#x2164;" horiz-adv-x="792" 
d="M135 0v108h146l-142 484h-119v108h333v-108h-86l78 -282q5 -20 23.5 -88t28.5 -106q40 145 55 195l79 281h-90v108h331v-108h-119l-147 -484h148v-108h-519z" />
    <glyph glyph-name="uni2165" unicode="&#x2165;" horiz-adv-x="1080" 
d="M135 0v108h146l-142 484h-119v108h333v-108h-86l78 -282q5 -20 23.5 -88t28.5 -106q40 145 55 195l79 281h-90v108h595v-108h-149v-484h149v-108h-901zM506 108h260v484h-113z" />
    <glyph glyph-name="uni2166" unicode="&#x2166;" horiz-adv-x="1372" 
d="M135 0v108h146l-142 484h-119v108h333v-108h-86l78 -282q5 -20 23.5 -88t28.5 -106q40 145 55 195l79 281h-90v108h888v-108h-149v-484h149v-108h-1194zM506 108h260v484h-113zM887 108h172v484h-172v-484z" />
    <glyph glyph-name="uni2167" unicode="&#x2167;" horiz-adv-x="1665" 
d="M135 0v108h146l-142 484h-119v108h333v-108h-86l78 -282q5 -20 23.5 -88t28.5 -106q40 145 55 195l79 281h-90v108h1181v-108h-149v-484h149v-108h-1487zM506 108h260v484h-113zM887 108h172v484h-172v-484zM1180 108h172v484h-172v-484z" />
    <glyph glyph-name="uni2168" unicode="&#x2168;" horiz-adv-x="1080" 
d="M44 0v108h149v484h-149v108h992v-108h-118l-164 -232l177 -252h105v-108h-992zM314 108h127l175 247l-166 237h-136v-484zM573 108h221l-48 69q-27 37 -62 93q-21 -33 -61 -91zM587 592l42 -61q4 -6 25 -36t33 -49q20 31 58 85l42 61h-200z" />
    <glyph glyph-name="uni2169" unicode="&#x2169;" horiz-adv-x="790" 
d="M151 108l175 247l-166 237h-116v108h702v-108h-118l-164 -232l177 -252h105v-108h-702v108h107zM283 108h221l-48 69q-27 37 -62 93q-21 -33 -61 -91zM297 592l42 -61q4 -6 25 -36t33 -49q20 31 58 85l42 61h-200z" />
    <glyph glyph-name="uni216C" unicode="&#x216c;" 
d="M44 0v108h149v484h-149v108h419v-108h-149v-484h175v133h121v-241h-566z" />
    <glyph glyph-name="uni216D" unicode="&#x216d;" horiz-adv-x="773" 
d="M391 -15q-145 0 -239 99.5t-94 265.5q0 165 97.5 265t238.5 100q129 0 197 -83v68h109v-241h-98q-49 151 -199 151q-97 0 -158.5 -70t-61.5 -190t61.5 -190t158.5 -70q153 0 199 151h98v-241h-111v67q-62 -82 -198 -82z" />
    <glyph glyph-name="uni216E" unicode="&#x216e;" horiz-adv-x="853" 
d="M50 0v108h150v484h-150v108h378q159 0 263 -97t104 -253t-104 -253t-263 -97h-378zM320 108h98q120 0 186 63t66 179t-66 179t-186 63h-98v-484z" />
    <glyph glyph-name="uni216F" unicode="&#x216f;" horiz-adv-x="1106" 
d="M44 0v108h148v484h-148v108h336l119 -383q31 -99 56 -196h1q28 104 53 185l121 394h332v-108h-148v-484h148v-108h-346v108h78v171q0 134 5 292l-181 -571h-129l-182 570q4 -131 4 -291v-171h78v-108h-345z" />
    <glyph glyph-name="arrowleft" unicode="&#x2190;" horiz-adv-x="876" 
d="M311 94l-256 256l256 256h160l-196 -196h540v-120h-540l196 -196h-160z" />
    <glyph glyph-name="arrowup" unicode="&#x2191;" horiz-adv-x="616" 
d="M52 343v161l256 256l256 -256v-161l-196 196v-539h-120v539z" />
    <glyph glyph-name="arrowright" unicode="&#x2192;" horiz-adv-x="876" 
d="M404 94l196 196h-539v120h539l-196 196h161l256 -256l-256 -256h-161z" />
    <glyph glyph-name="arrowdown" unicode="&#x2193;" horiz-adv-x="616" 
d="M564 357v-161l-256 -256l-256 256v161l196 -196v539h120v-539z" />
    <glyph glyph-name="uni2196" unicode="&#x2196;" horiz-adv-x="672" 
d="M175 224l-114 114v362h362l114 -114h-278l382 -381l-85 -85l-381 381v-277z" />
    <glyph glyph-name="uni2197" unicode="&#x2197;" horiz-adv-x="671" 
d="M134 586l114 114h362v-362l-113 -114v278l-382 -382l-84 85l380 381h-277z" />
    <glyph glyph-name="uni2198" unicode="&#x2198;" horiz-adv-x="671" 
d="M496 476l114 -114v-362h-362l-114 114h278l-382 381l85 85l381 -380v276z" />
    <glyph glyph-name="uni2199" unicode="&#x2199;" horiz-adv-x="671" 
d="M537 114l-114 -114h-362v362l114 114v-277l381 381l85 -85l-381 -381h277z" />
    <glyph glyph-name="partialdiff" unicode="&#x2202;" horiz-adv-x="550" 
d="M271 -15q-104 0 -165.5 73t-61.5 183q0 106 57 175t142 69q45 0 81 -18t53 -47q-18 99 -67.5 146.5t-133.5 47.5q-39 0 -87 -12v101q48 12 99 12q144 0 228.5 -108.5t84.5 -299.5q0 -160 -60.5 -241t-169.5 -81zM167 241q0 -71 28.5 -113t75.5 -42q51 0 79 41.5t28 112.5
q0 70 -28 107t-78 37q-48 0 -76.5 -37t-28.5 -106z" />
    <glyph glyph-name="emptyset" unicode="&#x2205;" horiz-adv-x="835" 
d="M417 -10q-107 0 -198 59l-40 -49h-98l80 97q-104 106 -104 253q0 149 105.5 254.5t254.5 105.5q108 0 197 -59l41 49h98l-80 -98q104 -106 104 -252q0 -149 -105.5 -254.5t-254.5 -105.5zM137 350q0 -109 74 -191l354 431q-68 44 -148 44q-115 0 -197.5 -84t-82.5 -200z
M269 110q68 -44 148 -44q115 0 197.5 84t82.5 200q0 109 -74 191z" />
    <glyph glyph-name="uni2206" unicode="&#x2206;" horiz-adv-x="703" 
d="M26 0v118l256 582h140l257 -582v-118h-653zM142 105h421l-209 487z" />
    <glyph glyph-name="product" unicode="&#x220f;" horiz-adv-x="711" 
d="M84 -120v820h544v-820h-121v713h-302v-713h-121z" />
    <glyph glyph-name="summation" unicode="&#x2211;" horiz-adv-x="578" 
d="M38 -120v102l252 306l-252 310v102h502v-107h-350l248 -302l-251 -304h353v-107h-502z" />
    <glyph glyph-name="minus" unicode="&#x2212;" horiz-adv-x="558" 
d="M58 209v105h442v-105h-442z" />
    <glyph glyph-name="uni2215" unicode="&#x2215;" horiz-adv-x="460" 
d="M14 -90l315 810h114l-315 -810h-114z" />
    <glyph glyph-name="radical" unicode="&#x221a;" horiz-adv-x="692" 
d="M195 0l-161 511h121l114 -395l144 584h260v-101h-169l-158 -599h-151z" />
    <glyph glyph-name="infinity" unicode="&#x221e;" horiz-adv-x="870" 
d="M246 156q-82 0 -135.5 52.5t-53.5 138.5q0 84 53 136t136 52q126 0 190 -109q67 109 188 109q82 0 136 -52.5t54 -135.5q0 -86 -53.5 -138.5t-136.5 -52.5q-121 0 -188 115q-67 -115 -190 -115zM177 347q0 -39 22.5 -62.5t56.5 -23.5q65 0 109 86q-45 83 -109 83
q-34 0 -56.5 -22.5t-22.5 -60.5zM505 347q45 -86 109 -86q34 0 56.5 23.5t22.5 62.5q0 37 -22.5 60t-56.5 23q-65 0 -109 -83z" />
    <glyph glyph-name="integral" unicode="&#x222b;" horiz-adv-x="432" 
d="M79 -128q-33 0 -62 4v95q30 -2 41 -2q60 0 82 24t22 85v439q0 187 192 187q31 0 59 -4v-96q-28 2 -37 2q-54 0 -73.5 -24t-19.5 -85v-441q0 -184 -204 -184z" />
    <glyph glyph-name="approxequal" unicode="&#x2248;" horiz-adv-x="634" 
d="M64 91q0 156 135 156q46 0 118.5 -29t95.5 -29q48 0 48 46h108q0 -151 -134 -151q-47 0 -120.5 28.5t-95.5 28.5q-47 0 -47 -50h-108zM64 291q0 156 135 156q46 0 118.5 -29t95.5 -29q48 0 48 46h108q0 -151 -134 -151q-47 0 -120.5 28.5t-95.5 28.5q-47 0 -47 -50h-108z
" />
    <glyph glyph-name="notequal" unicode="&#x2260;" horiz-adv-x="572" 
d="M136 0l39 106h-117v105h157l32 87h-189v105h228l38 102h111l-38 -102h117v-105h-156l-32 -87h188v-105h-228l-39 -106h-111z" />
    <glyph glyph-name="lessequal" unicode="&#x2264;" horiz-adv-x="563" 
d="M59 0v103h440v-103h-440zM59 285v148l440 149v-116l-329 -106l329 -110v-116z" />
    <glyph glyph-name="greaterequal" unicode="&#x2265;" horiz-adv-x="563" 
d="M504 0h-440v103h440v-103zM64 134v116l329 110l-329 106v116l440 -149v-148z" />
    <glyph glyph-name="angleleft" unicode="&#x2329;" horiz-adv-x="329" 
d="M197 -100l-174 425l174 425l99 -41l-155 -380l159 -387z" />
    <glyph glyph-name="angleright" unicode="&#x232a;" horiz-adv-x="329" 
d="M132 750l174 -425l-174 -425l-99 41l155 380l-159 387z" />
    <glyph glyph-name="uni2460" unicode="&#x2460;" horiz-adv-x="877" 
d="M439 -33q-161 0 -271.5 111.5t-110.5 271.5q0 162 110 272.5t272 110.5t272 -110.5t110 -272.5q0 -160 -110.5 -271.5t-271.5 -111.5zM120 350q0 -139 91.5 -233.5t227.5 -94.5t227.5 94.5t91.5 233.5q0 138 -92 233t-227 95t-227 -95t-92 -233zM285 395v70q62 0 97 27.5
t46 87.5h91v-460h-103v275h-131z" />
    <glyph glyph-name="uni2461" unicode="&#x2461;" horiz-adv-x="877" 
d="M439 -33q-161 0 -271.5 111.5t-110.5 271.5q0 162 110 272.5t272 110.5t272 -110.5t110 -272.5q0 -160 -110.5 -271.5t-271.5 -111.5zM120 350q0 -139 91.5 -233.5t227.5 -94.5t227.5 94.5t91.5 233.5q0 138 -92 233t-227 95t-227 -95t-92 -233zM256 122q4 79 39 130
t114 94l31 16q43 25 61.5 44t18.5 46t-18.5 43.5t-48.5 16.5q-36 0 -56.5 -23t-20.5 -64h-107q0 78 51 123t136 45q76 0 122 -40.5t46 -101.5q0 -85 -112 -147l-39 -21q-51 -28 -70.5 -43.5t-23.5 -32.5h240v-85h-363z" />
    <glyph glyph-name="uni2462" unicode="&#x2462;" horiz-adv-x="877" 
d="M439 -33q-161 0 -271.5 111.5t-110.5 271.5q0 162 110 272.5t272 110.5t272 -110.5t110 -272.5q0 -160 -110.5 -271.5t-271.5 -111.5zM120 350q0 -139 91.5 -233.5t227.5 -94.5t227.5 94.5t91.5 233.5q0 138 -92 233t-227 95t-227 -95t-92 -233zM256 252h104
q4 -30 26 -47t56 -17q33 0 54 18.5t21 44.5q0 31 -26 49t-72 18h-37v76h36q40 0 62 17.5t22 45.5q0 25 -18 41t-45 16q-62 0 -73 -63h-101q4 63 55 103t122 40q72 0 117.5 -36.5t45.5 -89.5q0 -77 -80 -103q95 -29 95 -117q0 -57 -48.5 -99t-127.5 -42q-81 0 -131.5 38
t-56.5 107z" />
    <glyph glyph-name="uni2463" unicode="&#x2463;" horiz-adv-x="877" 
d="M439 -33q-161 0 -271.5 111.5t-110.5 271.5q0 162 110 272.5t272 110.5t272 -110.5t110 -272.5q0 -160 -110.5 -271.5t-271.5 -111.5zM120 350q0 -139 91.5 -233.5t227.5 -94.5t227.5 94.5t91.5 233.5q0 138 -92 233t-227 95t-227 -95t-92 -233zM226 208v97l227 275h108
v-291h59v-82h-59v-87h-101v88h-234zM314 290h146v174z" />
    <glyph glyph-name="uni2464" unicode="&#x2464;" horiz-adv-x="877" 
d="M439 -33q-161 0 -271.5 111.5t-110.5 271.5q0 162 110 272.5t272 110.5t272 -110.5t110 -272.5q0 -160 -110.5 -271.5t-271.5 -111.5zM120 350q0 -139 91.5 -233.5t227.5 -94.5t227.5 94.5t91.5 233.5q0 138 -92 233t-227 95t-227 -95t-92 -233zM257 240h108
q6 -24 27 -37.5t50 -13.5q33 0 53.5 21t20.5 54q0 36 -19.5 57t-52.5 21q-45 0 -72 -38h-100l33 276h289v-83h-209l-14 -121q33 39 98 39q66 0 109 -40.5t43 -110.5t-50 -113.5t-129 -43.5q-76 0 -126 36t-59 97z" />
    <glyph glyph-name="uni2465" unicode="&#x2465;" horiz-adv-x="877" 
d="M439 -33q-161 0 -271.5 111.5t-110.5 271.5q0 162 110 272.5t272 110.5t272 -110.5t110 -272.5q0 -160 -110.5 -271.5t-271.5 -111.5zM120 350q0 -139 91.5 -233.5t227.5 -94.5t227.5 94.5t91.5 233.5q0 138 -92 233t-227 95t-227 -95t-92 -233zM242 346q0 113 53.5 180
t144.5 67q68 0 111.5 -33.5t51.5 -91.5h-101q-5 21 -22.5 34t-42.5 13q-46 0 -71 -40.5t-25 -113.5q35 60 112 60q70 0 115 -43t45 -110q0 -71 -49 -116t-126 -45q-92 0 -144 63.5t-52 175.5zM357 268q0 -36 21.5 -59t55.5 -23t55 22.5t21 59.5q0 36 -21 58t-55 22
q-33 0 -55 -23.5t-22 -56.5z" />
    <glyph glyph-name="uni2466" unicode="&#x2466;" horiz-adv-x="877" 
d="M439 -33q-161 0 -271.5 111.5t-110.5 271.5q0 162 110 272.5t272 110.5t272 -110.5t110 -272.5q0 -160 -110.5 -271.5t-271.5 -111.5zM120 350q0 -139 91.5 -233.5t227.5 -94.5t227.5 94.5t91.5 233.5q0 138 -92 233t-227 95t-227 -95t-92 -233zM286 494v86h323v-90
l-170 -370h-104l176 374h-225z" />
    <glyph glyph-name="uni2467" unicode="&#x2467;" horiz-adv-x="877" 
d="M439 -33q-161 0 -271.5 111.5t-110.5 271.5q0 162 110 272.5t272 110.5t272 -110.5t110 -272.5q0 -160 -110.5 -271.5t-271.5 -111.5zM120 350q0 -139 91.5 -233.5t227.5 -94.5t227.5 94.5t91.5 233.5q0 138 -92 233t-227 95t-227 -95t-92 -233zM251 248q0 42 26.5 73.5
t66.5 41.5q-35 12 -55.5 39t-20.5 64q0 51 47.5 89t123.5 38t123.5 -38t47.5 -89q0 -37 -21 -64t-56 -39q40 -10 67 -41.5t27 -73.5q0 -60 -52.5 -100.5t-135.5 -40.5q-84 0 -136 40.5t-52 100.5zM354 260q0 -32 24 -53t61 -21q38 0 61 20.5t23 53.5q0 32 -23 51.5t-61 19.5
t-61.5 -19.5t-23.5 -51.5zM371 458q0 -26 19 -43t49 -17q29 0 48 17t19 43q0 24 -19 39.5t-48 15.5q-30 0 -49 -15.5t-19 -39.5z" />
    <glyph glyph-name="uni2468" unicode="&#x2468;" horiz-adv-x="877" 
d="M439 -33q-161 0 -271.5 111.5t-110.5 271.5q0 162 110 272.5t272 110.5t272 -110.5t110 -272.5q0 -160 -110.5 -271.5t-271.5 -111.5zM120 350q0 -139 91.5 -233.5t227.5 -94.5t227.5 94.5t91.5 233.5q0 138 -92 233t-227 95t-227 -95t-92 -233zM264 432q0 71 49 116
t126 45q91 0 143.5 -64t52.5 -175q0 -113 -53.5 -180.5t-144.5 -67.5q-67 0 -111 33.5t-52 91.5h102q4 -21 21.5 -33.5t42.5 -12.5q46 0 71 39.5t25 113.5q-34 -59 -112 -59q-70 0 -115 43t-45 110zM367 432q0 -36 21 -58t55 -22q33 0 55 23.5t22 56.5q0 36 -21.5 59
t-55.5 23t-55 -22.5t-21 -59.5z" />
    <glyph glyph-name="uni24EA" unicode="&#x24ea;" horiz-adv-x="877" 
d="M439 -33q-161 0 -271.5 111.5t-110.5 271.5q0 162 110 272.5t272 110.5t272 -110.5t110 -272.5q0 -160 -110.5 -271.5t-271.5 -111.5zM120 350q0 -139 91.5 -233.5t227.5 -94.5t227.5 94.5t91.5 233.5q0 138 -92 233t-227 95t-227 -95t-92 -233zM245 350q0 115 55 179
t139 64q85 0 139 -63.5t54 -179.5q0 -118 -51 -180.5t-142 -62.5q-84 0 -139 63.5t-55 179.5zM352 350q0 -161 87 -161t87 161q0 160 -87 160t-87 -160z" />
    <glyph glyph-name="uni24FF" unicode="&#x24ff;" horiz-adv-x="835" 
d="M418 -15q156 0 258 104.5t102 260.5t-102 260.5t-258 104.5t-258 -104.5t-102 -260.5t102 -260.5t258 -104.5zM229 350q0 112 53.5 174.5t135.5 62.5t135.5 -62t53.5 -175q0 -115 -50 -176.5t-139 -61.5q-82 0 -135.5 62.5t-53.5 175.5zM332 350q0 -157 86 -157
q85 0 85 157q0 81 -20.5 118.5t-64.5 37.5q-86 0 -86 -156z" />
    <glyph glyph-name="filledbox" unicode="&#x25a0;" horiz-adv-x="867" 
d="M84 0v700h700v-700h-700z" />
    <glyph glyph-name="uni25A1" unicode="&#x25a1;" horiz-adv-x="867" 
d="M84 0v700h700v-700h-700zM204 120h459v460h-459v-460z" />
    <glyph glyph-name="triagup" unicode="&#x25b2;" horiz-adv-x="867" 
d="M15 0l418 735l418 -735h-836z" />
    <glyph glyph-name="uni25B3" unicode="&#x25b3;" horiz-adv-x="867" 
d="M15 0l418 735l418 -735h-836zM209 111h449l-225 395z" />
    <glyph glyph-name="uni25B6" unicode="&#x25b6;" horiz-adv-x="765" 
d="M96 -16v732l623 -366z" />
    <glyph glyph-name="uni25B7" unicode="&#x25b7;" horiz-adv-x="765" 
d="M96 -16v732l623 -366zM211 182l288 168l-288 168v-336z" />
    <glyph glyph-name="triagdn" unicode="&#x25bc;" horiz-adv-x="868" 
d="M852 700l-418 -735l-418 735h836z" />
    <glyph glyph-name="uni25BD" unicode="&#x25bd;" horiz-adv-x="868" 
d="M852 700l-418 -735l-418 735h836zM209 589l225 -395l224 395h-449z" />
    <glyph glyph-name="uni25C0" unicode="&#x25c0;" horiz-adv-x="765" 
d="M669 716v-732l-623 366z" />
    <glyph glyph-name="uni25C1" unicode="&#x25c1;" horiz-adv-x="765" 
d="M669 716v-732l-623 366zM266 350l288 -168v336z" />
    <glyph glyph-name="uni25C6" unicode="&#x25c6;" horiz-adv-x="915" 
d="M458 -63l-413 413l413 414l413 -414z" />
    <glyph glyph-name="uni25C7" unicode="&#x25c7;" horiz-adv-x="915" 
d="M458 -63l-413 413l413 414l413 -414zM209 350l249 -249l249 249l-249 250z" />
    <glyph glyph-name="lozenge" unicode="&#x25ca;" horiz-adv-x="621" 
d="M254 0l-205 350l205 350h113l205 -350l-205 -350h-113zM170 352l142 -241l138 236l-141 241z" />
    <glyph glyph-name="circle" unicode="&#x25cb;" horiz-adv-x="845" 
d="M423 -16q-152 0 -259 106.5t-107 259.5t107 259.5t259 106.5t259 -106.5t107 -259.5t-107 -259.5t-259 -106.5zM181 350q0 -104 70.5 -177t171.5 -73q102 0 172 72.5t70 177.5t-70 177.5t-172 72.5q-101 0 -171.5 -73t-70.5 -177z" />
    <glyph glyph-name="uni25CF" unicode="&#x25cf;" horiz-adv-x="845" 
d="M423 -16q-152 0 -259 106.5t-107 259.5t107 259.5t259 106.5t259 -106.5t107 -259.5t-107 -259.5t-259 -106.5z" />
    <glyph glyph-name="uni2661" unicode="&#x2661;" horiz-adv-x="836" 
d="M418 -20q-33 80 -81.5 133t-131.5 114q-62 45 -96 80t-55.5 82.5t-21.5 108.5q0 91 57.5 153t148.5 62q61 0 107.5 -28t72.5 -74q27 46 73 74t108 28q90 0 147.5 -62.5t57.5 -152.5q0 -88 -40 -146t-132 -125q-83 -60 -132 -113t-82 -134zM153 484q0 -53 30.5 -94
t91.5 -84q53 -39 87 -72t56 -77q22 44 56 77t87 72q61 44 92 84.5t31 93.5q0 56 -33.5 89.5t-88.5 33.5q-52 0 -91.5 -34.5t-52.5 -82.5q-13 48 -52 82.5t-92 34.5q-54 0 -87.5 -33.5t-33.5 -89.5z" />
    <glyph glyph-name="heart" unicode="&#x2665;" horiz-adv-x="840" 
d="M420 -20q-28 67 -80.5 121.5t-143.5 124.5q-90 69 -126.5 127.5t-36.5 141.5q0 90 57.5 154t149.5 64q64 0 112 -34.5t68 -83.5q20 49 68 83.5t112 34.5q92 0 149.5 -64t57.5 -154q0 -83 -36.5 -141.5t-126.5 -127.5q-91 -70 -143.5 -124.5t-80.5 -121.5z" />
    <glyph glyph-name="uni2776" unicode="&#x2776;" horiz-adv-x="835" 
d="M418 -15q156 0 258 104.5t102 260.5t-102 260.5t-258 104.5t-258 -104.5t-102 -260.5t102 -260.5t258 -104.5zM267 394v68q120 0 140 113h89v-450h-100v269h-129z" />
    <glyph glyph-name="uni2777" unicode="&#x2777;" horiz-adv-x="835" 
d="M418 -15q156 0 258 104.5t102 260.5t-102 260.5t-258 104.5t-258 -104.5t-102 -260.5t102 -260.5t258 -104.5zM240 127q3 78 37.5 127.5t111.5 91.5l30 16q43 24 61 42.5t18 45.5q0 26 -18 42.5t-48 16.5q-35 0 -55 -22.5t-20 -62.5h-105q0 76 50 120t133 44
q74 0 119.5 -40t45.5 -99q0 -82 -110 -144l-38 -21q-50 -27 -69 -41.5t-24 -31.5h235v-84h-354z" />
    <glyph glyph-name="uni2778" unicode="&#x2778;" horiz-adv-x="835" 
d="M418 -15q156 0 258 104.5t102 260.5t-102 260.5t-258 104.5t-258 -104.5t-102 -260.5t102 -260.5t258 -104.5zM240 254h101q4 -29 25.5 -45.5t54.5 -16.5q32 0 52.5 18t20.5 43q0 31 -25.5 48.5t-69.5 17.5h-37v74h36q38 0 60 17t22 45q0 24 -17 39.5t-44 15.5
q-29 0 -48.5 -16t-23.5 -45h-99q4 61 54 100.5t119 39.5q70 0 114.5 -35.5t44.5 -87.5q0 -75 -78 -102q93 -25 93 -114q0 -55 -47 -96t-125 -41q-79 0 -128.5 37t-54.5 104z" />
    <glyph glyph-name="uni2779" unicode="&#x2779;" horiz-adv-x="835" 
d="M418 -15q156 0 258 104.5t102 260.5t-102 260.5t-258 104.5t-258 -104.5t-102 -260.5t102 -260.5t258 -104.5zM210 211v95l223 269h105v-284h57v-80h-57v-86h-98v86h-230zM296 292h144v169z" />
    <glyph glyph-name="uni277A" unicode="&#x277a;" horiz-adv-x="835" 
d="M418 -15q156 0 258 104.5t102 260.5t-102 260.5t-258 104.5t-258 -104.5t-102 -260.5t102 -260.5t258 -104.5zM240 242h105q6 -23 26.5 -36t48.5 -13q33 0 53 20.5t20 52.5q0 35 -19 56t-51 21q-45 0 -72 -38h-97l32 270h283v-81h-204l-14 -119q31 39 95 39
q65 0 107 -39.5t42 -108.5t-49 -111.5t-126 -42.5q-74 0 -123 35.5t-57 94.5z" />
    <glyph glyph-name="uni277B" unicode="&#x277b;" horiz-adv-x="835" 
d="M418 -15q156 0 258 104.5t102 260.5t-102 260.5t-258 104.5t-258 -104.5t-102 -260.5t102 -260.5t258 -104.5zM226 346q0 111 52 176.5t141 65.5q66 0 108.5 -33t50.5 -89h-99q-4 20 -21.5 33t-41.5 13q-45 0 -69.5 -39.5t-24.5 -111.5q35 58 109 58q69 0 113 -41.5
t44 -107.5q0 -70 -48 -114t-123 -44q-89 0 -140 62.5t-51 171.5zM337 270q0 -35 21 -58t55 -23q33 0 53.5 22.5t20.5 58.5q0 35 -20 56.5t-54 21.5q-32 0 -54 -23t-22 -55z" />
    <glyph glyph-name="uni277C" unicode="&#x277c;" horiz-adv-x="835" 
d="M418 -15q156 0 258 104.5t102 260.5t-102 260.5t-258 104.5t-258 -104.5t-102 -260.5t102 -260.5t258 -104.5zM268 490v85h316v-88l-166 -362h-101l172 365h-221z" />
    <glyph glyph-name="uni277D" unicode="&#x277d;" horiz-adv-x="835" 
d="M418 -15q156 0 258 104.5t102 260.5t-102 260.5t-258 104.5t-258 -104.5t-102 -260.5t102 -260.5t258 -104.5zM234 250q0 41 26 72t65 41q-34 12 -54 38.5t-20 61.5q0 50 46.5 87t120.5 37q75 0 121 -37t46 -87q0 -35 -20 -61.5t-55 -38.5q40 -10 66 -41t26 -72
q0 -59 -51 -98.5t-133 -39.5t-133 39.5t-51 98.5zM335 262q0 -32 23 -52.5t60 -20.5t60 20.5t23 52.5q0 31 -23 50t-60 19t-60 -19t-23 -50zM352 455q0 -24 18.5 -41t47.5 -17t47.5 17t18.5 41t-18.5 39.5t-47.5 15.5t-47.5 -15.5t-18.5 -39.5z" />
    <glyph glyph-name="uni277E" unicode="&#x277e;" horiz-adv-x="835" 
d="M418 -15q156 0 258 104.5t102 260.5t-102 260.5t-258 104.5t-258 -104.5t-102 -260.5t102 -260.5t258 -104.5zM247 430q0 70 48 114t124 44q89 0 140 -62.5t51 -171.5q0 -111 -52.5 -176.5t-141.5 -65.5q-66 0 -109 32.5t-50 89.5h99q5 -20 22.5 -33t41.5 -13
q45 0 69 39.5t24 111.5q-15 -27 -44 -42.5t-65 -15.5q-69 0 -113 41.5t-44 107.5zM348 430q0 -35 20 -56.5t54 -21.5q32 0 54 23t22 55q0 35 -21 57.5t-55 22.5q-33 0 -53.5 -22t-20.5 -58z" />
    <glyph glyph-name="uni2B1B" unicode="&#x2b1b;" horiz-adv-x="1008" 
d="M84 770h840v-840h-840v840z" />
    <glyph glyph-name="uni2B1C" unicode="&#x2b1c;" horiz-adv-x="1008" 
d="M84 770h840v-840h-840v840zM205 50h599v600h-599v-600z" />
    <glyph glyph-name="uni300A" unicode="&#x300a;" horiz-adv-x="520" 
d="M389 -100l-174 425l174 425l99 -41l-155 -380l158 -387zM23 325l174 425l99 -41l-155 -380l159 -387l-103 -42z" />
    <glyph glyph-name="uni300B" unicode="&#x300b;" horiz-adv-x="520" 
d="M131 750l174 -425l-174 -425l-99 41l155 380l-158 387zM220 708l103 42l174 -425l-174 -425l-99 41l155 380z" />
    <glyph glyph-name="uni300C" unicode="&#x300c;" horiz-adv-x="369" 
d="M80 250v490h276v-103h-167v-387h-109z" />
    <glyph glyph-name="uni300D" unicode="&#x300d;" horiz-adv-x="360" 
d="M289 400v-490h-276v103h167v387h109z" />
    <glyph glyph-name="uni300E" unicode="&#x300e;" horiz-adv-x="456" 
d="M80 220v520h353v-167h-166v-353h-187zM153 282h41v356h178v37h-219v-393z" />
    <glyph glyph-name="uni300F" unicode="&#x300f;" horiz-adv-x="450" 
d="M375 430v-520h-353v167h166v353h187zM83 -25h219v393h-41v-356h-178v-37z" />
    <glyph glyph-name="uni3010" unicode="&#x3010;" horiz-adv-x="352" 
d="M81 -90v830h256q-140 -193 -140 -415t140 -415h-256z" />
    <glyph glyph-name="uni3011" unicode="&#x3011;" horiz-adv-x="352" 
d="M271 740v-830h-256q140 193 140 415t-140 415h256z" />
    <glyph glyph-name="uni3014" unicode="&#x3014;" horiz-adv-x="324" 
d="M230 -108l-174 190v486l174 190l77 -77l-142 -154v-399l144 -157z" />
    <glyph glyph-name="uni3015" unicode="&#x3015;" horiz-adv-x="324" 
d="M94 758l174 -190v-486l-174 -190l-77 77l142 154v399l-144 157z" />
    <glyph glyph-name="uniF8FF" unicode="&#xf8ff;" horiz-adv-x="1098" 
d="M533 416q-24 0 -59 5q-72 8 -122 48q-48 40 -58 92q-1 5 -1 21q0 20 -2 27l-9 -6q-29 -18 -43 -18q-9 0 -17 5q-12 12 -12 25q0 18 18 34l17 -21q-8 -8 -8 -13q0 -2 2 -4q3 0 10 3q6 3 18 11q23 14 31 12q15 -1 20 -25q2 -9 2 -29v-16q11 -46 49 -78t100 -41q5 18 54 24
h3q25 3 39.5 -6t16.5 -19q2 1 5 1t4 1q59 12 102 84q35 59 24 95l-1 1q-5 12 -10 18.5t-24.5 13.5t-51.5 5q-2 -1 -8 -1q-53 0 -73 -11q-15 -10 -19 -20l-8 -22l-15 19q-33 45 -90 29q-4 -2 -6 -2q-25 -8 -39 -6q-6 2 -12 -4q-16 -12 -28 -8q-79 29 -129 1q-34 -19 -55 -66
l-4 -10q30 16 68 16q50 0 68 -23l-21 -17q-9 13 -47 13q-57 0 -82 -34l-34 -45l11 56q7 33 17 55q26 55 66 78q62 35 150 2l1 1q16 16 37 11q1 0 25 5q4 2 6 2q34 10 65 1q25 -8 42 -25q12 12 20 16q26 15 86 15h6q31 2 53 -2.5t34 -15t16.5 -17.5t9.5 -18l1 -2
q15 -46 -25 -117q-45 -81 -121 -97q-34 -7 -63 -7zM65 49q11 16 35 14q29 -4 45 4.5t19 21.5q6 36 -25 94q-9 14 -10 21q-9 28 4 63q9 32 2 50q-32 81 13 137q23 26 56.5 37.5t66.5 4.5l2 -1h1q31 -21 88 -87q12 -14 16 -21q18 -33 -5 -64q-24 -33 -63 -23q-18 3 -21 -2
q-1 0 -1 -3q0 -5 5 -10q14 -11 15 -22q2 -15 -12 -44q-2 -3 3 -17t3 -23q-5 -22 -31 -22q-3 0 -4 -1q-1 -4 4 -8q18 -15 18 -36h-27q0 10 -8 16q-17 11 -14 32q3 23 28 23l7 1q1 0 1 1q0 4 -2 8q-9 24 -3 38q11 20 11 29l-4 4q-16 13 -17 31q0 16 11 24q15 12 44 7
q24 -6 35 13q13 17 4 34q-8 12 -13 18q-56 67 -79 79q-25 5 -51.5 -4.5t-42.5 -28.5q-14 -17 -19 -45q-6 -29 10 -65q11 -31 -1 -68q-11 -28 -5 -47q0 -1 3 -7l5 -10q0 -1 4 -8.5t5 -9t4.5 -9.5t4.5 -11t4 -10.5t3.5 -12t2 -12t2 -13t0 -12.5t-1.5 -13q-5 -24 -29 -39
q-28 -15 -64 -9q-7 0 -8 -1q-6 -8 1 -19l-23 -15q-15 27 -2 48zM134 3q1 14 16 24q7 5 26 10q17 5 20 9l20 -18q-9 -10 -34 -17q-10 -2 -17 -6q-1 0 -1 -1q19 -2 42 7q10 2 15 -5q11 -13 40 -5q10 3 12 10q0 2 -1 3l-3 3q-14 12 -14 23q0 9 7 16q9 8 27 5q1 -1 4 -1q2 0 4 2
v4q-2 5 -9 6q-9 2 -16 -6l-20 18q17 19 41 14q22 -3 29 -23q5 -14 -2 -25q-6 -13 -21 -16q-3 -1 -8 -1l1 -1q10 -12 7 -28q-6 -21 -30 -29q-13 -4 -26 -4q-22 0 -36 12q-1 0 -8 -1.5t-11 -2.5q-33 -6 -47 8q-7 6 -7 16zM319 213l21 17q54 -67 187 -70q128 -3 210 51l15 -23
q-43 -28 -103 -42q-53 -12 -110 -12h-12q-61 0 -118 20q-60 21 -90 59zM335 541q34 8 46 10q15 0 21 -4q5 -4 3.5 -11t-7.5 -7t-24 11q-14 7 -39 1zM443 489q-7 14 4 28q11 15 37 22q29 7 75 1q21 -1 32 -16q9 -14 6 -29q-1 -2 -2 -5t-2 -4l-2 -4l-17 -1q0 1 4 13l2 4
q2 10 -3 16q-5 7 -20 10q-78 8 -97 -17q-3 -7 -2 -11zM474 499q0 8 7 8q5 1 6 -4t-2 -7q-4 -1 -6 -1t-3.5 1.5t-1.5 2.5zM487 446q49 -5 79 -1q-9 13 -38 10h-4q-1 0 -11 -1.5t-15 -2.5q-3 -1 -6 -3t-5 -2zM556 496q-1 1 -1 4t1 4q4 1 7 -0.5t4 -4t0 -4.5q-2 -3 -6.5 -2.5
t-4.5 3.5zM638 542q-1 14 23 14q5 0 19.5 -2.5t20.5 -2.5q0 -1 -3.5 -1.5t-8 -1.5t-5.5 -1q-3 -1 -10.5 -5.5t-15.5 -7.5q-6 -2 -12.5 0t-7.5 8zM652 310q0 9 2 23q4 34 23 60q24 33 41 45t57 26q34 12 68 7q34 -6 55 -27q19 -19 24 -47q4 -28 -8 -63q-12 -34 -4 -47
q5 -10 5 -17q0 -9 -6 -31q-7 -31 -5.5 -40.5t11.5 -15.5q27 -15 29 -38q1 -14 -8 -32q-2 -4 -2 -6q2 -2 10 -2q4 0 13.5 0.5t14.5 0.5q14 2 19 2q35 0 53 -18q11 -11 9 -26q0 -18 -18 -28q-18 -8 -32 1l14 23q3 -2 6 0q2 0 4 5q0 4 -3 7q-9 9 -33 9q-10 0 -17 -1
q-51 -8 -65 13q-6 11 3 31q7 10 5.5 19t-15.5 17q-25 14 -25 42q-1 13 6 43q5 15 5 24q0 3 -2 6q-13 25 3 68q20 52 -10 82q-35 35 -96 14q-34 -11 -49 -21.5t-36 -40.5q-12 -17 -17 -48q-5 -28 1 -34q7 0 20 12q17 14 35.5 15t26.5 -10q20 -18 0 -42l-1 -2q-1 0 -1 -1
q7 -7 19 -17q20 -17 7 -44q-4 -13 -3 -17l6 -4q12 -7 16 -13q7 -13 -1 -29q-11 -22 -16 -55l34 -6q10 -3 19 -14q9 -8 16 -11q9 -3 12 0q0 2 -1 3l21 17q14 -17 2 -35q-14 -19 -42 -10q-16 5 -28 19q-4 5 -6 5q-6 2 -14 2q-36 7 -41 17q-2 7 1 13q4 36 19 67q2 2 2 3l-6 4
q-15 7 -19 20q-3 15 5 34q4 9 -1 14q-23 19 -27 29q-5 12 6 26l1 1q4 4 3 7q-9 9 -26 -7q-17 -14 -29 -17q-16 -5 -27 6q-12 11 -12 35zM781 585q-1 11 -1.5 17t1.5 15t3 12.5t4 11t4 9.5l2 3q7 18 25.5 26.5t37.5 2.5q86 -26 121 -84q11 -19 13 -24l2 -3q35 -21 53 -51
q22 -36 22 -79q-5 -43 -27 -62l-27 -24l4 36q2 12 -3.5 36t-15.5 43q-6 10 -18 19q-8 5 -25 5q-6 0 -16 2q-15 3 -22 15q-9 13 -7 26q-4 2 -10 2q-3 0 -12 -7q-14 -11 -20 -13q-30 -10 -55 17q-4 2 -5 5q-7 3 -19 19q-6 8 -9 25zM808 588q0 -3 5 -14q1 -4 12 -12l9 -9
q13 -14 27 -8q7 3 12 8q15 13 29 13q3 0 1 13l-45 16q2 5 17 11t27 3q40 -9 37 -62q0 -3 -0.5 -7t-1 -6.5t-0.5 -5t1 -3.5t3 -1l1 -1q2 -1 3 -1q4 -1 13 -1q24 0 38 -9q18 -13 26 -27q10 -18 17 -45q3 34 -16 65q-21 32 -47 45q-2 1 -5 6l-4 8l-12 20q-13 24 -38 39.5
t-68 32.5q-22 9 -31 -14l-1 -2q-12 -31 -9 -52zM903 63q18 8 48 -11q8 -7 14 -8q1 -1 3 0l-2 4l10 24q13 -5 18 -22q3 -12 -5 -22q-13 -14 -31 -10q-5 1 -22 11q-18 12 -23 9z" />
    <glyph glyph-name="A.ss07" horiz-adv-x="695" 
d="M77 442q0 130 74.5 201.5t196.5 71.5t196 -71.5t74 -201.5v-442h-125v210h-291v-210h-125v442zM202 315h291v112q0 183 -145 183q-146 0 -146 -183v-112z" />
    <glyph glyph-name="Aacute.ss07" horiz-adv-x="695" 
d="M77 442q0 130 74.5 201.5t196.5 71.5t196 -71.5t74 -201.5v-442h-125v210h-291v-210h-125v442zM202 315h291v112q0 183 -145 183q-146 0 -146 -183v-112zM292 760l107 122h146l-145 -122h-108z" />
    <glyph glyph-name="Abreve.ss07" horiz-adv-x="695" 
d="M77 442q0 130 74.5 201.5t196.5 71.5t196 -71.5t74 -201.5v-442h-125v210h-291v-210h-125v442zM176 881h114q5 -51 57 -51t57 51h114q0 -60 -48 -95.5t-123 -35.5q-74 0 -122.5 35.5t-48.5 95.5zM202 315h291v112q0 183 -145 183q-146 0 -146 -183v-112z" />
    <glyph glyph-name="uni1EAE.ss07" horiz-adv-x="695" 
d="M77 442q0 130 74.5 201.5t196.5 71.5t196 -71.5t74 -201.5v-442h-125v210h-291v-210h-125v442zM176 881h114q5 -51 57 -51t57 51h114q0 -60 -48 -95.5t-123 -35.5q-74 0 -122.5 35.5t-48.5 95.5zM202 315h291v112q0 183 -145 183q-146 0 -146 -183v-112zM291 920l107 122
h146l-145 -122h-108z" />
    <glyph glyph-name="uni1EB6.ss07" horiz-adv-x="695" 
d="M77 442q0 130 74.5 201.5t196.5 71.5t196 -71.5t74 -201.5v-442h-125v210h-291v-210h-125v442zM176 881h114q5 -51 57 -51t57 51h114q0 -60 -48 -95.5t-123 -35.5q-74 0 -122.5 35.5t-48.5 95.5zM202 315h291v112q0 183 -145 183q-146 0 -146 -183v-112zM285 -179v113
h125v-113h-125z" />
    <glyph glyph-name="uni1EB6.ss07.ss15" horiz-adv-x="695" 
d="M77 442q0 130 74.5 201.5t196.5 71.5t196 -71.5t74 -201.5v-442h-125v210h-291v-210h-125v442zM176 881h114q5 -51 57 -51t57 51h114q0 -60 -48 -95.5t-123 -35.5q-74 0 -122.5 35.5t-48.5 95.5zM202 315h291v112q0 183 -145 183q-146 0 -146 -183v-112zM280 -124
q0 28 19.5 47.5t47.5 19.5t47.5 -19.5t19.5 -47.5t-19.5 -48t-47.5 -20t-47.5 20t-19.5 48z" />
    <glyph glyph-name="uni1EB6.ss15" horiz-adv-x="660" 
d="M1 0l261 700h138l258 -700h-134l-50 146h-292l-50 -146h-131zM160 881h114q5 -51 57 -51t57 51h114q0 -60 -48 -95.5t-123 -35.5q-74 0 -122.5 35.5t-48.5 95.5zM219 251h219l-47 138q-6 17 -62 180h-1q-45 -136 -62 -181zM264 -124q0 28 19.5 47.5t47.5 19.5t47.5 -19.5
t19.5 -47.5t-19.5 -48t-47.5 -20t-47.5 20t-19.5 48z" />
    <glyph glyph-name="uni1EB0.ss07" horiz-adv-x="695" 
d="M77 442q0 130 74.5 201.5t196.5 71.5t196 -71.5t74 -201.5v-442h-125v210h-291v-210h-125v442zM148 1040h146l107 -122h-107zM177 881h114q5 -51 57 -51t57 51h114q0 -60 -48 -95.5t-123 -35.5q-74 0 -122.5 35.5t-48.5 95.5zM202 315h291v112q0 183 -145 183
q-146 0 -146 -183v-112z" />
    <glyph glyph-name="uni1EB2.ss07" horiz-adv-x="695" 
d="M77 442q0 130 74.5 201.5t196.5 71.5t196 -71.5t74 -201.5v-442h-125v210h-291v-210h-125v442zM176 881h114q5 -51 57 -51t57 51h114q0 -60 -48 -95.5t-123 -35.5q-74 0 -122.5 35.5t-48.5 95.5zM202 315h291v112q0 183 -145 183q-146 0 -146 -183v-112zM273 984v80
q52 21 89 21q48 0 77 -23t29 -64q0 -89 -139 -111l-42 46q92 23 92 50q0 24 -32 24q-33 0 -74 -23z" />
    <glyph glyph-name="uni1EB4.ss07" horiz-adv-x="695" 
d="M77 442q0 130 74.5 201.5t196.5 71.5t196 -71.5t74 -201.5v-442h-125v210h-291v-210h-125v442zM159 925q0 60 32 91.5t80 31.5q37 0 81 -24t59 -24q31 0 33 38h94q0 -60 -32 -91.5t-80 -31.5q-37 0 -82 24.5t-61 24.5q-29 0 -33 -39h-91zM177 881h114q5 -51 57 -51t57 51
h114q0 -60 -48 -95.5t-123 -35.5q-74 0 -122.5 35.5t-48.5 95.5zM202 315h291v112q0 183 -145 183q-146 0 -146 -183v-112z" />
    <glyph glyph-name="Acircumflex.ss07" horiz-adv-x="695" 
d="M77 442q0 130 74.5 201.5t196.5 71.5t196 -71.5t74 -201.5v-442h-125v210h-291v-210h-125v442zM166 759l115 122h133l116 -122h-118l-63 55l-64 -55h-119zM202 315h291v112q0 183 -145 183q-146 0 -146 -183v-112z" />
    <glyph glyph-name="uni1EA4.ss07" horiz-adv-x="695" 
d="M77 442q0 130 74.5 201.5t196.5 71.5t196 -71.5t74 -201.5v-442h-125v210h-291v-210h-125v442zM166 759l115 122h133l116 -122h-118l-63 55l-64 -55h-119zM202 315h291v112q0 183 -145 183q-146 0 -146 -183v-112zM454 880l107 122h146l-145 -122h-108z" />
    <glyph glyph-name="uni1EAC.ss07" horiz-adv-x="695" 
d="M77 442q0 130 74.5 201.5t196.5 71.5t196 -71.5t74 -201.5v-442h-125v210h-291v-210h-125v442zM166 759l115 122h133l116 -122h-118l-63 55l-64 -55h-119zM202 315h291v112q0 183 -145 183q-146 0 -146 -183v-112zM285 -179v113h125v-113h-125z" />
    <glyph glyph-name="uni1EAC.ss07.ss15" horiz-adv-x="695" 
d="M77 442q0 130 74.5 201.5t196.5 71.5t196 -71.5t74 -201.5v-442h-125v210h-291v-210h-125v442zM166 759l115 122h133l116 -122h-118l-63 55l-64 -55h-119zM202 315h291v112q0 183 -145 183q-146 0 -146 -183v-112zM280 -124q0 28 19.5 47.5t47.5 19.5t47.5 -19.5
t19.5 -47.5t-19.5 -48t-47.5 -20t-47.5 20t-19.5 48z" />
    <glyph glyph-name="uni1EAC.ss15" horiz-adv-x="660" 
d="M1 0l261 700h138l258 -700h-134l-50 146h-292l-50 -146h-131zM150 759l115 122h133l116 -122h-118l-63 55l-64 -55h-119zM219 251h219l-47 138q-6 17 -62 180h-1q-45 -136 -62 -181zM264 -124q0 28 19.5 47.5t47.5 19.5t47.5 -19.5t19.5 -47.5t-19.5 -48t-47.5 -20
t-47.5 20t-19.5 48z" />
    <glyph glyph-name="uni1EA6.ss07" horiz-adv-x="695" 
d="M77 442q0 130 74.5 201.5t196.5 71.5t196 -71.5t74 -201.5v-442h-125v210h-291v-210h-125v442zM166 759l115 122h133l116 -122h-118l-63 55l-64 -55h-119zM202 315h291v112q0 183 -145 183q-146 0 -146 -183v-112zM311 1002h146l107 -122h-107z" />
    <glyph glyph-name="uni1EA8.ss07" horiz-adv-x="695" 
d="M77 442q0 130 74.5 201.5t196.5 71.5t196 -71.5t74 -201.5v-442h-125v210h-291v-210h-125v442zM166 759l115 122h133l116 -122h-118l-63 55l-64 -55h-119zM202 315h291v112q0 183 -145 183q-146 0 -146 -183v-112zM436 946v80q52 21 89 21q48 0 77 -23t29 -64
q0 -89 -139 -111l-42 46q92 23 92 50q0 24 -32 24q-33 0 -74 -23z" />
    <glyph glyph-name="uni1EAA.ss07" horiz-adv-x="695" 
d="M77 442q0 130 74.5 201.5t196.5 71.5t196 -71.5t74 -201.5v-442h-125v210h-291v-210h-125v442zM158 929q0 60 32 91.5t80 31.5q37 0 81 -24t59 -24q31 0 33 38h94q0 -60 -32 -91.5t-80 -31.5q-37 0 -82 24.5t-61 24.5q-29 0 -33 -39h-91zM165 759l115 122h133l116 -122
h-118l-63 55l-64 -55h-119zM202 315h291v112q0 183 -145 183q-146 0 -146 -183v-112z" />
    <glyph glyph-name="Adieresis.ss07" horiz-adv-x="695" 
d="M77 442q0 130 74.5 201.5t196.5 71.5t196 -71.5t74 -201.5v-442h-125v210h-291v-210h-125v442zM161 760v124h132v-124h-132zM202 315h291v112q0 183 -145 183q-146 0 -146 -183v-112zM402 760v124h132v-124h-132z" />
    <glyph glyph-name="Adieresis.ss07.ss15" horiz-adv-x="695" 
d="M77 442q0 130 74.5 201.5t196.5 71.5t196 -71.5t74 -201.5v-442h-125v210h-291v-210h-125v442zM152 831q0 31 22 53t54 22q31 0 53 -22t22 -53q0 -32 -22 -54t-53 -22q-32 0 -54 22t-22 54zM202 315h291v112q0 183 -145 183q-146 0 -146 -183v-112zM392 831q0 31 22 53
t53 22q32 0 54 -22t22 -53q0 -32 -22 -54t-54 -22t-53.5 22t-21.5 54z" />
    <glyph glyph-name="Adieresis.ss15" horiz-adv-x="660" 
d="M1 0l261 700h138l258 -700h-134l-50 146h-292l-50 -146h-131zM136 831q0 31 22 53t54 22q31 0 53 -22t22 -53q0 -32 -22 -54t-53 -22q-32 0 -54 22t-22 54zM219 251h219l-47 138q-6 17 -62 180h-1q-45 -136 -62 -181zM376 831q0 31 22 53t53 22q32 0 54 -22t22 -53
q0 -32 -22 -54t-54 -22t-53.5 22t-21.5 54z" />
    <glyph glyph-name="uni1EA0.ss07" horiz-adv-x="695" 
d="M77 442q0 130 74.5 201.5t196.5 71.5t196 -71.5t74 -201.5v-442h-125v210h-291v-210h-125v442zM202 315h291v112q0 183 -145 183q-146 0 -146 -183v-112zM285 -179v113h125v-113h-125z" />
    <glyph glyph-name="uni1EA0.ss07.ss15" horiz-adv-x="695" 
d="M77 442q0 130 74.5 201.5t196.5 71.5t196 -71.5t74 -201.5v-442h-125v210h-291v-210h-125v442zM202 315h291v112q0 183 -145 183q-146 0 -146 -183v-112zM280 -124q0 28 19.5 47.5t47.5 19.5t47.5 -19.5t19.5 -47.5t-19.5 -48t-47.5 -20t-47.5 20t-19.5 48z" />
    <glyph glyph-name="uni1EA0.ss15" horiz-adv-x="660" 
d="M1 0l261 700h138l258 -700h-134l-50 146h-292l-50 -146h-131zM219 251h219l-47 138q-6 17 -62 180h-1q-45 -136 -62 -181zM264 -124q0 28 19.5 47.5t47.5 19.5t47.5 -19.5t19.5 -47.5t-19.5 -48t-47.5 -20t-47.5 20t-19.5 48z" />
    <glyph glyph-name="Agrave.ss07" horiz-adv-x="695" 
d="M77 442q0 130 74.5 201.5t196.5 71.5t196 -71.5t74 -201.5v-442h-125v210h-291v-210h-125v442zM148 882h146l107 -122h-107zM202 315h291v112q0 183 -145 183q-146 0 -146 -183v-112z" />
    <glyph glyph-name="uni1EA2.ss07" horiz-adv-x="695" 
d="M77 442q0 130 74.5 201.5t196.5 71.5t196 -71.5t74 -201.5v-442h-125v210h-291v-210h-125v442zM202 315h291v112q0 183 -145 183q-146 0 -146 -183v-112zM273 826v80q52 21 89 21q48 0 77 -23t29 -64q0 -89 -139 -111l-42 46q92 23 92 50q0 24 -32 24q-33 0 -74 -23z" />
    <glyph glyph-name="Amacron.ss07" horiz-adv-x="695" 
d="M77 442q0 130 74.5 201.5t196.5 71.5t196 -71.5t74 -201.5v-442h-125v210h-291v-210h-125v442zM161 775v92h373v-92h-373zM202 315h291v112q0 183 -145 183q-146 0 -146 -183v-112z" />
    <glyph glyph-name="Aogonek.ss07" horiz-adv-x="695" 
d="M77 442q0 130 74.5 201.5t196.5 71.5t196 -71.5t74 -201.5v-442q-47 -21 -77 -47.5t-30 -48.5q0 -31 41 -31q28 0 57 13v-76q-35 -15 -87 -15q-49 0 -81 21t-32 61q0 39 33.5 70.5t83.5 52.5h-33v210h-291v-210h-125v442zM202 315h291v112q0 183 -145 183
q-146 0 -146 -183v-112z" />
    <glyph glyph-name="Aring.ss07" horiz-adv-x="695" 
d="M77 442q0 130 74.5 201.5t196.5 71.5t196 -71.5t74 -201.5v-442h-125v210h-291v-210h-125v442zM202 315h291v112q0 183 -145 183q-146 0 -146 -183v-112zM251 830q0 38 28 63.5t69 25.5q40 0 68 -25.5t28 -63.5q0 -39 -28 -64t-68 -25q-41 0 -69 25t-28 64zM312 830
q0 -16 10 -26t26 -10q15 0 25 10t10 26t-10 26t-25 10q-16 0 -26 -10t-10 -26z" />
    <glyph glyph-name="Atilde.ss07" horiz-adv-x="695" 
d="M77 442q0 130 74.5 201.5t196.5 71.5t196 -71.5t74 -201.5v-442h-125v210h-291v-210h-125v442zM158 762q0 60 32 91.5t80 31.5q37 0 81 -24t59 -24q31 0 33 38h94q0 -60 -32 -91.5t-80 -31.5q-37 0 -82 24.5t-61 24.5q-29 0 -33 -39h-91zM202 315h291v112q0 183 -145 183
q-146 0 -146 -183v-112z" />
    <glyph glyph-name="AE.ss07" horiz-adv-x="1030" 
d="M77 442q0 122 74.5 190t196.5 68h629v-107h-364v-181h309v-105h-309v-200h369v-107h-494v210h-286v-210h-125v442zM202 315h286v278h-140q-146 0 -146 -166v-112z" />
    <glyph glyph-name="Cdotaccent.ss15" horiz-adv-x="733" 
d="M390 -15q-153 0 -249.5 98.5t-96.5 266.5q0 165 100 265t246 100q68 0 124 -20t92.5 -53.5t59 -72.5t31.5 -82h-129q-14 48 -58.5 83.5t-116.5 35.5q-97 0 -156.5 -68t-59.5 -188t60 -188t156 -68q72 0 116.5 35.5t58.5 83.5h129q-9 -43 -31.5 -82t-59 -72.5t-92.5 -53.5
t-124 -20zM307 833q0 32 23.5 54.5t55.5 22.5q31 0 54.5 -22.5t23.5 -54.5t-23.5 -55t-54.5 -23q-32 0 -55.5 23t-23.5 55z" />
    <glyph glyph-name="uni1EC6.ss15" horiz-adv-x="626" 
d="M84 0v700h489v-107h-364v-181h309v-105h-309v-200h369v-107h-494zM147 759l115 122h133l116 -122h-118l-63 55l-64 -55h-119zM262 -124q0 28 19.5 47.5t47.5 19.5t47.5 -19.5t19.5 -47.5t-19.5 -48t-47.5 -20t-47.5 20t-19.5 48z" />
    <glyph glyph-name="Edieresis.ss15" horiz-adv-x="626" 
d="M84 0v700h489v-107h-364v-181h309v-105h-309v-200h369v-107h-494zM133 831q0 31 22 53t54 22q31 0 53 -22t22 -53q0 -32 -22 -54t-53 -22q-32 0 -54 22t-22 54zM373 831q0 31 21.5 53t53.5 22t54 -22t22 -53q0 -32 -22 -54t-54 -22t-53.5 22t-21.5 54z" />
    <glyph glyph-name="Edotaccent.ss15" horiz-adv-x="626" 
d="M84 0v700h489v-107h-364v-181h309v-105h-309v-200h369v-107h-494zM250 833q0 32 23.5 54.5t55.5 22.5q31 0 54.5 -22.5t23.5 -54.5t-23.5 -55t-54.5 -23q-32 0 -55.5 23t-23.5 55z" />
    <glyph glyph-name="uni1EB8.ss15" horiz-adv-x="626" 
d="M84 0v700h489v-107h-364v-181h309v-105h-309v-200h369v-107h-494zM262 -124q0 28 19.5 47.5t47.5 19.5t47.5 -19.5t19.5 -47.5t-19.5 -48t-47.5 -20t-47.5 20t-19.5 48z" />
    <glyph glyph-name="G.ss08" horiz-adv-x="765" 
d="M391 -15q-154 0 -250.5 98.5t-96.5 261.5q0 170 103.5 270t254.5 100q120 0 203 -65.5t101 -150.5h-129q-47 108 -176 108q-96 0 -160 -69.5t-64 -191.5q0 -119 61 -185.5t159 -66.5q87 0 135 50.5t58 131.5h-206v100h337v-42q0 -71 -20 -133t-59.5 -111t-104 -77
t-146.5 -28z" />
    <glyph glyph-name="G.ss12" horiz-adv-x="782" 
d="M379 -15q-146 0 -240.5 100.5t-94.5 258.5q0 164 102.5 267.5t257.5 103.5q134 0 214.5 -64.5t100.5 -151.5h-129q-51 109 -187 109q-100 0 -164 -70t-64 -193q0 -119 62.5 -187t168.5 -68q81 0 135 51t61 145h-233v100h358q-16 -87 -16 -186q0 -138 34 -200h-124
q-14 40 -21 88q-69 -103 -221 -103z" />
    <glyph glyph-name="Gbreve.ss08" horiz-adv-x="765" 
d="M391 -15q-154 0 -250.5 98.5t-96.5 261.5q0 170 103.5 270t254.5 100q120 0 203 -65.5t101 -150.5h-129q-47 108 -176 108q-96 0 -160 -69.5t-64 -191.5q0 -119 61 -185.5t159 -66.5q87 0 135 50.5t58 131.5h-206v100h337v-42q0 -71 -20 -133t-59.5 -111t-104 -77
t-146.5 -28zM228 881h114q5 -51 57 -51t57 51h114q0 -60 -48 -95.5t-123 -35.5q-74 0 -122.5 35.5t-48.5 95.5z" />
    <glyph glyph-name="Gbreve.ss12" horiz-adv-x="782" 
d="M379 -15q-146 0 -240.5 100.5t-94.5 258.5q0 164 102.5 267.5t257.5 103.5q134 0 214.5 -64.5t100.5 -151.5h-129q-51 109 -187 109q-100 0 -164 -70t-64 -193q0 -119 62.5 -187t168.5 -68q81 0 135 51t61 145h-233v100h358q-16 -87 -16 -186q0 -138 34 -200h-124
q-14 40 -21 88q-69 -103 -221 -103zM247 881h114q5 -51 57 -51t57 51h114q0 -60 -48 -95.5t-123 -35.5q-74 0 -122.5 35.5t-48.5 95.5z" />
    <glyph glyph-name="Gcircumflex.ss08" horiz-adv-x="765" 
d="M391 -15q-154 0 -250.5 98.5t-96.5 261.5q0 170 103.5 270t254.5 100q120 0 203 -65.5t101 -150.5h-129q-47 108 -176 108q-96 0 -160 -69.5t-64 -191.5q0 -119 61 -185.5t159 -66.5q87 0 135 50.5t58 131.5h-206v100h337v-42q0 -71 -20 -133t-59.5 -111t-104 -77
t-146.5 -28zM217 759l115 122h133l116 -122h-118l-63 55l-64 -55h-119z" />
    <glyph glyph-name="Gcircumflex.ss12" horiz-adv-x="782" 
d="M379 -15q-146 0 -240.5 100.5t-94.5 258.5q0 164 102.5 267.5t257.5 103.5q134 0 214.5 -64.5t100.5 -151.5h-129q-51 109 -187 109q-100 0 -164 -70t-64 -193q0 -119 62.5 -187t168.5 -68q81 0 135 51t61 145h-233v100h358q-16 -87 -16 -186q0 -138 34 -200h-124
q-14 40 -21 88q-69 -103 -221 -103zM236 759l115 122h133l116 -122h-118l-63 55l-64 -55h-119z" />
    <glyph glyph-name="uni0122.ss08" horiz-adv-x="765" 
d="M391 -15q-154 0 -250.5 98.5t-96.5 261.5q0 170 103.5 270t254.5 100q120 0 203 -65.5t101 -150.5h-129q-47 108 -176 108q-96 0 -160 -69.5t-64 -191.5q0 -119 61 -185.5t159 -66.5q87 0 135 50.5t58 131.5h-206v100h337v-42q0 -71 -20 -133t-59.5 -111t-104 -77
t-146.5 -28zM342 -299q57 66 58 124h-57v115h117v-80q0 -98 -52 -159h-66z" />
    <glyph glyph-name="uni0122.ss08.ss15" horiz-adv-x="765" 
d="M391 -15q-154 0 -250.5 98.5t-96.5 261.5q0 170 103.5 270t254.5 100q120 0 203 -65.5t101 -150.5h-129q-47 108 -176 108q-96 0 -160 -69.5t-64 -191.5q0 -119 61 -185.5t159 -66.5q87 0 135 50.5t58 131.5h-206v100h337v-42q0 -71 -20 -133t-59.5 -111t-104 -77
t-146.5 -28zM295 -293l56 222h101l-56 -222h-101z" />
    <glyph glyph-name="uni0122.ss12" horiz-adv-x="782" 
d="M379 -15q-146 0 -240.5 100.5t-94.5 258.5q0 164 102.5 267.5t257.5 103.5q134 0 214.5 -64.5t100.5 -151.5h-129q-51 109 -187 109q-100 0 -164 -70t-64 -193q0 -119 62.5 -187t168.5 -68q81 0 135 51t61 145h-233v100h358q-16 -87 -16 -186q0 -138 34 -200h-124
q-14 40 -21 88q-69 -103 -221 -103zM343 -299q57 66 58 124h-57v115h117v-80q0 -98 -52 -159h-66z" />
    <glyph glyph-name="uni0122.ss12.ss15" horiz-adv-x="782" 
d="M379 -15q-146 0 -240.5 100.5t-94.5 258.5q0 164 102.5 267.5t257.5 103.5q134 0 214.5 -64.5t100.5 -151.5h-129q-51 109 -187 109q-100 0 -164 -70t-64 -193q0 -119 62.5 -187t168.5 -68q81 0 135 51t61 145h-233v100h358q-16 -87 -16 -186q0 -138 34 -200h-124
q-14 40 -21 88q-69 -103 -221 -103zM296 -293l56 222h101l-56 -222h-101z" />
    <glyph glyph-name="uni0122.ss15" horiz-adv-x="788" 
d="M382 -15q-147 0 -242.5 100.5t-95.5 258.5q0 164 102.5 267.5t260.5 103.5q132 0 212 -64.5t100 -151.5h-129q-50 109 -185 109q-101 0 -165.5 -70t-64.5 -193q0 -119 63 -187t170 -68q84 0 140 50.5t62 145.5h-241v100h349v-386h-116v84q-30 -45 -86.5 -72t-133.5 -27z
M296 -293l56 222h101l-56 -222h-101z" />
    <glyph glyph-name="Gdotaccent.ss08" horiz-adv-x="765" 
d="M391 -15q-154 0 -250.5 98.5t-96.5 261.5q0 170 103.5 270t254.5 100q120 0 203 -65.5t101 -150.5h-129q-47 108 -176 108q-96 0 -160 -69.5t-64 -191.5q0 -119 61 -185.5t159 -66.5q87 0 135 50.5t58 131.5h-206v100h337v-42q0 -71 -20 -133t-59.5 -111t-104 -77
t-146.5 -28zM333 760v124h132v-124h-132z" />
    <glyph glyph-name="Gdotaccent.ss08.ss15" horiz-adv-x="765" 
d="M391 -15q-154 0 -250.5 98.5t-96.5 261.5q0 170 103.5 270t254.5 100q120 0 203 -65.5t101 -150.5h-129q-47 108 -176 108q-96 0 -160 -69.5t-64 -191.5q0 -119 61 -185.5t159 -66.5q87 0 135 50.5t58 131.5h-206v100h337v-42q0 -71 -20 -133t-59.5 -111t-104 -77
t-146.5 -28zM321 833q0 32 23.5 54.5t55.5 22.5q31 0 54.5 -22.5t23.5 -54.5t-23.5 -55t-54.5 -23q-32 0 -55.5 23t-23.5 55z" />
    <glyph glyph-name="Gdotaccent.ss12" horiz-adv-x="782" 
d="M379 -15q-146 0 -240.5 100.5t-94.5 258.5q0 164 102.5 267.5t257.5 103.5q134 0 214.5 -64.5t100.5 -151.5h-129q-51 109 -187 109q-100 0 -164 -70t-64 -193q0 -119 62.5 -187t168.5 -68q81 0 135 51t61 145h-233v100h358q-16 -87 -16 -186q0 -138 34 -200h-124
q-14 40 -21 88q-69 -103 -221 -103zM351 760v124h132v-124h-132z" />
    <glyph glyph-name="Gdotaccent.ss12.ss15" horiz-adv-x="782" 
d="M379 -15q-146 0 -240.5 100.5t-94.5 258.5q0 164 102.5 267.5t257.5 103.5q134 0 214.5 -64.5t100.5 -151.5h-129q-51 109 -187 109q-100 0 -164 -70t-64 -193q0 -119 62.5 -187t168.5 -68q81 0 135 51t61 145h-233v100h358q-16 -87 -16 -186q0 -138 34 -200h-124
q-14 40 -21 88q-69 -103 -221 -103zM339 833q0 32 23.5 54.5t55.5 22.5q31 0 54.5 -22.5t23.5 -54.5t-23.5 -55t-54.5 -23q-32 0 -55.5 23t-23.5 55z" />
    <glyph glyph-name="Gdotaccent.ss15" horiz-adv-x="788" 
d="M382 -15q-147 0 -242.5 100.5t-95.5 258.5q0 164 102.5 267.5t260.5 103.5q132 0 212 -64.5t100 -151.5h-129q-50 109 -185 109q-101 0 -165.5 -70t-64.5 -193q0 -119 63 -187t170 -68q84 0 140 50.5t62 145.5h-241v100h349v-386h-116v84q-30 -45 -86.5 -72t-133.5 -27z
M339 833q0 32 23.5 54.5t55.5 22.5q31 0 54.5 -22.5t23.5 -54.5t-23.5 -55t-54.5 -23q-32 0 -55.5 23t-23.5 55z" />
    <glyph glyph-name="IJ.ss12" horiz-adv-x="604" 
d="M84 0v700h125v-700h-125zM313 0q87 89 87 221v479h125v-472q0 -82 -16.5 -134.5t-53.5 -93.5h-142z" />
    <glyph glyph-name="Idotaccent.ss15" horiz-adv-x="292" 
d="M84 0v700h125v-700h-125zM68 833q0 32 23.5 54.5t55.5 22.5q31 0 54.5 -22.5t23.5 -54.5t-23.5 -55t-54.5 -23q-32 0 -55.5 23t-23.5 55z" />
    <glyph glyph-name="uni1ECA.ss15" horiz-adv-x="292" 
d="M84 0v700h125v-700h-125zM79 -124q0 28 19.5 47.5t47.5 19.5t47.5 -19.5t19.5 -47.5t-19.5 -48t-47.5 -20t-47.5 20t-19.5 48z" />
    <glyph glyph-name="J.ss12" horiz-adv-x="312" 
d="M21 0q87 89 87 221v479h125v-472q0 -82 -16.5 -134.5t-53.5 -93.5h-142z" />
    <glyph glyph-name="Jcircumflex.ss12" horiz-adv-x="312" 
d="M21 0q87 89 87 221v479h125v-472q0 -82 -16.5 -134.5t-53.5 -93.5h-142zM-11 759l115 122h133l116 -122h-118l-63 55l-64 -55h-119z" />
    <glyph glyph-name="uni0136.ss15" horiz-adv-x="690" 
d="M84 0v700h125v-329l320 329h155l-278 -288l280 -412h-154l-215 327l-108 -111v-216h-125zM252 -293l56 222h101l-56 -222h-101z" />
    <glyph glyph-name="Lcaron.ss15" horiz-adv-x="524" 
d="M84 0v700h125v-586h292v-114h-417zM251 499l50 201h92l-51 -201h-91z" />
    <glyph glyph-name="uni013B.ss15" horiz-adv-x="523" 
d="M84 0v700h125v-586h292v-114h-417zM186 -293l56 222h101l-56 -222h-101z" />
    <glyph glyph-name="Ldot.ss15" horiz-adv-x="539" 
d="M84 0v700h125v-586h292v-114h-417zM327 351q0 32 22.5 54.5t54.5 22.5t54 -22.5t22 -54.5t-22.5 -54.5t-53.5 -22.5q-32 0 -54.5 23t-22.5 54z" />
    <glyph glyph-name="uni0145.ss15" horiz-adv-x="755" 
d="M84 0v700h164l301 -541q-2 124 -2 223v318h124v-700h-164l-303 543q3 -92 3 -221v-322h-123zM271 -293l56 222h101l-56 -222h-101z" />
    <glyph glyph-name="uni1ED8.ss15" horiz-adv-x="803" 
d="M402 -15q-149 0 -254 101.5t-105 263.5t105 263.5t254 101.5t253.5 -101.5t104.5 -263.5t-104.5 -263.5t-253.5 -101.5zM175 350q0 -117 63 -187.5t164 -70.5t163.5 70t62.5 188t-62.5 188t-163.5 70t-164 -70.5t-63 -187.5zM220 759l115 122h133l116 -122h-118l-63 55
l-64 -55h-119zM334 -124q0 28 19.5 47.5t47.5 19.5t47.5 -19.5t19.5 -47.5t-19.5 -48t-47.5 -20t-47.5 20t-19.5 48z" />
    <glyph glyph-name="Odieresis.ss15" horiz-adv-x="803" 
d="M402 -15q-149 0 -254 101.5t-105 263.5t105 263.5t254 101.5t253.5 -101.5t104.5 -263.5t-104.5 -263.5t-253.5 -101.5zM175 350q0 -117 63 -187.5t164 -70.5t163.5 70t62.5 188t-62.5 188t-163.5 70t-164 -70.5t-63 -187.5zM206 831q0 31 22 53t54 22q31 0 53 -22
t22 -53q0 -32 -22 -54t-53 -22q-32 0 -54 22t-22 54zM446 831q0 31 22 53t53 22q32 0 54 -22t22 -53q0 -32 -22 -54t-54 -22t-53.5 22t-21.5 54z" />
    <glyph glyph-name="uni1ECC.ss15" horiz-adv-x="803" 
d="M402 -15q-149 0 -254 101.5t-105 263.5t105 263.5t254 101.5t253.5 -101.5t104.5 -263.5t-104.5 -263.5t-253.5 -101.5zM175 350q0 -117 63 -187.5t164 -70.5t163.5 70t62.5 188t-62.5 188t-163.5 70t-164 -70.5t-63 -187.5zM334 -124q0 28 19.5 47.5t47.5 19.5
t47.5 -19.5t19.5 -47.5t-19.5 -48t-47.5 -20t-47.5 20t-19.5 48z" />
    <glyph glyph-name="uni1EE2.ss15" horiz-adv-x="803" 
d="M402 -15q-149 0 -254 101.5t-105 263.5t105 263.5t254 101.5q54 0 104 -15q55 3 77.5 27t19.5 77h101q9 -114 -89 -156q67 -49 106 -125.5t39 -172.5q0 -162 -104.5 -263.5t-253.5 -101.5zM175 350q0 -117 63 -187.5t164 -70.5t163.5 70t62.5 188t-62.5 188t-163.5 70
t-164 -70.5t-63 -187.5zM334 -124q0 28 19.5 47.5t47.5 19.5t47.5 -19.5t19.5 -47.5t-19.5 -48t-47.5 -20t-47.5 20t-19.5 48z" />
    <glyph glyph-name="Q.ss10" horiz-adv-x="803" 
d="M631 -40l-67 62q-76 -37 -162 -37q-149 0 -254 101.5t-105 263.5t105 263.5t254 101.5t253.5 -101.5t104.5 -263.5t-108 -267l132 -123h-153zM175 350q0 -117 63 -187.5t164 -70.5q38 0 74 11l-150 140h154l86 -80q62 70 62 187q0 118 -62.5 188t-163.5 70t-164 -70.5
t-63 -187.5z" />
    <glyph glyph-name="R.ss09" horiz-adv-x="672" 
d="M84 0v701h273q121 0 187 -52t66 -137q0 -68 -35.5 -110.5t-96.5 -58.5q114 -8 114 -147v-58q0 -100 37 -136v-2h-134q-27 37 -27 128v64q0 57 -21.5 79t-74.5 22h-163v-293h-125zM209 387h140q65 0 99.5 27.5t34.5 80.5q0 104 -132 104h-142v-212z" />
    <glyph glyph-name="Racute.ss09" horiz-adv-x="672" 
d="M84 0v701h273q121 0 187 -52t66 -137q0 -68 -35.5 -110.5t-96.5 -58.5q114 -8 114 -147v-58q0 -100 37 -136v-2h-134q-27 37 -27 128v64q0 57 -21.5 79t-74.5 22h-163v-293h-125zM209 387h140q65 0 99.5 27.5t34.5 80.5q0 104 -132 104h-142v-212zM275 760l107 122h146
l-145 -122h-108z" />
    <glyph glyph-name="Rcaron.ss09" horiz-adv-x="672" 
d="M84 0v701h273q121 0 187 -52t66 -137q0 -68 -35.5 -110.5t-96.5 -58.5q114 -8 114 -147v-58q0 -100 37 -136v-2h-134q-27 37 -27 128v64q0 57 -21.5 79t-74.5 22h-163v-293h-125zM121 883h118l64 -55l63 55h119l-115 -122h-133zM209 387h140q65 0 99.5 27.5t34.5 80.5
q0 104 -132 104h-142v-212z" />
    <glyph glyph-name="uni0156.ss09" horiz-adv-x="672" 
d="M84 0v701h273q121 0 187 -52t66 -137q0 -68 -35.5 -110.5t-96.5 -58.5q114 -8 114 -147v-58q0 -100 37 -136v-2h-134q-27 37 -27 128v64q0 57 -21.5 79t-74.5 22h-163v-293h-125zM209 387h140q65 0 99.5 27.5t34.5 80.5q0 104 -132 104h-142v-212zM288 -299q57 66 58 124
h-57v115h117v-80q0 -98 -52 -159h-66z" />
    <glyph glyph-name="uni0156.ss09.ss15" horiz-adv-x="672" 
d="M84 0v701h273q121 0 187 -52t66 -137q0 -68 -35.5 -110.5t-96.5 -58.5q114 -8 114 -147v-58q0 -100 37 -136v-2h-134q-27 37 -27 128v64q0 57 -21.5 79t-74.5 22h-163v-293h-125zM209 387h140q65 0 99.5 27.5t34.5 80.5q0 104 -132 104h-142v-212zM241 -293l56 222h101
l-56 -222h-101z" />
    <glyph glyph-name="uni0156.ss15" horiz-adv-x="662" 
d="M84 0v700h266q117 0 187 -56t70 -153q0 -78 -49 -129t-131 -69l205 -293h-148l-189 285h-86v-285h-125zM209 385h131q64 0 102 26t38 80q0 53 -37.5 80.5t-99.5 27.5h-134v-214zM239 -293l56 222h101l-56 -222h-101z" />
    <glyph glyph-name="uni0218.ss15" horiz-adv-x="669" 
d="M339 -15q-131 0 -213 65.5t-91 170.5h131q11 -63 57.5 -98t123.5 -35q68 0 111 29.5t43 74.5q0 39 -29.5 60.5t-100.5 37.5l-95 22q-112 26 -166 72t-54 122q0 92 78 150.5t194 58.5q123 0 196 -54.5t87 -136.5h-125q-13 42 -54 66.5t-105 24.5q-63 0 -103 -27t-40 -71
q0 -34 26.5 -52.5t95.5 -35.5l84 -20q127 -30 184.5 -76.5t57.5 -125.5q0 -98 -82 -160t-211 -62zM227 -293l56 222h101l-56 -222h-101z" />
    <glyph glyph-name="uni021A.ss15" horiz-adv-x="546" 
d="M211 0v589h-189v111h502v-111h-188v-589h-125zM167 -293l56 222h101l-56 -222h-101z" />
    <glyph glyph-name="Udieresis.ss15" horiz-adv-x="694" 
d="M347 -15q-123 0 -196.5 72.5t-73.5 197.5v445h125v-430q0 -84 37 -129.5t108 -45.5t108.5 45.5t37.5 129.5v430h125v-445q0 -125 -73.5 -197.5t-197.5 -72.5zM152 831q0 31 22 53t54 22q31 0 53 -22t22 -53q0 -32 -22 -54t-53 -22q-32 0 -54 22t-22 54zM392 831
q0 31 22 53t53 22q32 0 54 -22t22 -53q0 -32 -22 -54t-54 -22t-53.5 22t-21.5 54z" />
    <glyph glyph-name="uni1EE4.ss15" horiz-adv-x="694" 
d="M347 -15q-123 0 -196.5 72.5t-73.5 197.5v445h125v-430q0 -84 37 -129.5t108 -45.5t108.5 45.5t37.5 129.5v430h125v-445q0 -125 -73.5 -197.5t-197.5 -72.5zM280 -124q0 28 19.5 47.5t47.5 19.5t47.5 -19.5t19.5 -47.5t-19.5 -48t-47.5 -20t-47.5 20t-19.5 48z" />
    <glyph glyph-name="uni1EF0.ss15" horiz-adv-x="715" 
d="M347 -15q-123 0 -196.5 72.5t-73.5 197.5v445h125v-430q0 -84 37 -129.5t108 -45.5t108.5 45.5t37.5 129.5v430h40q48 0 67 23.5t15 80.5h101q11 -129 -98 -165v-384q0 -125 -73.5 -197.5t-197.5 -72.5zM280 -124q0 28 19.5 47.5t47.5 19.5t47.5 -19.5t19.5 -47.5
t-19.5 -48t-47.5 -20t-47.5 20t-19.5 48z" />
    <glyph glyph-name="Wdieresis.ss15" horiz-adv-x="935" 
d="M190 0l-163 700h132l120 -558l116 558h155l113 -552l117 552h127l-162 -700h-158l-119 537l-118 -537h-160zM275 831q0 31 22 53t54 22q31 0 53 -22t22 -53q0 -32 -22 -54t-53 -22q-32 0 -54 22t-22 54zM515 831q0 31 21.5 53t53.5 22t54 -22t22 -53q0 -32 -22 -54
t-54 -22t-53.5 22t-21.5 54z" />
    <glyph glyph-name="Ydieresis.ss15" horiz-adv-x="617" 
d="M246 0v293l-249 407h151l97 -170q49 -87 68 -128h2q20 45 67 130l94 168h143l-248 -406v-294h-125zM115 831q0 31 22 53t54 22q31 0 53 -22t22 -53q0 -32 -22 -54t-53 -22q-32 0 -54 22t-22 54zM355 831q0 31 21.5 53t53.5 22t54 -22t22 -53q0 -32 -22 -54t-54 -22
t-53.5 22t-21.5 54z" />
    <glyph glyph-name="uni1EF4.ss15" horiz-adv-x="617" 
d="M246 0v293l-249 407h151l97 -170q49 -87 68 -128h2q20 45 67 130l94 168h143l-248 -406v-294h-125zM241 -124q0 28 19.5 47.5t47.5 19.5t47.5 -19.5t19.5 -47.5t-19.5 -48t-47.5 -20t-47.5 20t-19.5 48z" />
    <glyph glyph-name="Zdotaccent.ss15" horiz-adv-x="608" 
d="M40 0v111l380 483h-370v106h508v-111l-380 -483h390v-106h-528zM223 833q0 32 23.5 54.5t55.5 22.5q31 0 54.5 -22.5t23.5 -54.5t-23.5 -55t-54.5 -23q-32 0 -55.5 23t-23.5 55z" />
    <glyph glyph-name="I_S_B_N.dlig" horiz-adv-x="2335" 
d="M1044 0v599h-428q-62 0 -98.5 -22t-36.5 -60q0 -35 25 -53.5t85 -32.5l95 -23q116 -28 172.5 -76.5t56.5 -128.5q0 -95 -72.5 -149t-226.5 -54h-532v700h125v-589h422q74 0 113.5 23.5t39.5 62.5q0 36 -27.5 55.5t-94.5 36.5l-95 22q-106 27 -160 72.5t-54 120.5
q0 89 66.5 142.5t177.5 53.5h681q109 0 175.5 -49.5t66.5 -137.5q0 -54 -33.5 -94.5t-83.5 -55.5q58 -12 97.5 -53t39.5 -101q0 -61 -44 -108h168v599h164l301 -539q-1 61 -1 221v318h123v-700h-164l-303 543q3 -91 3 -221v-322h-743zM1168 101h105q141 0 141 103
q0 49 -34.5 77t-101.5 28h-110v-208zM1168 403h110q55 0 85.5 27t30.5 73q0 96 -126 96h-100v-196z" />
    <glyph glyph-name="a.ss01" horiz-adv-x="614" 
d="M268 -15q-100 0 -164.5 73.5t-64.5 197.5q0 123 64.5 196.5t164.5 73.5q107 0 155 -81v66h120v-511h-120v64q-21 -36 -61 -57.5t-94 -21.5zM161 256q0 -81 34 -128.5t96 -47.5q59 0 96.5 49.5t37.5 126.5q0 76 -37.5 125t-96.5 49q-62 0 -96 -46.5t-34 -127.5z" />
    <glyph glyph-name="aacute.ss01" horiz-adv-x="614" 
d="M268 -15q-100 0 -164.5 73.5t-64.5 197.5q0 123 64.5 196.5t164.5 73.5q107 0 155 -81v66h120v-511h-120v64q-21 -36 -61 -57.5t-94 -21.5zM161 256q0 -81 34 -128.5t96 -47.5q59 0 96.5 49.5t37.5 126.5q0 76 -37.5 125t-96.5 49q-62 0 -96 -46.5t-34 -127.5zM246 573
l107 132h146l-146 -132h-107z" />
    <glyph glyph-name="abreve.ss01" horiz-adv-x="614" 
d="M268 -15q-100 0 -164.5 73.5t-64.5 197.5q0 123 64.5 196.5t164.5 73.5q107 0 155 -81v66h120v-511h-120v64q-21 -36 -61 -57.5t-94 -21.5zM136 708h107q3 -61 59 -61q54 0 59 61h106q0 -65 -46 -102.5t-119 -37.5q-74 0 -119.5 37.5t-46.5 102.5zM161 256
q0 -81 34 -128.5t96 -47.5q59 0 96.5 49.5t37.5 126.5q0 76 -37.5 125t-96.5 49q-62 0 -96 -46.5t-34 -127.5z" />
    <glyph glyph-name="uni1EAF.ss01" horiz-adv-x="614" 
d="M268 -15q-100 0 -164.5 73.5t-64.5 197.5q0 123 64.5 196.5t164.5 73.5q107 0 155 -81v66h120v-511h-120v64q-21 -36 -61 -57.5t-94 -21.5zM136 708h107q3 -61 59 -61q54 0 59 61h106q0 -65 -46 -102.5t-119 -37.5q-74 0 -119.5 37.5t-46.5 102.5zM161 256
q0 -81 34 -128.5t96 -47.5q59 0 96.5 49.5t37.5 126.5q0 76 -37.5 125t-96.5 49q-62 0 -96 -46.5t-34 -127.5zM246 748l107 132h146l-146 -132h-107z" />
    <glyph glyph-name="uni1EB7.ss01" horiz-adv-x="614" 
d="M268 -15q-100 0 -164.5 73.5t-64.5 197.5q0 123 64.5 196.5t164.5 73.5q107 0 155 -81v66h120v-511h-120v64q-21 -36 -61 -57.5t-94 -21.5zM136 708h107q3 -61 59 -61q54 0 59 61h106q0 -65 -46 -102.5t-119 -37.5q-74 0 -119.5 37.5t-46.5 102.5zM161 256
q0 -81 34 -128.5t96 -47.5q59 0 96.5 49.5t37.5 126.5q0 76 -37.5 125t-96.5 49q-62 0 -96 -46.5t-34 -127.5zM234 -179v113h125v-113h-125z" />
    </font>
</defs>
</svg>
